<?xml version="1.0" standalone="no"?>
<!DOCTYPE svg PUBLIC "-//W3C//DTD SVG 1.1//EN" "http://www.w3.org/Graphics/SVG/1.1/DTD/svg11.dtd">
<svg xmlns="http://www.w3.org/2000/svg">
<defs >
<font id="NotoSans" horiz-adv-x="552" ><font-face
    font-family="Noto Sans Thin"
    units-per-em="1000"
    panose-1="2 11 5 2 4 5 4 9 2 4"
    ascent="1069"
    descent="-293"
    alphabetic="0" />
<glyph unicode=" " horiz-adv-x="260" />
<glyph unicode="!" horiz-adv-x="210" d="M77 174L191 714H219L101 174H77ZM55 -8Q45 -8 39 -2T32 14Q32 28 39 41T62 54Q74 54 79 47T84 32Q84 19 77 6T55 -8Z" />
<glyph unicode="&quot;" horiz-adv-x="310" d="M248 456L299 714H327L268 456H248ZM110 456L161 714H189L130 456H110Z" />
<glyph unicode="#" horiz-adv-x="614" d="M107 0L172 227H35L37 251H178L240 462H97L99 486H247L313 714H338L273 486H459L525 714H550L484 486H624L622 462H478L419 251H562L560 227H413L345 0H319L387 227H198L132 0H107ZM204 251H393L452 462H266L204 251Z" />
<glyph unicode="$" horiz-adv-x="550" d="M215 50Q163 50 120 59T51 79V107Q80 94 123 85T221 75L280 353Q238 369 206 388T155 435T136 505Q136 561 165 597T243 653T348 675L365 758H389L372 675Q409 672 445 664T513 641L502 617Q466 634 433 640T367 650L307
370Q350 352 383 335T434 292T453 223Q453 169 423 132T345 74T239 50L215 -58H191L215 50ZM245 75Q293 78 334 95T401 144T427 221Q427 255 412 276T368 313T301 344L245 75ZM343 650Q293 648 253 631T188 582T164 507Q164 469 180 446T224 408T285 378L343 650Z"
/>
<glyph unicode="%" horiz-adv-x="763" d="M120 0L647 714H677L150 0H120ZM188 276Q140 276 113 308T86 408Q86 442 92 484T112 568T147 645T198 702T268 724Q318 724 343 692T369 595Q369 563 363 521T344 436T310 357T258 299T188 276ZM189 301Q223 301 248 321T291
375T320 447T337 524T342 593Q342 648 324 673T267 699Q234 699 209 679T165 627T136 556T119 479T113 410Q113 354 133 328T189 301ZM527 -12Q479 -12 452 20T425 120Q425 154 431 196T451 280T486 357T537 414T607 436Q657 436 682 404T708 307Q708 275 702 233T683
148T649 69T597 11T527 -12ZM528 13Q562 13 587 33T630 87T659 159T676 236T681 305Q681 360 663 385T606 411Q573 411 548 391T504 339T475 268T458 191T452 122Q452 66 472 40T528 13Z" />
<glyph unicode="&amp;" horiz-adv-x="682" d="M223 -10Q147 -10 97 31T47 146Q47 213 76 257T155 334T271 395Q239 438 222 474T204 550Q204 601 226 640T289 702T383 725Q422 725 452 708T500 663T518 597Q518 540 491 504T416 441T309 386L485 140Q522 176 556
225T613 328H640Q622 287 600 251T553 182T500 121L585 0H554L482 105Q427 55 368 23T223 -10ZM226 15Q278 15 319 28T396 66T468 123L285 377Q222 349 175 319T101 248T74 148Q74 105 95 76T151 31T226 15ZM294 404Q325 418 359 434T424 472T472 524T491 597Q491
643 458 671T379 700Q339 700 305 683T251 632T231 551Q231 514 247 480T294 404Z" />
<glyph unicode="&apos;" horiz-adv-x="172" d="M110 456L161 714H189L130 456H110Z" />
<glyph unicode="(" horiz-adv-x="242" d="M97 -158Q76 -120 62 -77T40 16T32 118Q32 209 50 294T102 455T179 597T277 714H311Q251 657 205 588T125 442T75 283T58 118Q58 67 65 19T88 -74T126 -158H97Z" />
<glyph unicode=")" horiz-adv-x="242" d="M-63 -158Q-3 -101 43 -32T123 114T173 273T190 438Q190 490 183 538T160 630T122 714H151Q172 677 186 633T208 541T216 438Q216 347 198 262T146 101T69 -41T-29 -158H-63Z" />
<glyph unicode="*" horiz-adv-x="531" d="M396 338L318 528L169 387L150 407L306 540L127 637L141 662L315 554L353 757L380 751L331 550L535 577L534 549L334 534L422 349L396 338Z" />
<glyph unicode="+" horiz-adv-x="570" d="M317 365H535V341H317V123H293V341H75V365H293V583H317V365Z" />
<glyph unicode="," horiz-adv-x="183" d="M-45 -129Q-20 -80 -2 -39T32 40T60 116H87L88 104Q74 67 57 26T19 -54T-22 -129H-45Z" />
<glyph unicode="-" horiz-adv-x="312" d="M38 259L43 284H274L269 259H38Z" />
<glyph unicode="." horiz-adv-x="210" d="M55 -8Q45 -8 39 -2T32 14Q32 28 39 41T62 54Q74 54 79 47T84 32Q84 19 77 6T55 -8Z" />
<glyph unicode="/" horiz-adv-x="306" d="M-43 0L363 714H392L-14 0H-43Z" />
<glyph unicode="0" horiz-adv-x="550" d="M236 -10Q160 -10 113 43T66 203Q66 258 73 318T96 436T134 547T190 639T265 702T359 725Q402 725 433 711T486 669T517 605T528 522Q528 460 520 397T496 274T455 163T398 73T325 12T236 -10ZM237 15Q280 15 316 36T382
94T434 181T471 287T493 403T501 520Q501 604 467 652T358 700Q311 700 273 678T205 617T154 528T120 423T100 311T93 204Q93 108 131 62T237 15Z" />
<glyph unicode="1" horiz-adv-x="550" d="M348 563Q354 592 359 614T368 654T376 685Q363 675 350 665T315 641L179 551L166 571L382 714H407L256 0H229L348 563Z" />
<glyph unicode="2" horiz-adv-x="550" d="M10 0L14 23L278 262Q312 293 347 327T413 400T462 483T481 579Q481 636 446 667T352 699Q325 699 297 692T239 671T178 635L165 655Q216 693 264 708T352 724Q399 724 434 706T488 655T507 579Q507 511 478 455T401 347T297
246L52 26V25H425L420 0H10Z" />
<glyph unicode="3" horiz-adv-x="550" d="M210 -10Q149 -10 102 2T22 33V61Q54 42 103 29T211 15Q265 15 308 29T381 70T428 131T444 209Q444 260 421 293T357 342T260 359H181L186 384H265Q305 384 346 395T421 429T477 488T498 575Q498 631 461 665T363 699Q309
699 258 682T154 629L141 650Q190 684 246 704T364 724Q411 724 447 705T504 652T525 574Q525 516 500 474T433 407T344 372V370Q403 359 437 317T471 209Q471 161 453 121T400 52T317 6T210 -10Z" />
<glyph unicode="4" horiz-adv-x="550" d="M330 0L371 194H15L19 212L477 718H508L402 219H529L523 194H397L356 0H330ZM57 219H376L441 524Q450 565 455 591T466 638T477 686H475Q462 669 451 656T427 628T395 592L57 219Z" />
<glyph unicode="5" horiz-adv-x="550" d="M206 -10Q172 -10 140 -5T82 10T38 32V62Q66 42 112 29T208 15Q256 15 299 29T375 71T428 142T448 246Q448 317 406 359T285 402Q241 402 209 396T139 379L124 393L220 714H537L532 689H239L154 408Q178 415 209 421T285
427Q342 427 384 405T451 342T475 247Q475 182 453 134T394 53T308 6T206 -10Z" />
<glyph unicode="6" horiz-adv-x="550" d="M253 -10Q186 -10 145 20T86 100T68 209Q68 261 80 320T113 439T165 550T233 639Q264 670 300 689T374 717T448 726Q475 726 500 722T543 712L537 686Q521 693 498 697T448 701Q375 701 309 665T191 546T105 322H107Q126
350 156 377T228 421T324 439Q401 439 446 392T491 267Q491 206 472 155T418 67T342 10T253 -10ZM252 15Q300 15 339 36T406 94T449 176T464 267Q464 338 425 376T321 414Q263 414 216 390T138 329T101 258Q100 250 99 240T96 219T95 197Q95 166 102 134T126 75T173
32T252 15Z" />
<glyph unicode="7" horiz-adv-x="550" d="M114 0L524 689H128L133 714H562L559 697L146 0H114Z" />
<glyph unicode="8" horiz-adv-x="550" d="M238 -10Q183 -10 140 11T72 70T47 158Q47 222 77 263T159 330T274 377Q245 396 219 418T177 470T161 542Q161 598 187 639T258 702T361 724Q411 724 449 705T508 653T530 580Q530 527 504 489T434 423T333 373Q371 353
402 330T453 274T472 190Q472 125 440 81T354 13T238 -10ZM239 15Q293 15 340 34T416 92T446 190Q446 237 428 266T377 318T303 363Q243 343 191 319T106 258T73 158Q73 91 120 53T239 15ZM306 387Q362 408 406 433T477 495T503 580Q503 636 462 667T360 699Q312
699 273 682T210 629T187 542Q187 487 220 452T306 387Z" />
<glyph unicode="9" horiz-adv-x="550" d="M165 -10Q131 -10 100 -6T47 6V34Q67 27 99 21T165 15Q212 15 258 35T346 99T423 214T484 387H482Q465 360 435 335T364 292T269 275Q217 275 179 297T121 357T100 443Q100 503 119 554T171 644T248 703T342 724Q405 724
445 695T504 617T523 507Q523 453 510 391T474 267T418 153T348 65Q327 46 304 32T258 8T212 -5T165 -10ZM270 300Q329 300 375 324T452 384T491 458Q494 471 495 483T496 512Q496 560 482 602T435 672T342 699Q292 699 253 678T185 620T142 538T127 443Q127 377
166 339T270 300Z" />
<glyph unicode=":" horiz-adv-x="210" d="M157 470Q147 470 141 476T134 492Q134 501 137 510T147 526T164 532Q176 532 181 525T186 510Q186 497 179 484T157 470ZM55 -8Q45 -8 39 -2T32 14Q32 28 39 41T62 54Q74 54 79 47T84 32Q84 19 77 6T55 -8Z" />
<glyph unicode=";" horiz-adv-x="210" d="M-45 -129Q-20 -80 -2 -39T32 40T60 116H87L88 104Q74 67 57 26T19 -54T-22 -129H-45ZM156 470Q146 470 140 476T133 492Q133 501 136 510T146 526T163 532Q175 532 180 525T185 510Q185 497 178 484T156 470Z" />
<glyph unicode="&lt;" horiz-adv-x="570" d="M534 138L76 353V371L534 586V560L111 362L534 164V138Z" />
<glyph unicode="=" horiz-adv-x="570" d="M75 443V467H535V443H75ZM75 239V263H535V239H75Z" />
<glyph unicode="&gt;" horiz-adv-x="570" d="M76 164L499 362L76 560V586L534 371V353L76 138V164Z" />
<glyph unicode="?" horiz-adv-x="403" d="M121 174Q131 232 149 266T194 324T258 377Q292 403 323 428T374 486T395 569Q395 628 359 663T263 699Q234 699 202 692T131 667L121 690Q165 710 198 717T263 724Q336 724 378 680T421 570Q421 518 401 482T347 416T270
357Q239 334 214 311T172 257T145 174H121ZM104 -8Q94 -8 88 -2T81 14Q81 28 88 41T111 54Q123 54 128 47T133 32Q133 19 126 6T104 -8Z" />
<glyph unicode="@" horiz-adv-x="834" d="M375 -90Q312 -90 255 -70T152 -8T81 95T55 242Q55 311 74 378T130 505T223 609T353 680T519 706Q608 706 672 670T772 569T807 413Q807 363 797 318T769 234T725 167T670 123T604 107Q561 107 541 132T521 209H519Q492
160 452 134T359 107Q310 107 278 139T245 231Q245 278 257 319T293 395T347 454T414 492T491 506Q525 506 556 500T611 483L573 341Q560 295 553 263T545 210Q545 177 558 155T605 132Q632 132 657 146T705 185T744 246T770 323T780 413Q780 494 750 554T660 647T517
681Q433 681 365 658T244 594T156 497T102 377T83 243Q83 138 124 70T232 -32T375 -65Q423 -65 473 -58T572 -31V-56Q527 -72 479 -81T375 -90ZM361 132Q425 132 471 180T542 320L581 465Q562 472 540 476T488 481Q445 481 407 463T338 412T290 334T272 232Q272
183 296 158T361 132Z" />
<glyph unicode="A" horiz-adv-x="547" d="M-50 0L368 716H392L498 0H473L432 271H138L-20 0H-50ZM152 296H428L385 594Q382 613 379 636T374 682H372Q361 660 349 638T324 594L152 296Z" />
<glyph unicode="B" horiz-adv-x="598" d="M50 0L201 714H382Q452 714 495 697T559 647T580 571Q580 518 560 477T501 411T410 376L409 374Q468 361 498 322T528 223Q528 146 490 97T387 24T240 0H50ZM252 25Q319 25 375 45T466 108T501 223Q501 299 451 331T314
363H154L82 25H252ZM322 388Q391 388 443 407T524 467T553 571Q553 630 509 659T376 689H223L159 388H322Z" />
<glyph unicode="C" horiz-adv-x="594" d="M326 -10Q250 -10 196 24T113 121T84 268Q84 350 103 420T157 546T241 642T347 703T471 724Q518 724 558 715T633 687L621 662Q586 683 548 691T471 699Q410 699 356 679T256 622T179 532T128 413T110 270Q110 152 168
84T327 15Q378 15 421 23T500 44V21Q466 8 423 -1T326 -10Z" />
<glyph unicode="D" horiz-adv-x="677" d="M50 0L201 714H346Q483 714 560 643T637 425Q637 359 620 297T569 181T482 87T358 23T196 0H50ZM197 25Q279 25 344 46T460 104T543 192T593 301T610 425Q610 561 539 625T336 689H223L82 25H197Z" />
<glyph unicode="E" horiz-adv-x="535" d="M50 0L201 714H559L554 689H223L159 389H471L466 364H154L82 25H413L408 0H50Z" />
<glyph unicode="F" horiz-adv-x="487" d="M50 0L201 714H560L555 689H223L152 354H466L460 329H146L77 0H50Z" />
<glyph unicode="G" horiz-adv-x="690" d="M333 -10Q213 -10 149 65T84 267Q84 351 104 422T159 549T243 644T347 703T464 724Q520 724 570 713T664 682L653 657Q610 677 562 688T463 699Q392 699 329 669T216 582T138 446T110 267Q110 182 139 126T218 43T334
15Q387 15 439 26T531 53L589 325H388L394 350H621L554 36Q504 13 446 2T333 -10Z" />
<glyph unicode="H" horiz-adv-x="681" d="M50 0L201 714H228L159 388H580L649 714H676L525 0H498L575 363H154L77 0H50Z" />
<glyph unicode="I" horiz-adv-x="279" d="M8 0L12 20L78 23L220 690L155 694L159 714H317L313 694L246 690L104 23L170 20L166 0H8Z" />
<glyph unicode="J" horiz-adv-x="231" d="M-88 -174Q-110 -174 -133 -170T-170 -161L-169 -136Q-150 -142 -128 -145T-87 -148Q-44 -148 -17 -131T26 -82T51 -9L204 714H231L77 -13Q66 -67 45 -103T-9 -156T-88 -174Z" />
<glyph unicode="K" horiz-adv-x="543" d="M50 0L201 714H228L145 324L202 376L592 714H629L283 414L484 0H454L262 396L138 291L77 0H50Z" />
<glyph unicode="L" horiz-adv-x="491" d="M50 0L201 714H228L82 25H411L406 0H50Z" />
<glyph unicode="M" horiz-adv-x="806" d="M50 0L201 714H239L357 47H360L759 714H801L650 0H624L751 602Q753 612 755 623T761 648T769 678H767L360 0H340L220 679H218Q215 663 213 650T209 625T203 597L77 0H50Z" />
<glyph unicode="N" horiz-adv-x="674" d="M50 0L201 714H220L503 54H505Q510 80 515 107T526 161T536 211L643 714H669L518 0H498L216 659H214Q210 637 206 618T199 579T191 541T183 502L77 0H50Z" />
<glyph unicode="O" horiz-adv-x="716" d="M334 -10Q242 -10 187 29T108 133T84 276Q84 331 93 385T121 489T168 582T235 657T323 707T431 725Q542 725 609 657T676 446Q676 407 670 359T648 259T607 160T543 74T454 13T334 -10ZM335 15Q394 15 440 35T521 91T580
171T620 264T642 359T649 445Q649 563 596 631T429 700Q370 700 324 681T242 629T182 554T141 464T118 368T111 277Q111 200 134 141T206 49T335 15Z" />
<glyph unicode="P" horiz-adv-x="558" d="M50 0L201 714H356Q422 714 467 694T535 635T558 538Q558 487 542 445T491 371T405 322T282 305H141L77 0H50ZM286 330Q373 330 427 356T506 429T531 537Q531 617 484 653T351 689H223L147 330H286Z" />
<glyph unicode="Q" horiz-adv-x="716" d="M333 -10Q332 -10 330 -10T325 -10Q240 -8 187 29T109 131T84 276Q84 331 93 385T121 489T168 582T235 657T323 707T431 725Q542 725 609 657T676 446Q676 401 667 344T637 228T581 118T493 33T367 -9L480 -170H445L333
-10ZM335 15Q394 15 440 35T521 91T580 171T620 264T642 359T649 445Q649 563 596 631T429 700Q370 700 324 681T242 629T182 554T141 464T118 368T111 277Q111 200 134 141T206 49T335 15Z" />
<glyph unicode="R" horiz-adv-x="562" d="M50 0L201 714H348Q452 714 505 673T558 549Q558 485 535 439T468 365T358 325L475 0H446L332 320H145L77 0H50ZM302 345Q349 345 390 356T463 392T513 455T531 548Q531 619 485 654T342 689H223L150 345H302Z" />
<glyph unicode="S" horiz-adv-x="498" d="M198 -10Q134 -10 93 0T19 24V53Q54 36 98 26T198 15Q231 15 267 24T336 53T387 105T407 184Q407 230 387 261T333 315T252 360Q219 377 188 399T137 454T117 531Q117 584 137 621T190 680T264 713T344 724Q398 724 435
714T509 687L498 662Q458 682 424 690T343 699Q314 699 280 691T214 664T164 613T144 532Q144 490 162 463T209 416T269 381Q315 357 352 332T412 272T434 184Q434 130 412 93T355 34T278 1T198 -10Z" />
<glyph unicode="T" horiz-adv-x="485" d="M172 0L318 689H93L98 714H576L571 689H345L199 0H172Z" />
<glyph unicode="U" horiz-adv-x="692" d="M300 -10Q236 -10 189 12T115 77T88 183Q88 200 90 217T96 254L194 714H221L124 256Q120 237 118 219T116 185Q116 102 166 59T301 15Q369 15 422 41T513 122T568 257L666 714H693L595 252Q576 161 535 103T434 18T300 -10Z" />
<glyph unicode="V" horiz-adv-x="535" d="M196 0L106 714H131L202 146Q205 128 207 109T210 72T213 37H215Q226 60 239 85T272 144L581 714H610L219 0H196Z" />
<glyph unicode="W" horiz-adv-x="826" d="M160 0L125 714H149L176 171Q178 142 178 112T179 52H182Q194 80 205 105T234 167L497 714H522L558 167Q559 149 559 129T560 88T561 48H564Q571 66 578 84T595 123T614 166L863 714H891L565 0H543L506 580Q505 598 505
613T504 643T503 674H501Q492 650 485 634T470 601L182 0H160Z" />
<glyph unicode="X" horiz-adv-x="489" d="M-59 0L251 372L116 714H143L269 390L533 714H564L281 369L430 0H403L262 350L-27 0H-59Z" />
<glyph unicode="Y" horiz-adv-x="485" d="M174 0L231 271L96 714H123L249 301L547 714H578L259 275L201 0H174Z" />
<glyph unicode="Z" horiz-adv-x="538" d="M-8 0L-5 18L529 689H155L160 714H571L567 696L34 25H436L431 0H-8Z" />
<glyph unicode="[" horiz-adv-x="303" d="M-9 -158L177 714H369L363 687H198L24 -131H191L184 -158H-9Z" />
<glyph unicode="\" horiz-adv-x="306" d="M228 0L98 714H122L251 0H228Z" />
<glyph unicode="]" horiz-adv-x="303" d="M-72 -158L-66 -131H99L273 687H106L113 714H306L120 -158H-72Z" />
<glyph unicode="^" horiz-adv-x="550" d="M50 278L362 719H386L504 278H479L369 686L82 278H50Z" />
<glyph unicode="_" horiz-adv-x="371" d="M-85 -134L-79 -109H292L286 -134H-85Z" />
<glyph unicode="`" horiz-adv-x="226" d="M244 606Q229 624 210 652T173 709T147 756V766H175Q185 741 200 713T232 659T259 618V606H244Z" />
<glyph unicode="a" horiz-adv-x="547" d="M197 -10Q149 -10 117 13T68 79T51 178Q51 227 62 277T94 375T148 458T223 516T319 538Q366 538 395 518T439 467T460 407H462L489 528H511L399 0H377L405 139H403Q386 109 356 74T285 15T197 -10ZM200 15Q246 15 293
48T378 137T430 264Q436 295 439 317T442 358Q442 432 409 472T318 513Q271 513 233 494T166 441T118 364T88 273T78 178Q78 103 108 59T200 15Z" />
<glyph unicode="b" horiz-adv-x="568" d="M239 -10Q189 -10 156 9T106 58T83 121H81L55 0H32L193 760H219L173 543Q169 523 163 497T151 443T137 389H139Q158 423 189 457T262 515T357 538Q405 538 440 515T494 449T513 350Q513 301 503 251T471 154T416 70T339
12T239 -10ZM240 15Q290 15 329 34T397 87T447 164T476 255T486 350Q486 425 451 469T352 513Q316 513 283 499T222 461T172 404T134 333T110 253T101 170Q101 92 140 54T240 15Z" />
<glyph unicode="c" horiz-adv-x="452" d="M247 -10Q185 -10 142 17T77 90T55 194Q55 249 67 300T102 394T159 469T237 520T335 538Q369 538 401 532T458 514L450 489Q425 502 394 507T335 513Q277 513 230 489T150 421T100 320T82 196Q82 146 100 105T156 40T248
15Q284 15 314 23T375 45V19Q351 7 320 -1T247 -10Z" />
<glyph unicode="d" horiz-adv-x="568" d="M201 -10Q150 -10 117 13T67 79T51 178Q51 227 61 277T93 374T148 458T225 516T324 538Q375 538 407 518T458 468T480 407H482Q486 430 490 453T499 499T508 543L554 760H580L419 0H397L425 141H423Q402 107 370 72T295
14T201 -10ZM203 15Q235 15 266 27T327 63T380 117T423 187T452 268T463 358Q463 436 424 474T323 513Q274 513 235 494T166 441T117 364T88 273T78 178Q78 101 109 58T203 15Z" />
<glyph unicode="e" horiz-adv-x="491" d="M246 -10Q199 -10 157 10T89 76T62 194Q62 266 82 328T140 438T227 511T333 538Q389 538 423 506T458 424Q458 375 432 343T361 291T255 264T127 256H93Q92 245 91 228T89 194Q89 107 133 61T251 15Q294 15 328 26T386
48V22Q364 10 326 0T246 -10ZM145 281Q229 281 293 296T394 342T431 423Q431 462 405 487T329 513Q281 513 233 486T149 407T97 281H145Z" />
<glyph unicode="f" horiz-adv-x="264" d="M-71 -240Q-84 -240 -103 -237T-132 -230V-204Q-118 -209 -101 -212T-71 -215Q-36 -215 -14 -190T18 -116L149 503H56L60 525L155 528L172 609Q180 646 193 675T225 724T272 754T337 765Q360 765 379 761T413 752L405
727Q389 734 372 737T336 740Q275 740 243 708T197 605L181 528H301L296 503H176L43 -120Q34 -162 18 -188T-20 -227T-71 -240Z" />
<glyph unicode="g" horiz-adv-x="568" d="M172 -240Q129 -240 92 -230T26 -207V-178Q46 -188 70 -196T120 -210T173 -215Q269 -215 319 -163T388 -24L397 17Q403 45 411 80T427 144H425Q404 108 371 73T295 14T202 -10Q150 -10 117 13T67 79T51 178Q51 227 61
277T93 374T148 458T225 516T325 538Q375 538 407 519T457 469T480 407H482L509 528H531L413 -28Q400 -92 371 -139T294 -213T172 -240ZM205 15Q236 15 266 27T326 62T380 116T423 185T452 267T463 358Q463 436 425 474T324 513Q275 513 236 494T167 441T117 364T88
273T78 178Q78 103 108 59T205 15Z" />
<glyph unicode="h" horiz-adv-x="553" d="M32 0L193 760H219L176 557Q170 529 164 500T151 443T137 389H139Q157 421 188 455T262 514T358 538Q402 538 432 523T477 480T493 408Q493 394 491 377T485 342L413 0H387L460 345Q464 362 465 376T467 404Q467 460 437
486T354 513Q299 513 250 479T165 391T116 274L58 0H32Z" />
<glyph unicode="i" horiz-adv-x="207" d="M32 0L144 528H170L58 0H32ZM189 659Q179 659 173 665T166 681Q166 690 169 699T179 715T196 721Q208 721 213 714T218 699Q218 686 211 673T189 659Z" />
<glyph unicode="j" horiz-adv-x="207" d="M-86 -240Q-99 -240 -115 -237T-142 -230V-204Q-130 -210 -114 -212T-86 -215Q-59 -215 -40 -203T-10 -169T8 -115L144 528H170L33 -119Q25 -160 10 -187T-29 -227T-86 -240ZM189 659Q179 659 173 665T166 681Q166 690
169 699T179 715T196 721Q208 721 213 714T218 699Q218 686 211 673T189 659Z" />
<glyph unicode="k" horiz-adv-x="439" d="M32 0L193 760H219L139 384Q129 335 120 293T98 204H99L444 528H477L232 298L384 0H355L213 281L94 172L58 0H32Z" />
<glyph unicode="l" horiz-adv-x="207" d="M32 0L193 760H219L58 0H32Z" />
<glyph unicode="m" horiz-adv-x="842" d="M32 0L144 528H166L137 389H139Q155 421 182 455T248 514T337 538Q405 538 432 497T456 389H457Q473 422 501 456T568 514T658 538Q717 538 749 505T782 408Q782 394 780 377T774 342L702 0H676L749 345Q753 362 754 376T756
404Q756 460 729 486T653 513Q615 513 580 493T517 439T467 363T437 275L379 0H353L424 330Q429 351 430 372T432 407Q432 457 406 485T331 513Q294 513 259 493T195 438T146 362T116 274L58 0H32Z" />
<glyph unicode="n" horiz-adv-x="553" d="M32 0L144 528H166L138 389H140Q157 421 187 455T261 514T358 538Q402 538 432 523T477 480T493 408Q493 394 491 377T485 342L413 0H387L460 345Q464 362 465 376T467 404Q467 460 437 486T354 513Q299 513 250 479T165
391T116 274L58 0H32Z" />
<glyph unicode="o" horiz-adv-x="565" d="M237 -10Q176 -10 136 15T75 87T55 192Q55 255 68 308T107 404T166 477T242 522T331 538Q390 538 429 512T489 441T510 338Q510 281 498 229T463 134T407 58T331 8T237 -10ZM240 15Q286 15 324 31T391 77T441 147T472
236T483 339Q483 390 466 429T415 490T329 513Q287 513 250 499T182 457T129 390T94 301T82 192Q82 111 121 63T240 15Z" />
<glyph unicode="p" horiz-adv-x="568" d="M-17 -232L144 528H166L138 389H140Q159 424 190 458T263 515T357 538Q405 538 440 515T494 449T513 350Q513 301 503 251T471 154T416 70T339 12T239 -10Q189 -10 156 9T106 58T83 121H81Q76 87 69 52T55 -15L9 -232H-17ZM240
15Q290 15 329 34T397 87T447 164T476 255T486 350Q486 425 451 469T352 513Q318 513 286 500T226 462T175 406T136 336T110 255T101 170Q101 92 140 54T240 15Z" />
<glyph unicode="q" horiz-adv-x="568" d="M390 -15Q395 6 401 33T414 90T427 145H425Q407 111 374 75T296 15T202 -10Q151 -10 118 13T68 79T51 178Q51 227 61 277T93 374T148 458T225 516T325 538Q375 538 407 518T457 468T480 407H482L509 528H531L370 -232H344L390
-15ZM205 15Q238 15 269 28T330 65T383 121T425 191T453 272T463 358Q463 436 425 474T324 513Q275 513 236 494T167 441T117 364T88 273T78 178Q78 103 108 59T205 15Z" />
<glyph unicode="r" horiz-adv-x="370" d="M32 0L144 528H166L138 389H140Q156 418 184 452T251 511T336 536Q353 536 368 534T395 528L389 504Q379 507 366 509T336 511Q301 511 267 492T201 440T148 362T114 266L58 0H32Z" />
<glyph unicode="s" horiz-adv-x="423" d="M164 -10Q112 -10 74 2T12 27V57Q42 40 81 28T165 15Q220 15 253 30T302 73T318 136Q318 170 302 192T259 230T204 261Q171 279 143 296T98 338T80 399Q80 448 103 478T167 523T254 538Q301 538 337 529T399 508L390 483Q365
496 329 504T253 513Q191 513 149 487T107 401Q107 371 122 351T163 316T218 285Q250 268 279 250T326 205T345 137Q345 97 326 64T268 10T164 -10Z" />
<glyph unicode="t" horiz-adv-x="309" d="M146 -10Q97 -10 74 14T51 82Q51 95 52 109T58 140L135 503H58L63 525L140 528L174 659H195L167 528H330L324 503H161L85 143Q81 127 80 112T78 84Q78 51 94 33T147 15Q171 15 189 18T224 28V3Q208 -2 190 -6T146 -10Z" />
<glyph unicode="u" horiz-adv-x="553" d="M190 -10Q147 -10 117 5T71 49T55 120Q55 134 57 151T63 186L135 528H161L88 183Q84 167 83 152T81 124Q81 68 111 42T194 15Q250 15 299 49T383 137T432 254L490 528H516L404 0H382L410 139H408Q392 108 361 73T287 14T190 -10Z" />
<glyph unicode="v" horiz-adv-x="410" d="M132 0L50 528H76L135 138Q139 117 141 100T145 68T148 36H150Q159 52 167 67T184 100T205 138L430 528H459L153 0H132Z" />
<glyph unicode="w" horiz-adv-x="651" d="M87 0L54 528H80L102 156Q104 118 105 92T106 42H108Q115 58 121 72T138 106T164 156L357 528H377L416 156Q420 118 422 92T425 42H427Q433 58 439 73T455 108T477 156L654 528H681L430 0H407L367 389Q365 406 364 420T361
450T359 483H358Q350 465 343 450T328 419T312 389L110 0H87Z" />
<glyph unicode="x" horiz-adv-x="455" d="M-33 0L206 273L86 528H116L225 291L437 528H469L239 271L369 0H340L220 253L-1 0H-33Z" />
<glyph unicode="y" horiz-adv-x="410" d="M-57 -243Q-76 -243 -89 -241T-114 -233V-207Q-102 -212 -89 -215T-55 -218Q-19 -218 10 -190T74 -103L138 7L50 528H76L135 172Q140 141 144 116T151 72T155 37H157Q165 52 175 71T198 114T228 168L430 528H459L96 -115Q73
-155 50 -184T1 -228T-57 -243Z" />
<glyph unicode="z" horiz-adv-x="436" d="M-14 0L-11 17L391 503H108L114 528H436L433 513L28 25H341L336 0H-14Z" />
<glyph unicode="{" horiz-adv-x="327" d="M199 -158Q130 -158 100 -135T69 -59Q69 -48 70 -36T75 -11L112 158Q115 170 116 181T118 201Q118 235 97 250T27 265L32 290Q93 290 122 316T164 407L201 579Q211 626 234 655T292 699T376 714H382L377 689Q314 688 277
662T226 573L190 403Q180 353 157 320T91 278V276Q119 267 131 249T144 201Q144 191 143 180T138 154L102 -13Q99 -26 98 -37T96 -57Q96 -103 121 -118T207 -133V-158H199Z" />
<glyph unicode="|" horiz-adv-x="535" d="M282 -241V760H307V-241H282Z" />
<glyph unicode="}" horiz-adv-x="327" d="M-45 -134Q-3 -133 27 -122T77 -85T106 -18L142 152Q153 202 176 235T241 277V279Q214 288 201 306T188 354Q188 365 189 376T194 401L230 568Q233 581 234 592T236 612Q236 658 211 673T125 688V713H133Q179 713 207
703T249 672T263 614Q263 604 262 592T257 566L220 397Q217 385 216 374T214 354Q214 320 235 305T305 290L300 265Q239 265 211 239T168 148L131 -24Q121 -71 98 -101T40 -145T-44 -159H-50L-45 -134Z" />
<glyph unicode="~" horiz-adv-x="570" d="M302 342Q275 356 252 364T193 373Q164 373 135 361T76 318V349Q99 371 129 384T193 397Q235 397 261 388T315 364Q342 351 365 342T420 333Q447 333 475 344T534 387V358Q515 338 486 324T420 309Q384 309 358 318T302 342Z" />
<glyph unicode="&#xa0;" horiz-adv-x="260" />
<glyph unicode="&#xa1;" horiz-adv-x="210" d="M-5 -182L113 354H137L23 -182H-5ZM152 474Q140 474 135 481T130 496Q130 510 137 523T159 536Q170 536 176 531T182 514Q182 501 175 488T152 474Z" />
<glyph unicode="&#xa2;" horiz-adv-x="550" d="M260 93Q187 104 147 158T107 289Q107 343 118 393T152 487T206 563T279 615T369 638L387 724H412L394 638Q424 637 454 631T507 614L499 589Q474 602 442 607T383 613Q328 613 282 588T203 519T152 417T134 290Q134
215 175 165T293 115Q327 115 359 121T423 144V120Q385 100 352 96T284 91L263 -10H238L260 93Z" />
<glyph unicode="&#xa3;" horiz-adv-x="550" d="M-2 23Q38 31 68 50T118 104T148 187L179 335H78L83 360H185L218 518Q233 587 259 632T326 700T424 723Q465 723 499 713T557 691L545 667Q522 678 492 688T424 698Q349 698 306 653T243 512L211 360H400L395 335H205L173
183Q158 113 133 78T69 25H451L446 0H-6L-2 23Z" />
<glyph unicode="&#xa4;" horiz-adv-x="570" d="M437 204Q409 179 374 166T302 153Q266 153 232 166T168 204L90 126L75 142L152 220Q127 249 115 283T102 354Q102 390 114 425T152 488L75 566L90 582L168 504Q197 530 231 542T302 555Q338 555 373 543T437 504L514
581L529 565L452 488Q478 460 490 425T503 354Q503 318 491 284T452 220L530 142L514 126L437 204ZM301 175Q351 175 391 199T456 265T481 355Q481 404 457 444T393 509T303 533Q254 533 213 509T148 444T124 354Q124 305 148 264T212 199T301 175Z" />
<glyph unicode="&#xa5;" horiz-adv-x="550" d="M202 0L236 162H70L75 187H242L265 298H99L104 323H261L120 714H147L283 334L580 714H611L305 323H462L457 298H291L268 187H433L428 162H263L229 0H202Z" />
<glyph unicode="&#xa6;" horiz-adv-x="535" d="M282 395V760H307V395H282ZM282 -240V126H307V-240H282Z" />
<glyph unicode="&#xa7;" horiz-adv-x="498" d="M176 -1Q129 -1 90 10T28 32V61Q59 45 99 34T176 23Q256 23 301 53T347 139Q347 170 331 188T287 219T229 246Q200 259 171 276T123 320T103 386Q103 429 125 457T179 501T243 525Q213 538 188 562T162 627Q162 676
189 705T259 746T342 759Q381 759 421 750T487 730L477 706Q450 718 412 726T342 735Q309 735 274 726T214 693T189 627Q189 590 220 569T302 525Q331 513 361 498T412 458T433 391Q433 353 415 322T371 269T316 231Q342 215 358 194T374 140Q374 93 350 62T281
15T176 -1ZM294 244Q338 267 372 302T406 390Q406 422 391 441T345 476T270 511Q238 503 206 490T152 453T130 386Q130 351 149 328T205 287T294 244Z" />
<glyph unicode="&#xa8;" horiz-adv-x="575" d="M459 647Q449 647 445 653T440 668Q440 681 446 695T469 709Q480 709 484 703T489 688Q489 675 483 661T459 647ZM283 647Q273 647 269 653T264 668Q264 681 270 695T293 709Q300 709 304 706T311 699T313 688Q313
675 307 661T283 647Z" />
<glyph unicode="&#xa9;" horiz-adv-x="832" d="M416 -8Q336 -8 269 20T153 99T77 216T50 357Q50 435 79 501T158 617T275 694T416 722Q496 722 563 692T679 611T755 494T782 357Q782 282 754 216T675 99T558 21T416 -8ZM435 143Q343 143 287 196T230 356Q230 422
256 470T330 545T439 572Q483 572 511 565T565 546L554 523Q531 534 504 540T439 546Q359 546 308 495T257 356Q257 262 308 215T435 168Q470 168 495 172T550 188V164Q525 154 497 149T435 143ZM416 17Q489 17 551 44T659 119T730 228T756 357Q756 426 731 487T659
595T551 670T416 697Q344 697 283 671T175 598T102 490T76 357Q76 288 100 227T170 118T277 44T416 17Z" />
<glyph unicode="&#xaa;" horiz-adv-x="322" d="M184 398Q157 398 136 410T102 446T90 504Q90 550 102 589T137 659T187 705T247 722Q282 722 301 704T328 660H330L346 716H367L301 402H280L293 474H292Q273 443 245 421T184 398ZM184 423Q204 423 223 434T259
464T288 507T307 558T314 610Q314 645 298 671T245 697Q222 697 199 684T158 644T128 583T117 504Q117 468 135 446T184 423Z" />
<glyph unicode="&#xab;" horiz-adv-x="371" d="M125 87L20 272L23 285L207 472L222 457L51 275L143 97L125 87ZM286 87L181 272L184 285L368 472L383 457L212 275L304 97L286 87Z" />
<glyph unicode="&#xac;" horiz-adv-x="570" d="M518 365V132H494V341H75V365H518Z" />
<glyph unicode="&#xad;" horiz-adv-x="302" d="M293 259L298 284H529L524 259H293Z" />
<glyph unicode="&#xae;" horiz-adv-x="832" d="M298 143V569H416Q478 569 517 541T556 449Q556 400 530 371T463 329L577 143H545L436 324H323V143H298ZM412 346Q462 346 497 370T532 449Q532 500 499 522T414 545H322V346H412ZM416 -8Q336 -8 269 20T153 99T77
216T50 357Q50 435 79 501T158 617T275 694T416 722Q496 722 563 692T679 611T755 494T782 357Q782 282 754 216T675 99T558 21T416 -8ZM416 17Q489 17 551 44T659 119T730 228T756 357Q756 426 731 487T659 595T551 670T416 697Q344 697 283 671T175 598T102 490T76
357Q76 288 100 227T170 118T277 44T416 17Z" />
<glyph unicode="&#xaf;" horiz-adv-x="480" d="M101 760L107 785H501L495 760H101Z" />
<glyph unicode="&#xb0;" horiz-adv-x="428" d="M214 441Q174 441 142 458T90 508T71 583Q71 626 90 657T141 706T214 724Q255 724 287 706T338 657T357 583Q357 540 339 508T288 459T214 441ZM213 466Q264 466 297 499T330 583Q330 636 297 667T213 699Q161 699
130 668T98 583Q98 532 129 499T213 466Z" />
<glyph unicode="&#xb1;" horiz-adv-x="570" d="M75 0V24H535V0H75ZM317 365H535V341H317V123H293V341H75V365H293V583H317V365Z" />
<glyph unicode="&#xb2;" horiz-adv-x="312" d="M50 416L54 437L197 558Q247 600 281 633T332 696T350 760Q350 792 330 811T273 830Q243 830 215 820T156 789L144 809Q174 832 207 843T274 855Q307 855 330 843T365 810T377 761Q377 720 357 685T300 616T215 541L95
441H323L318 416H50Z" />
<glyph unicode="&#xb3;" horiz-adv-x="312" d="M172 412Q139 412 110 419T59 437V465Q85 452 112 445T172 437Q234 437 274 465T314 552Q314 588 287 608T207 628H160L165 653H212Q249 653 279 664T329 699T348 756Q348 788 329 807T272 826Q237 826 207 816T147
788L137 810Q167 829 201 840T273 851Q305 851 328 840T363 808T376 759Q376 707 347 679T279 641V639Q307 632 324 609T342 552Q342 503 320 472T259 427T172 412Z" />
<glyph unicode="&#xb4;" horiz-adv-x="218" d="M114 612Q137 632 163 660T214 716T253 766H283V759Q270 742 253 723T216 683T176 643T135 606H114V612Z" />
<glyph unicode="&#xb5;" d="M-22 -232L139 528H165L93 186Q87 159 86 143T84 116Q84 74 113 45T195 15Q245 15 294 43T382 126T438 264L494 528H520L408 0H386L414 139H412Q394 104 364 70T291 13T192 -10Q135 -10 107 16T68 74H66Q63 53 58 29T48 -25T35 -87L4
-232H-22Z" />
<glyph unicode="&#xb6;" horiz-adv-x="655" d="M361 355Q345 351 329 349T290 346Q248 346 217 362T166 407T135 474T125 557Q125 605 136 642T169 706T225 746T305 760H547V-127H521V735H387V-127H361V355Z" />
<glyph unicode="&#xb7;" horiz-adv-x="210" d="M117 283Q107 283 101 289T94 305Q94 319 101 332T124 345Q136 345 141 338T146 323Q146 310 139 297T117 283Z" />
<glyph unicode="&#xb8;" horiz-adv-x="193" d="M-30 -240Q-47 -240 -60 -239T-85 -234V-210Q-74 -213 -61 -214T-32 -216Q-12 -216 10 -209T49 -184T65 -139Q65 -113 44 -99T-20 -85L27 0H53L19 -65Q52 -68 72 -87T92 -139Q92 -171 74 -194T29 -228T-30 -240Z" />
<glyph unicode="&#xb9;" horiz-adv-x="312" d="M251 695Q257 724 265 755T280 815Q262 805 246 796T203 774L154 749L143 771L289 844H310L219 416H192L251 695Z" />
<glyph unicode="&#xba;" horiz-adv-x="352" d="M204 395Q151 395 123 430T94 518Q94 563 107 601T142 666T196 709T263 725Q317 725 344 691T372 603Q372 560 360 522T326 456T272 411T204 395ZM205 420Q235 420 260 434T305 473T334 531T344 601Q344 643 323
671T261 700Q232 700 207 687T162 649T132 591T121 518Q121 474 143 447T205 420Z" />
<glyph unicode="&#xbb;" horiz-adv-x="371" d="M168 87L153 102L324 284L232 462L250 472L355 287L352 274L168 87ZM7 87L-8 102L163 284L71 462L89 472L194 287L191 274L7 87Z" />
<glyph unicode="&#xbc;" horiz-adv-x="671" d="M76 0L606 714H640L109 0H76ZM221 566Q227 595 235 626T250 686Q232 676 216 667T173 645L124 620L113 642L259 715H280L189 287H162L221 566ZM508 1L533 118H338L345 146L601 432H627L565 143H632L626 118H560L535
1H508ZM377 143H538L564 263Q570 293 578 329T592 389Q585 379 572 364T544 330T512 295L377 143Z" />
<glyph unicode="&#xbd;" horiz-adv-x="713" d="M68 0L598 714H632L101 0H68ZM221 566Q227 595 235 626T250 686Q232 676 216 667T173 645L124 620L113 642L259 715H280L189 287H162L221 566ZM371 1L375 22L518 143Q568 185 602 218T653 281T671 345Q671 377 651
396T594 415Q564 415 536 405T477 374L465 394Q495 417 528 428T595 440Q628 440 651 428T686 395T698 346Q698 305 678 270T621 201T536 126L416 26H644L639 1H371Z" />
<glyph unicode="&#xbe;" horiz-adv-x="687" d="M134 280Q101 280 72 287T21 305V333Q47 320 74 313T134 305Q196 305 236 333T276 420Q276 456 249 476T169 496H122L127 521H174Q211 521 241 532T291 567T310 624Q310 656 291 675T234 694Q199 694 169 684T109
656L99 678Q129 697 163 708T235 719Q267 719 290 708T325 676T338 627Q338 575 309 547T241 509V507Q269 500 286 477T304 420Q304 371 282 340T221 295T134 280ZM111 0L641 714H675L144 0H111ZM524 2L549 119H354L361 147L617 433H643L581 144H648L642 119H576L551
2H524ZM393 144H554L580 264Q586 294 594 330T608 390Q601 380 588 365T560 331T528 296L393 144Z" />
<glyph unicode="&#xbf;" horiz-adv-x="403" d="M295 358Q286 301 268 267T222 208T158 155Q125 130 94 105T42 46T21 -37Q21 -96 57 -131T153 -167Q182 -167 215 -159T285 -135L295 -158Q252 -177 219 -184T153 -192Q80 -192 38 -148T-5 -38Q-5 15 15 51T69 116T146
175Q177 198 202 221T244 276T271 358H295ZM312 540Q323 540 329 535T335 518Q335 505 328 492T305 478Q293 478 288 485T283 500Q283 514 290 527T312 540Z" />
<glyph unicode="&#xc0;" horiz-adv-x="547" d="M-50 0L368 716H392L498 0H473L432 271H138L-20 0H-50ZM152 296H428L385 594Q382 613 379 636T374 682H372Q361 660 349 638T324 594L152 296ZM403 792Q388 810 369 838T332 895T306 942V952H334Q344 927 359 899T391
845T418 804V792H403Z" />
<glyph unicode="&#xc1;" horiz-adv-x="547" d="M-50 0L368 716H392L498 0H473L432 271H138L-20 0H-50ZM152 296H428L385 594Q382 613 379 636T374 682H372Q361 660 349 638T324 594L152 296ZM363 798Q386 818 412 846T463 902T502 952H532V945Q519 928 502 909T465
869T425 829T384 792H363V798Z" />
<glyph unicode="&#xc2;" horiz-adv-x="547" d="M-50 0L368 716H392L498 0H473L432 271H138L-20 0H-50ZM152 296H428L385 594Q382 613 379 636T374 682H372Q361 660 349 638T324 594L152 296ZM268 798Q290 819 316 846T368 900T409 949H431Q438 929 451 902T479
847T508 798L506 792H488Q474 811 461 832T436 876T415 917Q389 889 356 855T290 792H267L268 798Z" />
<glyph unicode="&#xc3;" horiz-adv-x="547" d="M-50 0L368 716H392L498 0H473L432 271H138L-20 0H-50ZM152 296H428L385 594Q382 613 379 636T374 682H372Q361 660 349 638T324 594L152 296ZM238 804Q247 837 259 858T290 891T335 902Q359 902 377 891T411 865T442
839T473 828Q495 828 513 842T546 902H573Q564 871 551 849T519 815T472 803Q450 803 433 814T401 840T369 866T334 877Q314 877 296 863T264 804H238Z" />
<glyph unicode="&#xc4;" horiz-adv-x="547" d="M-50 0L368 716H392L498 0H473L432 271H138L-20 0H-50ZM152 296H428L385 594Q382 613 379 636T374 682H372Q361 660 349 638T324 594L152 296ZM482 833Q472 833 468 839T463 854Q463 867 469 881T492 895Q503 895
507 889T512 874Q512 861 506 847T482 833ZM306 833Q296 833 292 839T287 854Q287 867 293 881T316 895Q323 895 327 892T334 885T336 874Q336 861 330 847T306 833Z" />
<glyph unicode="&#xc5;" horiz-adv-x="547" d="M-50 0L368 716H392L498 0H473L432 271H138L-20 0H-50ZM152 296H428L385 594Q382 613 379 636T374 682H372Q361 660 349 638T324 594L152 296ZM390 695Q350 695 320 722T289 795Q289 838 319 866T390 895Q431 895
460 866T490 795Q490 751 461 723T390 695ZM390 719Q424 719 445 741T466 795Q466 827 444 849T390 871Q357 871 335 849T313 795Q313 764 334 742T390 719Z" />
<glyph unicode="&#xc6;" horiz-adv-x="783" d="M-51 0L391 714H817L812 689H471L407 389H729L724 364H402L330 25H671L666 0H298L355 270H147L-19 0H-51ZM162 295H360L443 689H405L162 295Z" />
<glyph unicode="&#xc7;" horiz-adv-x="594" d="M326 -10Q250 -10 196 24T113 121T84 268Q84 350 103 420T157 546T241 642T347 703T471 724Q518 724 558 715T633 687L621 662Q586 683 548 691T471 699Q410 699 356 679T256 622T179 532T128 413T110 270Q110 152
168 84T327 15Q378 15 421 23T500 44V21Q466 8 423 -1T326 -10ZM231 -240Q214 -240 201 -239T176 -234V-210Q187 -213 200 -214T229 -216Q249 -216 271 -209T310 -184T326 -139Q326 -113 305 -99T241 -85L288 0H314L280 -65Q313 -68 333 -87T353 -139Q353 -171
335 -194T290 -228T231 -240Z" />
<glyph unicode="&#xc8;" horiz-adv-x="535" d="M50 0L201 714H559L554 689H223L159 389H471L466 364H154L82 25H413L408 0H50ZM408 792Q393 810 374 838T337 895T311 942V952H339Q349 927 364 899T396 845T423 804V792H408Z" />
<glyph unicode="&#xc9;" horiz-adv-x="535" d="M50 0L201 714H559L554 689H223L159 389H471L466 364H154L82 25H413L408 0H50ZM358 798Q381 818 407 846T458 902T497 952H527V945Q514 928 497 909T460 869T420 829T379 792H358V798Z" />
<glyph unicode="&#xca;" horiz-adv-x="535" d="M50 0L201 714H559L554 689H223L159 389H471L466 364H154L82 25H413L408 0H50ZM278 798Q300 819 326 846T378 900T419 949H441Q448 929 461 902T489 847T518 798L516 792H498Q484 811 471 832T446 876T425 917Q399
889 366 855T300 792H277L278 798Z" />
<glyph unicode="&#xcb;" horiz-adv-x="535" d="M50 0L201 714H559L554 689H223L159 389H471L466 364H154L82 25H413L408 0H50ZM497 833Q487 833 483 839T478 854Q478 867 484 881T507 895Q518 895 522 889T527 874Q527 861 521 847T497 833ZM321 833Q311 833 307
839T302 854Q302 867 308 881T331 895Q338 895 342 892T349 885T351 874Q351 861 345 847T321 833Z" />
<glyph unicode="&#xcc;" horiz-adv-x="279" d="M8 0L12 20L78 23L220 690L155 694L159 714H317L313 694L246 690L104 23L170 20L166 0H8ZM270 792Q255 810 236 838T199 895T173 942V952H201Q211 927 226 899T258 845T285 804V792H270Z" />
<glyph unicode="&#xcd;" horiz-adv-x="279" d="M8 0L12 20L78 23L220 690L155 694L159 714H317L313 694L246 690L104 23L170 20L166 0H8ZM219 798Q242 818 268 846T319 902T358 952H388V945Q375 928 358 909T321 869T281 829T240 792H219V798Z" />
<glyph unicode="&#xce;" horiz-adv-x="279" d="M8 0L12 20L78 23L220 690L155 694L159 714H317L313 694L246 690L104 23L170 20L166 0H8ZM124 798Q146 819 172 846T224 900T265 949H287Q294 929 307 902T335 847T364 798L362 792H344Q330 811 317 832T292 876T271
917Q245 889 212 855T146 792H123L124 798Z" />
<glyph unicode="&#xcf;" horiz-adv-x="279" d="M8 0L12 20L78 23L220 690L155 694L159 714H317L313 694L246 690L104 23L170 20L166 0H8ZM343 833Q333 833 329 839T324 854Q324 867 330 881T353 895Q364 895 368 889T373 874Q373 861 367 847T343 833ZM167 833Q157
833 153 839T148 854Q148 867 154 881T177 895Q184 895 188 892T195 885T197 874Q197 861 191 847T167 833Z" />
<glyph unicode="&#xd0;" horiz-adv-x="677" d="M44 343L49 368H350L345 343H44ZM50 0L201 714H346Q483 714 560 643T637 425Q637 359 620 297T569 181T482 87T358 23T196 0H50ZM197 25Q279 25 344 46T460 104T543 192T593 301T610 425Q610 561 539 625T336 689H223L82
25H197Z" />
<glyph unicode="&#xd1;" horiz-adv-x="674" d="M50 0L201 714H220L503 54H505Q510 80 515 107T526 161T536 211L643 714H669L518 0H498L216 659H214Q210 637 206 618T199 579T191 541T183 502L77 0H50ZM307 804Q316 837 328 858T359 891T404 902Q428 902 446 891T480
865T511 839T542 828Q564 828 582 842T615 902H642Q633 871 620 849T588 815T541 803Q519 803 502 814T470 840T438 866T403 877Q383 877 365 863T333 804H307Z" />
<glyph unicode="&#xd2;" horiz-adv-x="716" d="M334 -10Q242 -10 187 29T108 133T84 276Q84 331 93 385T121 489T168 582T235 657T323 707T431 725Q542 725 609 657T676 446Q676 407 670 359T648 259T607 160T543 74T454 13T334 -10ZM335 15Q394 15 440 35T521
91T580 171T620 264T642 359T649 445Q649 563 596 631T429 700Q370 700 324 681T242 629T182 554T141 464T118 368T111 277Q111 200 134 141T206 49T335 15ZM470 792Q455 810 436 838T399 895T373 942V952H401Q411 927 426 899T458 845T485 804V792H470Z" />
<glyph unicode="&#xd3;" horiz-adv-x="716" d="M334 -10Q242 -10 187 29T108 133T84 276Q84 331 93 385T121 489T168 582T235 657T323 707T431 725Q542 725 609 657T676 446Q676 407 670 359T648 259T607 160T543 74T454 13T334 -10ZM335 15Q394 15 440 35T521
91T580 171T620 264T642 359T649 445Q649 563 596 631T429 700Q370 700 324 681T242 629T182 554T141 464T118 368T111 277Q111 200 134 141T206 49T335 15ZM419 798Q442 818 468 846T519 902T558 952H588V945Q575 928 558 909T521 869T481 829T440 792H419V798Z"
/>
<glyph unicode="&#xd4;" horiz-adv-x="716" d="M334 -10Q242 -10 187 29T108 133T84 276Q84 331 93 385T121 489T168 582T235 657T323 707T431 725Q542 725 609 657T676 446Q676 407 670 359T648 259T607 160T543 74T454 13T334 -10ZM335 15Q394 15 440 35T521
91T580 171T620 264T642 359T649 445Q649 563 596 631T429 700Q370 700 324 681T242 629T182 554T141 464T118 368T111 277Q111 200 134 141T206 49T335 15ZM326 798Q348 819 374 846T426 900T467 949H489Q496 929 509 902T537 847T566 798L564 792H546Q532 811
519 832T494 876T473 917Q447 889 414 855T348 792H325L326 798Z" />
<glyph unicode="&#xd5;" horiz-adv-x="716" d="M334 -10Q242 -10 187 29T108 133T84 276Q84 331 93 385T121 489T168 582T235 657T323 707T431 725Q542 725 609 657T676 446Q676 407 670 359T648 259T607 160T543 74T454 13T334 -10ZM335 15Q394 15 440 35T521
91T580 171T620 264T642 359T649 445Q649 563 596 631T429 700Q370 700 324 681T242 629T182 554T141 464T118 368T111 277Q111 200 134 141T206 49T335 15ZM300 804Q309 837 321 858T352 891T397 902Q421 902 439 891T473 865T504 839T535 828Q557 828 575 842T608
902H635Q626 871 613 849T581 815T534 803Q512 803 495 814T463 840T431 866T396 877Q376 877 358 863T326 804H300Z" />
<glyph unicode="&#xd6;" horiz-adv-x="716" d="M334 -10Q242 -10 187 29T108 133T84 276Q84 331 93 385T121 489T168 582T235 657T323 707T431 725Q542 725 609 657T676 446Q676 407 670 359T648 259T607 160T543 74T454 13T334 -10ZM335 15Q394 15 440 35T521
91T580 171T620 264T642 359T649 445Q649 563 596 631T429 700Q370 700 324 681T242 629T182 554T141 464T118 368T111 277Q111 200 134 141T206 49T335 15ZM568 833Q558 833 554 839T549 854Q549 867 555 881T578 895Q589 895 593 889T598 874Q598 861 592 847T568
833ZM392 833Q382 833 378 839T373 854Q373 867 379 881T402 895Q409 895 413 892T420 885T422 874Q422 861 416 847T392 833Z" />
<glyph unicode="&#xd7;" horiz-adv-x="570" d="M502 567L519 550L322 353L519 156L502 139L305 336L108 139L91 156L288 353L91 550L108 567L305 370L502 567Z" />
<glyph unicode="&#xd8;" horiz-adv-x="716" d="M44 -26L26 -8L124 99Q103 136 94 181T84 276Q84 331 93 385T121 489T168 582T235 657T323 707T431 725Q492 725 540 705T620 643L709 740L728 723L635 621Q655 590 665 546T676 446Q676 407 670 359T648 259T607
160T543 74T454 13T334 -10Q264 -10 216 13T138 77L44 -26ZM335 15Q394 15 440 35T521 91T580 171T620 264T642 359T649 445Q649 492 641 531T616 600L156 97Q183 59 227 37T335 15ZM602 623Q575 660 532 680T429 700Q370 700 324 681T242 629T182 554T141 464T118
368T111 277Q111 231 119 192T143 120L602 623Z" />
<glyph unicode="&#xd9;" horiz-adv-x="692" d="M300 -10Q236 -10 189 12T115 77T88 183Q88 200 90 217T96 254L194 714H221L124 256Q120 237 118 219T116 185Q116 102 166 59T301 15Q369 15 422 41T513 122T568 257L666 714H693L595 252Q576 161 535 103T434 18T300
-10ZM473 792Q458 810 439 838T402 895T376 942V952H404Q414 927 429 899T461 845T488 804V792H473Z" />
<glyph unicode="&#xda;" horiz-adv-x="692" d="M300 -10Q236 -10 189 12T115 77T88 183Q88 200 90 217T96 254L194 714H221L124 256Q120 237 118 219T116 185Q116 102 166 59T301 15Q369 15 422 41T513 122T568 257L666 714H693L595 252Q576 161 535 103T434 18T300
-10ZM414 798Q437 818 463 846T514 902T553 952H583V945Q570 928 553 909T516 869T476 829T435 792H414V798Z" />
<glyph unicode="&#xdb;" horiz-adv-x="692" d="M300 -10Q236 -10 189 12T115 77T88 183Q88 200 90 217T96 254L194 714H221L124 256Q120 237 118 219T116 185Q116 102 166 59T301 15Q369 15 422 41T513 122T568 257L666 714H693L595 252Q576 161 535 103T434 18T300
-10ZM326 798Q348 819 374 846T426 900T467 949H489Q496 929 509 902T537 847T566 798L564 792H546Q532 811 519 832T494 876T473 917Q447 889 414 855T348 792H325L326 798Z" />
<glyph unicode="&#xdc;" horiz-adv-x="692" d="M300 -10Q236 -10 189 12T115 77T88 183Q88 200 90 217T96 254L194 714H221L124 256Q120 237 118 219T116 185Q116 102 166 59T301 15Q369 15 422 41T513 122T568 257L666 714H693L595 252Q576 161 535 103T434 18T300
-10ZM556 833Q546 833 542 839T537 854Q537 867 543 881T566 895Q577 895 581 889T586 874Q586 861 580 847T556 833ZM380 833Q370 833 366 839T361 854Q361 867 367 881T390 895Q397 895 401 892T408 885T410 874Q410 861 404 847T380 833Z" />
<glyph unicode="&#xdd;" horiz-adv-x="485" d="M174 0L231 271L96 714H123L249 301L547 714H578L259 275L201 0H174ZM315 798Q338 818 364 846T415 902T454 952H484V945Q471 928 454 909T417 869T377 829T336 792H315V798Z" />
<glyph unicode="&#xde;" horiz-adv-x="558" d="M50 0L201 714H228L200 582H328Q395 582 439 563T507 508T530 420Q530 348 506 300T440 224T344 185T231 173H113L77 0H50ZM235 198Q308 198 368 218T466 286T503 419Q503 487 457 522T323 557H195L119 198H235Z" />
<glyph unicode="&#xdf;" horiz-adv-x="531" d="M-89 -240Q-106 -240 -119 -237T-144 -230V-204Q-132 -210 -117 -212T-88 -215Q-50 -215 -26 -189T8 -116L151 563Q165 630 192 674T261 742T363 765Q432 765 467 731T503 648Q503 604 487 577T448 534T399 502Q368
484 344 461T320 394Q320 375 330 359T355 329T388 299Q414 275 436 244T459 162Q459 112 440 73T380 12T276 -10Q232 -10 201 -2T149 17V45Q176 31 208 23T276 15Q350 15 390 52T431 162Q431 189 423 209T401 247T372 278Q344 304 319 329T294 394Q294 432 307
455T342 494T387 523Q409 536 429 551T462 589T475 647Q475 687 446 713T362 740Q308 740 271 719T212 659T177 563L33 -120Q25 -161 8 -187T-34 -227T-89 -240Z" />
<glyph unicode="&#xe0;" horiz-adv-x="547" d="M197 -10Q149 -10 117 13T68 79T51 178Q51 227 62 277T94 375T148 458T223 516T319 538Q366 538 395 518T439 467T460 407H462L489 528H511L399 0H377L405 139H403Q386 109 356 74T285 15T197 -10ZM200 15Q246 15
293 48T378 137T430 264Q436 295 439 317T442 358Q442 432 409 472T318 513Q271 513 233 494T166 441T118 364T88 273T78 178Q78 103 108 59T200 15ZM379 606Q364 624 345 652T308 709T282 756V766H310Q320 741 335 713T367 659T394 618V606H379Z" />
<glyph unicode="&#xe1;" horiz-adv-x="547" d="M197 -10Q149 -10 117 13T68 79T51 178Q51 227 62 277T94 375T148 458T223 516T319 538Q366 538 395 518T439 467T460 407H462L489 528H511L399 0H377L405 139H403Q386 109 356 74T285 15T197 -10ZM200 15Q246 15
293 48T378 137T430 264Q436 295 439 317T442 358Q442 432 409 472T318 513Q271 513 233 494T166 441T118 364T88 273T78 178Q78 103 108 59T200 15ZM308 612Q331 632 357 660T408 716T447 766H477V759Q464 742 447 723T410 683T370 643T329 606H308V612Z" />
<glyph unicode="&#xe2;" horiz-adv-x="547" d="M197 -10Q149 -10 117 13T68 79T51 178Q51 227 62 277T94 375T148 458T223 516T319 538Q366 538 395 518T439 467T460 407H462L489 528H511L399 0H377L405 139H403Q386 109 356 74T285 15T197 -10ZM200 15Q246 15
293 48T378 137T430 264Q436 295 439 317T442 358Q442 432 409 472T318 513Q271 513 233 494T166 441T118 364T88 273T78 178Q78 103 108 59T200 15ZM227 612Q249 633 275 660T327 714T368 763H390Q397 743 410 716T438 661T467 612L465 606H447Q433 625 420 646T395
690T374 731Q348 703 315 669T249 606H226L227 612Z" />
<glyph unicode="&#xe3;" horiz-adv-x="547" d="M197 -10Q149 -10 117 13T68 79T51 178Q51 227 62 277T94 375T148 458T223 516T319 538Q366 538 395 518T439 467T460 407H462L489 528H511L399 0H377L405 139H403Q386 109 356 74T285 15T197 -10ZM200 15Q246 15
293 48T378 137T430 264Q436 295 439 317T442 358Q442 432 409 472T318 513Q271 513 233 494T166 441T118 364T88 273T78 178Q78 103 108 59T200 15ZM180 618Q189 651 201 672T232 705T277 716Q301 716 319 705T353 679T384 653T415 642Q437 642 455 656T488 716H515Q506
685 493 663T461 629T414 617Q392 617 375 628T343 654T311 680T276 691Q256 691 238 677T206 618H180Z" />
<glyph unicode="&#xe4;" horiz-adv-x="547" d="M197 -10Q149 -10 117 13T68 79T51 178Q51 227 62 277T94 375T148 458T223 516T319 538Q366 538 395 518T439 467T460 407H462L489 528H511L399 0H377L405 139H403Q386 109 356 74T285 15T197 -10ZM200 15Q246 15
293 48T378 137T430 264Q436 295 439 317T442 358Q442 432 409 472T318 513Q271 513 233 494T166 441T118 364T88 273T78 178Q78 103 108 59T200 15ZM701 647Q691 647 687 653T682 668Q682 681 688 695T711 709Q722 709 726 703T731 688Q731 675 725 661T701 647ZM525
647Q515 647 511 653T506 668Q506 681 512 695T535 709Q542 709 546 706T553 699T555 688Q555 675 549 661T525 647Z" />
<glyph unicode="&#xe5;" horiz-adv-x="547" d="M197 -10Q149 -10 117 13T68 79T51 178Q51 227 62 277T94 375T148 458T223 516T319 538Q366 538 395 518T439 467T460 407H462L489 528H511L399 0H377L405 139H403Q386 109 356 74T285 15T197 -10ZM200 15Q246 15
293 48T378 137T430 264Q436 295 439 317T442 358Q442 432 409 472T318 513Q271 513 233 494T166 441T118 364T88 273T78 178Q78 103 108 59T200 15ZM353 611Q313 611 283 638T252 711Q252 754 282 782T353 811Q394 811 423 782T453 711Q453 667 424 639T353 611ZM353
635Q387 635 408 657T429 711Q429 743 407 765T353 787Q320 787 298 765T276 711Q276 680 297 658T353 635Z" />
<glyph unicode="&#xe6;" horiz-adv-x="842" d="M194 -10Q149 -10 117 13T68 78T51 178Q51 227 62 277T94 375T147 458T220 516T314 538Q360 538 386 516T424 464T438 407H440L468 528H491L464 404Q501 464 553 501T678 538Q730 538 765 506T800 425Q800 376 774
343T703 291T597 264T469 256H435Q434 245 433 228T431 194Q431 110 473 63T595 15Q635 15 669 26T728 48V23Q705 10 668 0T594 -10Q525 -10 475 27T411 146L380 0H358L386 133H384Q368 100 341 67T278 12T194 -10ZM197 15Q233 15 267 34T329 86T379 165T410 264Q417
296 419 317T422 358Q422 432 394 472T313 513Q268 513 231 494T166 441T118 364T88 273T78 178Q78 102 109 59T197 15ZM487 281Q571 281 635 296T736 342T773 424Q773 459 749 486T675 513Q623 513 575 486T490 407T439 281H487Z" />
<glyph unicode="&#xe7;" horiz-adv-x="452" d="M247 -10Q185 -10 142 17T77 90T55 194Q55 249 67 300T102 394T159 469T237 520T335 538Q369 538 401 532T458 514L450 489Q425 502 394 507T335 513Q277 513 230 489T150 421T100 320T82 196Q82 146 100 105T156
40T248 15Q284 15 314 23T375 45V19Q351 7 320 -1T247 -10ZM153 -240Q136 -240 123 -239T98 -234V-210Q109 -213 122 -214T151 -216Q171 -216 193 -209T232 -184T248 -139Q248 -113 227 -99T163 -85L210 0H236L202 -65Q235 -68 255 -87T275 -139Q275 -171 257 -194T212
-228T153 -240Z" />
<glyph unicode="&#xe8;" horiz-adv-x="491" d="M246 -10Q199 -10 157 10T89 76T62 194Q62 266 82 328T140 438T227 511T333 538Q389 538 423 506T458 424Q458 375 432 343T361 291T255 264T127 256H93Q92 245 91 228T89 194Q89 107 133 61T251 15Q294 15 328 26T386
48V22Q364 10 326 0T246 -10ZM145 281Q229 281 293 296T394 342T431 423Q431 462 405 487T329 513Q281 513 233 486T149 407T97 281H145ZM347 606Q332 624 313 652T276 709T250 756V766H278Q288 741 303 713T335 659T362 618V606H347Z" />
<glyph unicode="&#xe9;" horiz-adv-x="491" d="M246 -10Q199 -10 157 10T89 76T62 194Q62 266 82 328T140 438T227 511T333 538Q389 538 423 506T458 424Q458 375 432 343T361 291T255 264T127 256H93Q92 245 91 228T89 194Q89 107 133 61T251 15Q294 15 328 26T386
48V22Q364 10 326 0T246 -10ZM145 281Q229 281 293 296T394 342T431 423Q431 462 405 487T329 513Q281 513 233 486T149 407T97 281H145ZM287 612Q310 632 336 660T387 716T426 766H456V759Q443 742 426 723T389 683T349 643T308 606H287V612Z" />
<glyph unicode="&#xea;" horiz-adv-x="491" d="M246 -10Q199 -10 157 10T89 76T62 194Q62 266 82 328T140 438T227 511T333 538Q389 538 423 506T458 424Q458 375 432 343T361 291T255 264T127 256H93Q92 245 91 228T89 194Q89 107 133 61T251 15Q294 15 328 26T386
48V22Q364 10 326 0T246 -10ZM145 281Q229 281 293 296T394 342T431 423Q431 462 405 487T329 513Q281 513 233 486T149 407T97 281H145ZM199 612Q221 633 247 660T299 714T340 763H362Q369 743 382 716T410 661T439 612L437 606H419Q405 625 392 646T367 690T346
731Q320 703 287 669T221 606H198L199 612Z" />
<glyph unicode="&#xeb;" horiz-adv-x="491" d="M246 -10Q199 -10 157 10T89 76T62 194Q62 266 82 328T140 438T227 511T333 538Q389 538 423 506T458 424Q458 375 432 343T361 291T255 264T127 256H93Q92 245 91 228T89 194Q89 107 133 61T251 15Q294 15 328 26T386
48V22Q364 10 326 0T246 -10ZM145 281Q229 281 293 296T394 342T431 423Q431 462 405 487T329 513Q281 513 233 486T149 407T97 281H145ZM671 647Q661 647 657 653T652 668Q652 681 658 695T681 709Q692 709 696 703T701 688Q701 675 695 661T671 647ZM495 647Q485
647 481 653T476 668Q476 681 482 695T505 709Q512 709 516 706T523 699T525 688Q525 675 519 661T495 647Z" />
<glyph unicode="&#xec;" horiz-adv-x="207" d="M32 0L144 528H170L58 0H32ZM445 606Q430 624 411 652T374 709T348 756V766H376Q386 741 401 713T433 659T460 618V606H445Z" />
<glyph unicode="&#xed;" horiz-adv-x="207" d="M32 0L144 528H170L58 0H32ZM128 612Q151 632 177 660T228 716T267 766H297V759Q284 742 267 723T230 683T190 643T149 606H128V612Z" />
<glyph unicode="&#xee;" horiz-adv-x="207" d="M32 0L144 528H170L58 0H32ZM308 612Q330 633 356 660T408 714T449 763H471Q478 743 491 716T519 661T548 612L546 606H528Q514 625 501 646T476 690T455 731Q429 703 396 669T330 606H307L308 612Z" />
<glyph unicode="&#xef;" horiz-adv-x="207" d="M32 0L144 528H170L58 0H32ZM265 647Q255 647 251 653T246 668Q246 681 252 695T275 709Q286 709 290 703T295 688Q295 675 289 661T265 647ZM89 647Q79 647 75 653T70 668Q70 681 76 695T99 709Q106 709 110 706T117
699T119 688Q119 675 113 661T89 647Z" />
<glyph unicode="&#xf0;" horiz-adv-x="551" d="M224 -10Q170 -10 131 15T71 84T50 182Q50 236 66 286T113 377T190 441T296 465Q364 465 409 430T467 344H469Q469 426 445 509T376 652L242 577L231 598L361 670Q346 689 327 706T284 741L303 762Q326 744 346 724T383
683L507 752L518 731L398 665Q424 628 445 580T480 472T494 342Q494 287 483 235T451 139T397 61T321 9T224 -10ZM225 15Q259 15 292 26T354 59T406 114T441 190T454 288Q454 310 446 336T420 386T371 425T295 440Q244 440 204 420T135 363T92 281T77 183Q77 107
119 61T225 15Z" />
<glyph unicode="&#xf1;" horiz-adv-x="553" d="M32 0L144 528H166L138 389H140Q157 421 187 455T261 514T358 538Q402 538 432 523T477 480T493 408Q493 394 491 377T485 342L413 0H387L460 345Q464 362 465 376T467 404Q467 460 437 486T354 513Q299 513 250
479T165 391T116 274L58 0H32ZM181 618Q190 651 202 672T233 705T278 716Q302 716 320 705T354 679T385 653T416 642Q438 642 456 656T489 716H516Q507 685 494 663T462 629T415 617Q393 617 376 628T344 654T312 680T277 691Q257 691 239 677T207 618H181Z" />
<glyph unicode="&#xf2;" horiz-adv-x="565" d="M237 -10Q176 -10 136 15T75 87T55 192Q55 255 68 308T107 404T166 477T242 522T331 538Q390 538 429 512T489 441T510 338Q510 281 498 229T463 134T407 58T331 8T237 -10ZM240 15Q286 15 324 31T391 77T441 147T472
236T483 339Q483 390 466 429T415 490T329 513Q287 513 250 499T182 457T129 390T94 301T82 192Q82 111 121 63T240 15ZM362 606Q347 624 328 652T291 709T265 756V766H293Q303 741 318 713T350 659T377 618V606H362Z" />
<glyph unicode="&#xf3;" horiz-adv-x="565" d="M237 -10Q176 -10 136 15T75 87T55 192Q55 255 68 308T107 404T166 477T242 522T331 538Q390 538 429 512T489 441T510 338Q510 281 498 229T463 134T407 58T331 8T237 -10ZM240 15Q286 15 324 31T391 77T441 147T472
236T483 339Q483 390 466 429T415 490T329 513Q287 513 250 499T182 457T129 390T94 301T82 192Q82 111 121 63T240 15ZM309 612Q332 632 358 660T409 716T448 766H478V759Q465 742 448 723T411 683T371 643T330 606H309V612Z" />
<glyph unicode="&#xf4;" horiz-adv-x="565" d="M237 -10Q176 -10 136 15T75 87T55 192Q55 255 68 308T107 404T166 477T242 522T331 538Q390 538 429 512T489 441T510 338Q510 281 498 229T463 134T407 58T331 8T237 -10ZM240 15Q286 15 324 31T391 77T441 147T472
236T483 339Q483 390 466 429T415 490T329 513Q287 513 250 499T182 457T129 390T94 301T82 192Q82 111 121 63T240 15ZM217 612Q239 633 265 660T317 714T358 763H380Q387 743 400 716T428 661T457 612L455 606H437Q423 625 410 646T385 690T364 731Q338 703 305
669T239 606H216L217 612Z" />
<glyph unicode="&#xf5;" horiz-adv-x="565" d="M237 -10Q176 -10 136 15T75 87T55 192Q55 255 68 308T107 404T166 477T242 522T331 538Q390 538 429 512T489 441T510 338Q510 281 498 229T463 134T407 58T331 8T237 -10ZM240 15Q286 15 324 31T391 77T441 147T472
236T483 339Q483 390 466 429T415 490T329 513Q287 513 250 499T182 457T129 390T94 301T82 192Q82 111 121 63T240 15ZM188 618Q197 651 209 672T240 705T285 716Q309 716 327 705T361 679T392 653T423 642Q445 642 463 656T496 716H523Q514 685 501 663T469 629T422
617Q400 617 383 628T351 654T319 680T284 691Q264 691 246 677T214 618H188Z" />
<glyph unicode="&#xf6;" horiz-adv-x="565" d="M237 -10Q176 -10 136 15T75 87T55 192Q55 255 68 308T107 404T166 477T242 522T331 538Q390 538 429 512T489 441T510 338Q510 281 498 229T463 134T407 58T331 8T237 -10ZM240 15Q286 15 324 31T391 77T441 147T472
236T483 339Q483 390 466 429T415 490T329 513Q287 513 250 499T182 457T129 390T94 301T82 192Q82 111 121 63T240 15ZM700 647Q690 647 686 653T681 668Q681 681 687 695T710 709Q721 709 725 703T730 688Q730 675 724 661T700 647ZM524 647Q514 647 510 653T505
668Q505 681 511 695T534 709Q541 709 545 706T552 699T554 688Q554 675 548 661T524 647Z" />
<glyph unicode="&#xf7;" horiz-adv-x="570" d="M75 341V365H535V341H75ZM304 144Q289 144 284 153T279 175Q279 187 284 196T304 206Q322 206 326 197T331 175Q331 162 327 153T304 144ZM304 500Q289 500 284 509T279 531Q279 543 284 552T304 562Q322 562 326
553T331 531Q331 518 327 509T304 500Z" />
<glyph unicode="&#xf8;" horiz-adv-x="565" d="M14 -29L-4 -11L81 76Q68 100 62 129T55 192Q55 255 68 308T107 404T166 477T242 522T331 538Q378 538 413 521T470 474L549 555L567 537L484 452Q497 428 503 399T510 338Q510 281 498 229T463 134T407 58T331 8T237
-10Q186 -10 151 7T95 54L14 -29ZM240 15Q286 15 324 31T391 77T441 147T472 236T483 339Q483 365 479 389T465 433L113 73Q133 45 165 30T240 15ZM452 456Q433 482 402 497T329 513Q287 513 250 499T182 457T129 390T94 301T82 192Q82 164 87 139T100 95L452 456Z"
/>
<glyph unicode="&#xf9;" horiz-adv-x="553" d="M190 -10Q147 -10 117 5T71 49T55 120Q55 134 57 151T63 186L135 528H161L88 183Q84 167 83 152T81 124Q81 68 111 42T194 15Q250 15 299 49T383 137T432 254L490 528H516L404 0H382L410 139H408Q392 108 361 73T287
14T190 -10ZM368 606Q353 624 334 652T297 709T271 756V766H299Q309 741 324 713T356 659T383 618V606H368Z" />
<glyph unicode="&#xfa;" horiz-adv-x="553" d="M190 -10Q147 -10 117 5T71 49T55 120Q55 134 57 151T63 186L135 528H161L88 183Q84 167 83 152T81 124Q81 68 111 42T194 15Q250 15 299 49T383 137T432 254L490 528H516L404 0H382L410 139H408Q392 108 361 73T287
14T190 -10ZM303 612Q326 632 352 660T403 716T442 766H472V759Q459 742 442 723T405 683T365 643T324 606H303V612Z" />
<glyph unicode="&#xfb;" horiz-adv-x="553" d="M190 -10Q147 -10 117 5T71 49T55 120Q55 134 57 151T63 186L135 528H161L88 183Q84 167 83 152T81 124Q81 68 111 42T194 15Q250 15 299 49T383 137T432 254L490 528H516L404 0H382L410 139H408Q392 108 361 73T287
14T190 -10ZM216 612Q238 633 264 660T316 714T357 763H379Q386 743 399 716T427 661T456 612L454 606H436Q422 625 409 646T384 690T363 731Q337 703 304 669T238 606H215L216 612Z" />
<glyph unicode="&#xfc;" horiz-adv-x="553" d="M190 -10Q147 -10 117 5T71 49T55 120Q55 134 57 151T63 186L135 528H161L88 183Q84 167 83 152T81 124Q81 68 111 42T194 15Q250 15 299 49T383 137T432 254L490 528H516L404 0H382L410 139H408Q392 108 361 73T287
14T190 -10ZM689 647Q679 647 675 653T670 668Q670 681 676 695T699 709Q710 709 714 703T719 688Q719 675 713 661T689 647ZM513 647Q503 647 499 653T494 668Q494 681 500 695T523 709Q530 709 534 706T541 699T543 688Q543 675 537 661T513 647Z" />
<glyph unicode="&#xfd;" horiz-adv-x="410" d="M-57 -243Q-76 -243 -89 -241T-114 -233V-207Q-102 -212 -89 -215T-55 -218Q-19 -218 10 -190T74 -103L138 7L50 528H76L135 172Q140 141 144 116T151 72T155 37H157Q165 52 175 71T198 114T228 168L430 528H459L96
-115Q73 -155 50 -184T1 -228T-57 -243ZM222 612Q245 632 271 660T322 716T361 766H391V759Q378 742 361 723T324 683T284 643T243 606H222V612Z" />
<glyph unicode="&#xfe;" horiz-adv-x="568" d="M-17 -232L193 760H219L173 543Q166 512 157 470T137 389H140Q159 425 190 459T264 516T357 538Q429 538 471 487T513 350Q513 301 503 251T471 154T416 70T339 12T239 -10Q189 -10 156 9T106 58T83 121H81Q76 87
69 52T55 -15L9 -232H-17ZM240 15Q290 15 329 34T397 87T447 164T476 255T486 350Q486 425 451 469T352 513Q301 513 252 482T165 394T111 262Q107 243 105 227T102 197T101 170Q101 92 140 54T240 15Z" />
<glyph unicode="&#xff;" horiz-adv-x="410" d="M-57 -243Q-76 -243 -89 -241T-114 -233V-207Q-102 -212 -89 -215T-55 -218Q-19 -218 10 -190T74 -103L138 7L50 528H76L135 172Q140 141 144 116T151 72T155 37H157Q165 52 175 71T198 114T228 168L430 528H459L96
-115Q73 -155 50 -184T1 -228T-57 -243ZM616 647Q606 647 602 653T597 668Q597 681 603 695T626 709Q637 709 641 703T646 688Q646 675 640 661T616 647ZM440 647Q430 647 426 653T421 668Q421 681 427 695T450 709Q457 709 461 706T468 699T470 688Q470 675 464
661T440 647Z" />
<glyph unicode="&#x2013;" horiz-adv-x="480" d="M38 259L43 284H442L437 259H38Z" />
<glyph unicode="&#x2014;" horiz-adv-x="955" d="M38 259L43 284H917L912 259H38Z" />
<glyph unicode="&#x2018;" horiz-adv-x="121" d="M65 478Q80 519 98 560T137 640T182 714H202Q185 688 169 657T138 592T111 528T90 469H70L65 478Z" />
<glyph unicode="&#x2019;" horiz-adv-x="121" d="M60 469Q83 504 104 547T143 634T172 714H192L197 705Q183 664 165 623T125 543T80 469H60Z" />
<glyph unicode="&#x201a;" horiz-adv-x="192" d="M-41 -129Q-18 -94 3 -51T42 36T71 116H91L96 107Q82 66 64 25T24 -55T-21 -129H-41Z" />
<glyph unicode="&#x201c;" horiz-adv-x="252" d="M196 478Q211 519 229 560T268 640T313 714H333Q311 679 289 636T250 549T221 469H201L196 478ZM65 478Q80 519 98 560T137 640T182 714H202Q185 688 169 657T138 592T111 528T90 469H70L65 478Z" />
<glyph unicode="&#x201d;" horiz-adv-x="252" d="M191 469Q214 504 235 547T274 634T303 714H323L328 705Q314 664 296 623T256 543T211 469H191ZM60 469Q83 504 104 547T143 634T172 714H192L197 705Q183 664 165 623T125 543T80 469H60Z" />
<glyph unicode="&#x201e;" horiz-adv-x="332" d="M90 -129Q113 -94 134 -51T173 36T202 116H222L227 107Q213 66 195 25T155 -55T110 -129H90ZM-41 -129Q-18 -94 3 -51T42 36T71 116H91L96 107Q82 66 64 25T24 -55T-21 -129H-41Z" />
<glyph unicode="&#x2022;" horiz-adv-x="376" d="M200 299Q178 299 168 311T158 344Q158 362 164 382T185 417T222 431Q237 431 246 425T259 409T264 384Q264 367 257 347T236 313T200 299Z" />
<glyph unicode="&#x2039;" horiz-adv-x="210" d="M125 87L20 272L23 285L207 472L222 457L51 275L143 97L125 87Z" />
<glyph unicode="&#x203a;" horiz-adv-x="210" d="M7 87L-8 102L163 284L71 462L89 472L194 287L191 274L7 87Z" />
</font>
</defs>
</svg>
