<?xml version="1.0" standalone="no"?>
<!DOCTYPE svg PUBLIC "-//W3C//DTD SVG 1.1//EN" "http://www.w3.org/Graphics/SVG/1.1/DTD/svg11.dtd">
<svg xmlns="http://www.w3.org/2000/svg">
<defs >
<font id="NotoSans" horiz-adv-x="575" ><font-face
    font-family="Noto Sans ExtraLight"
    units-per-em="1000"
    panose-1="2 11 5 2 4 5 4 2 2 4"
    ascent="1069"
    descent="-293"
    alphabetic="0" />
<glyph unicode=" " horiz-adv-x="260" />
<glyph unicode="!" horiz-adv-x="232" d="M133 179H101L95 714H139L133 179ZM82 29Q82 46 90 57T115 68Q134 68 141 57T149 29Q149 12 142 2T115 -9Q98 -9 90 1T82 29Z" />
<glyph unicode="&quot;" horiz-adv-x="338" d="M113 714L106 456H79L71 714H113ZM267 714L259 456H232L225 714H267Z" />
<glyph unicode="#" horiz-adv-x="646" d="M470 457L431 256H580V223H425L381 0H347L391 223H203L160 0H126L169 223H27V256H174L214 457H66V489H219L262 714H297L254 489H442L485 714H519L475 489H618V457H470ZM209 256H396L435 457H248L209 256Z" />
<glyph unicode="$" horiz-adv-x="570" d="M253 18Q192 19 145 28T66 48V88Q101 75 150 65T253 53V348Q199 368 156 389T89 444T64 530Q64 583 88 618T155 674T253 697V759H285V698Q328 697 369 688T450 661L436 627Q396 645 358 653T285 662V375Q343 355 386 333T454
278T479 193Q479 111 425 68T285 19V-58H253V18ZM285 55Q354 59 397 92T440 192Q440 231 422 256T370 300T285 336V55ZM253 662Q210 660 176 645T123 602T103 533Q103 491 123 464T177 420T253 387V662Z" />
<glyph unicode="%" horiz-adv-x="801" d="M197 724Q267 724 301 667T335 501Q335 389 299 333T195 276Q128 276 93 333T57 501Q57 611 93 667T197 724ZM197 691Q147 691 120 644T93 501Q93 406 119 358T195 309Q248 309 273 358T299 501Q299 594 275 642T197 691ZM618
714L222 0H184L580 714H618ZM605 438Q675 438 709 381T744 215Q744 103 708 47T603 -10Q536 -10 501 47T465 215Q465 325 501 381T605 438ZM605 405Q556 405 529 358T502 215Q502 120 528 72T603 23Q656 23 681 72T707 215Q707 308 683 356T605 405Z" />
<glyph unicode="&amp;" horiz-adv-x="708" d="M304 725Q352 725 387 708T443 658T463 579Q463 511 418 468T298 387L531 153Q560 188 582 234T617 334H657Q642 272 617 221T556 126L680 0H628L531 101Q500 69 465 44T385 5T280 -10Q215 -10 166 12T89 76T61 180Q61
235 82 272T142 338T238 395Q206 428 183 455T148 511T135 575Q135 620 156 654T215 706T304 725ZM263 370Q211 345 175 320T120 263T101 181Q101 107 151 67T281 26Q360 26 411 53T506 125L263 370ZM303 690Q244 690 209 659T174 575Q174 531 199 495T271 412Q344
445 384 483T424 579Q424 631 392 660T303 690Z" />
<glyph unicode="&apos;" horiz-adv-x="183" d="M113 714L106 456H79L71 714H113Z" />
<glyph unicode="(" horiz-adv-x="264" d="M42 274Q42 362 59 441T108 590T187 714H230Q155 625 118 513T81 275Q81 193 97 117T147 -28T230 -158H187Q141 -101 109 -34T59 111T42 274Z" />
<glyph unicode=")" horiz-adv-x="264" d="M223 280Q223 194 206 114T157 -34T78 -158H35Q86 -98 118 -28T167 119T184 280Q184 362 168 438T118 584T35 714H78Q125 657 157 590T206 445T223 280Z" />
<glyph unicode="*" horiz-adv-x="551" d="M294 758L285 555L479 621L488 581L295 533L418 371L383 347L273 518L166 348L129 371L252 533L58 581L68 621L261 555L252 758H294Z" />
<glyph unicode="+" horiz-adv-x="570" d="M302 370H516V336H302V121H268V336H54V370H268V585H302V370Z" />
<glyph unicode="," horiz-adv-x="200" d="M139 104Q131 68 121 27T97 -54T69 -129H39Q53 -82 63 -41T80 40T93 116H135L139 104Z" />
<glyph unicode="-" horiz-adv-x="322" d="M40 253V289H282V253H40Z" />
<glyph unicode="." horiz-adv-x="230" d="M82 29Q82 46 90 57T115 68Q134 68 141 57T149 29Q149 12 142 2T115 -9Q98 -9 90 1T82 29Z" />
<glyph unicode="/" horiz-adv-x="332" d="M320 714L52 0H12L280 714H320Z" />
<glyph unicode="0" horiz-adv-x="570" d="M510 360Q510 269 497 200T455 85T385 14T285 -10Q213 -10 163 31T86 154T59 360Q59 466 81 548T153 678T286 725Q370 725 419 679T489 551T510 360ZM99 360Q99 246 119 172T181 62T285 25Q351 25 392 61T452 172T471
360Q471 461 455 535T398 649T286 690Q215 690 174 649T116 533T99 360Z" />
<glyph unicode="1" horiz-adv-x="570" d="M327 0H289V550Q289 579 289 600T289 640T291 672Q278 661 266 651T235 627L121 542L99 570L294 714H327V0Z" />
<glyph unicode="2" horiz-adv-x="570" d="M497 0H57V33L273 260Q323 312 356 354T407 440T425 537Q425 609 384 649T269 689Q225 689 181 673T97 624L75 652Q106 677 138 692T204 716T269 724Q328 724 372 701T440 636T465 538Q465 479 446 432T390 340T304 243L108
38V36H497V0Z" />
<glyph unicode="3" horiz-adv-x="570" d="M475 550Q475 503 455 467T402 407T323 375V373Q407 362 452 318T497 196Q497 136 469 89T385 16T246 -10Q187 -10 137 1T47 31V70Q86 51 139 38T246 25Q352 25 404 71T456 196Q456 253 429 288T352 338T236 353H156V388H236Q290
388 335 405T407 459T435 549Q435 619 391 654T273 689Q236 689 202 682T137 659T74 621L54 650Q97 683 151 703T273 724Q366 724 420 678T475 550Z" />
<glyph unicode="4" horiz-adv-x="570" d="M558 188H430V0H392V188H24V217L390 718H430V223H558V188ZM392 512Q392 543 392 565T393 605T393 638T394 673H392Q377 648 365 629T332 583L70 223H392V512Z" />
<glyph unicode="5" horiz-adv-x="570" d="M274 428Q346 428 398 404T478 333T507 219Q507 148 476 97T387 18T252 -10Q195 -10 150 1T72 31V72Q106 52 152 39T252 25Q317 25 365 47T440 113T467 217Q467 300 418 346T268 393Q226 393 189 388T118 372L94 390L124
714H463V678H157L134 410Q157 416 191 422T274 428Z" />
<glyph unicode="6" horiz-adv-x="570" d="M65 303Q65 389 78 456T117 574T180 658T265 709T370 726Q398 726 422 723T466 713V677Q448 683 424 687T370 691Q309 691 261 669T178 603T125 492T103 330H106Q119 358 145 383T212 424T307 441Q372 441 418 415T490
340T515 226Q515 156 490 103T416 20T299 -10Q238 -10 194 15T121 84T79 185T65 303ZM299 25Q384 25 430 78T476 226Q476 310 434 358T303 407Q243 407 200 383T133 324T109 256Q109 225 117 186T147 110T205 49T299 25Z" />
<glyph unicode="7" horiz-adv-x="570" d="M173 0L470 678H55V714H513V687L216 0H173Z" />
<glyph unicode="8" horiz-adv-x="570" d="M283 724Q344 724 389 705T458 648T483 559Q483 516 464 484T408 426T324 381Q380 361 421 334T484 270T507 182Q507 121 477 79T396 13T281 -10Q215 -10 166 13T89 78T61 176Q61 230 83 268T146 334T240 379Q197 397
162 420T106 476T84 558Q84 609 109 646T180 703T283 724ZM100 176Q100 107 149 66T280 24Q364 24 416 64T468 182Q468 224 449 255T394 310T304 353L279 362Q228 344 188 320T124 262T100 176ZM283 690Q214 690 169 656T123 557Q123 516 143 487T201 436T287 398Q338
419 373 441T426 491T444 559Q444 624 402 657T283 690Z" />
<glyph unicode="9" horiz-adv-x="570" d="M504 412Q504 326 491 258T452 140T389 56T304 5T199 -12Q172 -12 143 -9T95 1V38Q113 32 141 28T199 23Q260 23 308 45T391 111T445 224T466 385H463Q450 358 424 333T357 290T261 273Q196 273 150 299T79 375T54 489Q54
560 79 612T154 694T271 724Q333 724 377 699T449 631T490 531T504 412ZM271 689Q186 689 140 637T93 490Q93 405 136 356T266 307Q326 307 369 331T436 391T460 460Q460 489 452 528T422 604T364 665T271 689Z" />
<glyph unicode=":" horiz-adv-x="230" d="M82 29Q82 46 90 57T115 68Q134 68 141 57T149 29Q149 12 142 2T115 -9Q98 -9 90 1T82 29ZM82 497Q82 514 90 525T115 536Q134 536 141 525T149 497Q149 479 142 469T115 459Q98 459 90 469T82 497Z" />
<glyph unicode=";" horiz-adv-x="230" d="M137 104Q129 68 119 27T95 -54T68 -129H37Q47 -95 55 -63T70 0T82 59T92 116H133L137 104ZM82 497Q82 514 89 525T114 536Q134 536 141 525T149 497Q149 479 142 469T114 459Q97 459 90 469T82 497Z" />
<glyph unicode="&lt;" horiz-adv-x="570" d="M515 134L55 347V371L515 590V554L102 360L515 170V134Z" />
<glyph unicode="=" horiz-adv-x="570" d="M55 438V471H515V438H55ZM55 235V268H515V235H55Z" />
<glyph unicode="&gt;" horiz-adv-x="570" d="M55 170L468 360L55 554V590L515 371V347L55 134V170Z" />
<glyph unicode="?" horiz-adv-x="417" d="M143 195Q143 242 150 272T175 327T228 376Q265 404 290 428T329 481T342 553Q342 622 301 655T191 688Q152 688 118 680T47 653L33 688Q76 706 112 715T192 724Q279 724 330 681T381 553Q381 504 365 470T320 408T252
352Q224 332 208 311T185 263T177 193V179H143V195ZM130 29Q130 46 137 57T162 68Q182 68 189 57T196 29Q196 12 189 2T162 -9Q145 -9 138 1T130 29Z" />
<glyph unicode="@" horiz-adv-x="882" d="M829 352Q829 302 820 258T790 180T740 127T670 107Q624 107 596 134T565 209H564Q542 157 502 132T412 107Q339 107 299 154T258 286Q258 351 285 401T359 480T470 509Q508 509 542 504T603 488L595 331Q594 313 593
292T592 248Q592 195 610 168T671 140Q713 140 740 167T780 243T793 352Q793 450 756 522T646 634T470 674Q385 674 315 648T195 572T117 449T89 284Q89 175 128 97T240 -22T418 -64Q470 -64 523 -53T623 -23V-59Q580 -77 528 -87T418 -98Q305 -98 223 -52T97 80T53
283Q53 383 83 462T168 596T300 679T470 708Q553 708 619 684T732 613T804 500T829 352ZM295 286Q295 215 325 178T415 140Q482 140 518 184T559 317L567 462Q546 469 523 472T470 476Q417 476 378 452T317 386T295 286Z" />
<glyph unicode="A" horiz-adv-x="590" d="M548 0L448 261H143L41 0H0L281 716H318L589 0H548ZM330 578Q327 590 322 604T310 636T298 670Q293 654 288 638T276 606T265 578L157 297H434L330 578Z" />
<glyph unicode="B" horiz-adv-x="621" d="M295 714Q427 714 486 672T546 541Q546 501 530 467T483 409T406 377V375Q462 366 497 344T548 286T565 203Q565 132 533 87T443 21T312 0H102V714H295ZM306 392Q409 392 457 429T505 538Q505 613 455 645T294 678H141V392H306ZM141
357V35H315Q416 35 470 76T524 204Q524 261 499 294T425 342T305 357H141Z" />
<glyph unicode="C" horiz-adv-x="618" d="M405 688Q333 688 277 664T183 596T124 492T103 359Q103 259 135 184T231 68T389 26Q445 26 489 34T571 55V21Q536 7 491 -1T387 -10Q280 -10 208 36T100 165T63 360Q63 438 85 504T152 620T260 696T405 724Q455 724 500
715T587 686L571 651Q530 672 489 680T405 688Z" />
<glyph unicode="D" horiz-adv-x="700" d="M636 364Q636 244 595 163T472 41T265 0H102V714H288Q403 714 480 674T597 556T636 364ZM596 363Q596 466 562 536T458 642T277 678H141V36H265Q431 36 513 117T596 363Z" />
<glyph unicode="E" horiz-adv-x="551" d="M490 0H102V714H490V678H141V394H470V358H141V36H490V0Z" />
<glyph unicode="F" horiz-adv-x="497" d="M141 0H102V714H490V678H141V360H471V324H141V0Z" />
<glyph unicode="G" horiz-adv-x="722" d="M375 355H642V34Q592 12 534 1T414 -10Q300 -10 222 33T103 157T63 355Q63 463 106 546T231 677T425 726Q483 726 535 715T634 682L617 646Q569 670 521 680T424 690Q324 690 252 647T142 529T103 356Q103 243 141 170T250
61T420 26Q476 26 521 34T603 57V319H375V355Z" />
<glyph unicode="H" horiz-adv-x="713" d="M611 0H572V357H141V0H102V714H141V393H572V714H611V0Z" />
<glyph unicode="I" horiz-adv-x="294" d="M238 0H57V27L128 33V680L57 688V714H238V688L167 680V33L238 27V0Z" />
<glyph unicode="J" horiz-adv-x="240" d="M-16 -177Q-43 -177 -62 -173T-94 -165V-127Q-80 -133 -60 -136T-16 -140Q27 -140 53 -123T91 -73T103 5V714H142V4Q142 -49 126 -90T75 -154T-16 -177Z" />
<glyph unicode="K" horiz-adv-x="570" d="M570 0H522L239 386L141 290V0H102V714H141V332Q156 349 172 366T206 401L512 714H563L268 414L570 0Z" />
<glyph unicode="L" horiz-adv-x="510" d="M102 0V714H141V36H489V0H102Z" />
<glyph unicode="M" horiz-adv-x="851" d="M409 0L140 668H137Q138 651 138 634T139 600T139 563V0H102V714H162L424 64H427L690 714H749V0H710V569Q710 584 710 600T711 633T712 667H710L440 0H409Z" />
<glyph unicode="N" horiz-adv-x="711" d="M608 0H572L139 642H137Q138 615 138 589T139 536T139 481V0H102V714H139L570 74H572Q572 97 572 124T571 178T570 231V714H608V0Z" />
<glyph unicode="O" horiz-adv-x="759" d="M696 358Q696 277 676 210T617 93T518 17T379 -10Q300 -10 241 17T142 93T83 210T63 359Q63 467 99 549T208 678T384 725Q485 725 554 681T659 555T696 358ZM103 359Q103 261 133 186T224 69T380 26Q474 26 535 67T626
184T655 358Q655 515 586 602T384 689Q289 689 227 647T134 531T103 359Z" />
<glyph unicode="P" horiz-adv-x="580" d="M273 714Q397 714 460 667T524 516Q524 461 506 420T455 352T372 313T259 300H141V0H102V714H273ZM268 678H141V335H255Q325 335 376 351T455 406T483 514Q483 601 431 639T268 678Z" />
<glyph unicode="Q" horiz-adv-x="759" d="M696 358Q696 265 670 189T590 64T457 -2L605 -170H550L414 -8Q405 -9 397 -9T379 -10Q300 -10 241 17T142 93T83 210T63 359Q63 467 99 549T208 678T384 725Q485 725 554 681T659 555T696 358ZM103 359Q103 261 133 186T224
69T380 26Q474 26 535 67T626 184T655 358Q655 515 586 602T384 689Q289 689 227 647T134 531T103 359Z" />
<glyph unicode="R" horiz-adv-x="586" d="M269 714Q353 714 409 697T495 637T524 522Q524 468 505 429T450 365T366 326L562 0H515L327 315H141V0H102V714H269ZM264 678H141V350H292Q379 350 431 394T483 521Q483 581 459 615T387 664T264 678Z" />
<glyph unicode="S" horiz-adv-x="544" d="M492 182Q492 118 460 75T372 11T249 -10Q205 -10 170 -6T107 5T55 20V61Q94 46 143 36T252 26Q308 26 353 42T425 93T452 181Q452 228 430 257T365 307T259 348Q216 362 180 378T117 416T77 468T63 544Q63 603 93 643T175
703T290 724Q340 724 385 715T474 686L459 652Q415 672 373 680T288 688Q237 688 195 673T128 626T103 545Q103 495 126 465T190 416T283 379Q347 359 393 336T466 277T492 182Z" />
<glyph unicode="T" horiz-adv-x="515" d="M277 0H238V678H4V714H512V678H277V0Z" />
<glyph unicode="U" horiz-adv-x="716" d="M622 252Q622 166 590 108T498 20T356 -10Q231 -10 163 58T94 254V714H133V255Q133 142 191 84T358 26Q428 26 478 51T556 125T584 246V714H622V252Z" />
<glyph unicode="V" horiz-adv-x="571" d="M571 714L304 0H266L0 714H41L246 166Q254 145 261 125T274 86T286 50Q291 67 296 84T309 122T325 166L529 714H571Z" />
<glyph unicode="W" horiz-adv-x="881" d="M855 714L658 0H621L464 559Q460 574 457 588T450 614T443 638T437 662Q435 650 433 640T429 619T423 599T417 576L260 0H223L29 714H69L210 192Q215 173 219 156T228 124T235 93T242 63Q245 79 248 94T256 124T264 157T275
194L419 714H458L606 191Q613 171 617 154T625 121T632 91T639 60Q643 81 647 100T656 142T669 191L814 714H855Z" />
<glyph unicode="X" horiz-adv-x="525" d="M526 0H481L263 342L42 0H-2L239 370L21 714H66L265 399L464 714H508L288 371L526 0Z" />
<glyph unicode="Y" horiz-adv-x="517" d="M259 314L474 714H517L279 275V0H240V271L0 714H44L259 314Z" />
<glyph unicode="Z" horiz-adv-x="577" d="M537 0H36V28L474 678H61V714H525V686L88 36H537V0Z" />
<glyph unicode="[" horiz-adv-x="316" d="M291 -158H86V714H291V679H124V-123H291V-158Z" />
<glyph unicode="\" horiz-adv-x="332" d="M52 714L320 0H280L12 714H52Z" />
<glyph unicode="]" horiz-adv-x="316" d="M25 -123H192V679H25V714H230V-158H25V-123Z" />
<glyph unicode="^" horiz-adv-x="570" d="M44 276L276 719H304L526 276H487L289 674L83 276H44Z" />
<glyph unicode="_" horiz-adv-x="402" d="M404 -124H-2V-91H404V-124Z" />
<glyph unicode="`" horiz-adv-x="256" d="M85 766Q99 745 121 717T169 661T216 613V606H187Q167 622 147 641T107 682T70 722T40 758V766H85Z" />
<glyph unicode="a" horiz-adv-x="521" d="M269 539Q354 539 396 495T439 353V0H408L401 98H399Q383 68 359 43T298 4T209 -10Q157 -10 121 7T67 57T48 133Q48 212 113 252T300 299L400 305V345Q400 431 367 467T268 504Q227 504 190 495T111 464L99 498Q138 516
180 527T269 539ZM304 268Q202 263 145 231T88 133Q88 81 121 53T213 24Q307 24 353 77T400 219V272L304 268Z" />
<glyph unicode="b" horiz-adv-x="590" d="M127 535Q127 509 126 475T124 418H127Q145 471 194 505T317 540Q421 540 476 471T531 266Q531 187 507 125T433 26T304 -10Q235 -10 191 20T128 97H125L119 0H88V760H127V535ZM314 505Q249 505 208 477T147 395T127 265V256Q127
143 169 84T301 25Q395 25 443 88T491 267Q491 385 447 445T314 505Z" />
<glyph unicode="c" horiz-adv-x="474" d="M302 -10Q220 -10 166 24T85 119T58 262Q58 346 90 408T179 505T316 540Q353 540 384 534T443 515L434 480Q405 493 375 498T316 504Q248 504 200 474T125 390T98 262Q98 195 119 141T185 56T301 25Q339 25 374 32T438
52V17Q413 6 379 -2T302 -10Z" />
<glyph unicode="d" horiz-adv-x="590" d="M281 -10Q170 -10 114 58T58 257Q58 394 118 467T288 540Q335 540 369 525T427 483T463 425H466Q465 455 464 485T463 544V760H501V0H469L465 105H463Q450 74 427 48T368 6T281 -10ZM284 25Q381 25 422 86T463 260V266Q463
382 421 443T290 505Q197 505 148 442T98 256Q98 141 144 83T284 25Z" />
<glyph unicode="e" horiz-adv-x="545" d="M288 540Q356 540 399 508T464 420T486 294V263H98Q98 148 150 87T300 25Q349 25 384 32T465 61V23Q426 6 388 -2T299 -10Q218 -10 164 24T84 119T58 260Q58 338 84 401T161 502T288 540ZM288 505Q208 505 158 452T99
297H446Q447 359 430 406T377 479T288 505Z" />
<glyph unicode="f" horiz-adv-x="288" d="M273 496H151V0H112V496H12V522L112 530V596Q112 652 128 689T177 746T262 765Q289 765 309 761T349 752L341 717Q323 724 303 727T262 730Q203 730 177 699T151 597V530H273V496Z" />
<glyph unicode="g" horiz-adv-x="590" d="M287 540Q356 540 396 513T459 443H462L468 530H500V-22Q500 -87 478 -136T406 -213T276 -240Q216 -240 171 -230T89 -204V-163Q125 -181 173 -193T277 -205Q376 -205 418 -156T461 -23V15Q461 40 462 61T464 108H461Q441
50 394 20T276 -10Q174 -10 116 58T58 258Q58 389 116 464T287 540ZM289 505Q224 505 182 476T119 391T98 258Q98 144 145 85T279 25Q334 25 369 43T425 92T453 164T462 246V289Q462 354 446 402T392 478T289 505Z" />
<glyph unicode="h" horiz-adv-x="582" d="M128 504Q128 483 127 465T125 426H128Q140 457 164 482T226 523T316 539Q374 539 415 519T477 456T499 347V0H460V345Q460 428 422 466T313 505Q256 505 215 483T151 414T128 297V0H89V760H128V504Z" />
<glyph unicode="i" horiz-adv-x="217" d="M128 530V0H89V530H128ZM108 724Q127 724 133 714T140 688Q140 672 134 662T108 652Q92 652 85 662T78 688Q78 704 85 714T108 724Z" />
<glyph unicode="j" horiz-adv-x="217" d="M13 -240Q-7 -240 -23 -237T-51 -230V-194Q-36 -201 -21 -203T11 -205Q49 -205 69 -181T89 -109V530H128V-112Q128 -154 113 -183T73 -226T13 -240ZM78 688Q78 704 85 714T108 724Q127 724 133 714T140 688Q140 672 134
662T108 652Q92 652 85 662T78 688Z" />
<glyph unicode="k" horiz-adv-x="470" d="M127 381Q127 339 127 300T126 218V218Q137 230 146 241T164 263T185 286L405 530H453L246 302L472 0H426L219 276L127 177V0H89V760H127V381Z" />
<glyph unicode="l" horiz-adv-x="217" d="M128 0H90V760H128V0Z" />
<glyph unicode="m" horiz-adv-x="869" d="M626 540Q699 540 743 496T787 359V0H749V357Q749 434 714 469T623 505Q547 505 502 461T457 319V0H419V357Q419 409 403 441T358 489T293 505Q245 505 208 485T150 424T128 315V0H89V530H120L126 438H129Q141 464 162
487T216 525T296 540Q353 540 392 513T446 434H448Q469 483 514 511T626 540Z" />
<glyph unicode="n" horiz-adv-x="582" d="M316 540Q404 540 451 493T499 347V0H460V345Q460 428 422 466T313 505Q227 505 178 454T128 297V0H89V530H120L126 426H129Q142 457 166 482T227 524T316 540Z" />
<glyph unicode="o" horiz-adv-x="581" d="M522 265Q522 205 508 155T465 68T392 11T289 -10Q233 -10 190 10T118 67T73 154T58 265Q58 350 86 411T167 506T294 540Q373 540 423 504T498 406T522 265ZM98 265Q98 194 119 140T182 55T289 25Q356 25 398 55T461 140T482
265Q482 333 463 387T403 473T294 505Q198 505 148 442T98 265Z" />
<glyph unicode="p" horiz-adv-x="590" d="M318 540Q422 540 477 471T533 269Q533 180 507 118T431 23T310 -10Q261 -10 224 6T164 48T128 106H126Q128 76 128 45T128 -16V-234H90V530H122L126 414H128Q140 447 164 475T227 522T318 540ZM315 505Q253 505 212 477T150
397T128 269V263Q128 182 149 130T210 51T308 25Q367 25 408 53T471 135T493 269Q493 387 449 446T315 505Z" />
<glyph unicode="q" horiz-adv-x="590" d="M460 0Q460 23 461 55T463 112H460Q443 59 393 24T270 -11Q166 -11 111 59T56 263Q56 342 80 404T155 503T283 540Q353 540 397 508T459 432H461L467 530H499V-234H460V0ZM273 24Q339 24 380 52T440 133T461 262V273Q461
386 419 445T286 505Q192 505 144 442T96 263Q96 145 140 85T273 24Z" />
<glyph unicode="r" horiz-adv-x="383" d="M290 538Q312 538 331 536T367 528L360 492Q342 497 326 499T288 502Q249 502 219 488T169 446T139 381T128 295V0H90V530H124L127 429H130Q141 460 162 484T216 523T290 538Z" />
<glyph unicode="s" horiz-adv-x="462" d="M416 137Q416 91 393 58T325 8T214 -10Q159 -10 115 0T42 24V64Q80 46 124 35T215 24Q301 24 339 54T377 135Q377 170 358 192T303 229T223 258Q175 274 137 289T77 331T55 406Q55 470 105 505T241 540Q288 540 329 531T403
508L388 474Q359 488 319 496T240 505Q171 505 133 481T94 407Q94 370 113 350T165 318T241 290Q287 275 327 259T391 214T416 137Z" />
<glyph unicode="t" horiz-adv-x="328" d="M223 25Q247 25 266 28T301 37V4Q285 -2 265 -6T220 -10Q174 -10 146 7T105 59T91 143V496H11V522L91 531L103 659H130V530H298V496H130V146Q130 87 150 56T223 25Z" />
<glyph unicode="u" horiz-adv-x="582" d="M492 530V0H460L454 103H452Q440 73 416 47T354 6T264 -10Q204 -10 164 11T102 76T81 183V530H120V187Q120 104 158 65T267 25Q325 25 366 48T430 116T453 232V530H492Z" />
<glyph unicode="v" horiz-adv-x="446" d="M204 0L0 530H41L183 155Q192 133 198 114T211 79T222 45H224Q230 62 235 79T248 115T263 155L405 530H446L242 0H204Z" />
<glyph unicode="w" horiz-adv-x="706" d="M390 371Q386 385 382 398T375 424T367 449T360 474H357Q354 462 351 449T343 423T336 397T327 371L205 -1H167L15 529H57L155 175Q164 145 169 124T179 85T186 51H189Q192 63 195 75T202 102T211 133T223 172L342 529H378L492
173Q500 148 506 127T517 87T526 51H529Q531 68 534 85T544 125T557 175L652 529H691L548 -1H509L390 371Z" />
<glyph unicode="x" horiz-adv-x="489" d="M218 272L33 530H79L242 299L404 530H450L267 272L462 0H416L242 245L69 0H24L218 272Z" />
<glyph unicode="y" horiz-adv-x="445" d="M0 530H41L174 184Q185 153 194 128T211 83T223 47H225Q233 69 244 103T273 181L405 530H446L201 -107Q184 -151 164 -181T118 -227T55 -242Q39 -242 25 -240T-3 -233V-198Q11 -202 23 -205T52 -208Q79 -208 99 -197T135
-160T166 -96L204 4L0 530Z" />
<glyph unicode="z" horiz-adv-x="459" d="M416 0H41V25L367 496H66V530H417V504L90 34H416V0Z" />
<glyph unicode="{" horiz-adv-x="346" d="M310 -158Q254 -158 216 -142T159 -95T139 -18V148Q139 188 128 213T91 249T26 261V295Q66 295 91 306T127 342T139 408V574Q139 620 158 651T216 698T310 714V679Q265 679 236 668T193 632T178 568V404Q178 353 159 321T93
280V277Q139 268 158 236T178 152V-15Q178 -52 192 -76T235 -111T310 -123V-158Z" />
<glyph unicode="|" horiz-adv-x="538" d="M250 762H285V-249H250V762Z" />
<glyph unicode="}" horiz-adv-x="346" d="M35 -123Q81 -123 109 -112T152 -76T167 -14V152Q167 203 186 235T252 277V279Q206 288 187 320T167 404V568Q167 608 153 632T110 667T35 679V714Q92 714 129 698T186 651T206 574V408Q206 367 217 342T254 306T319 295V261Q279
261 254 250T218 214T206 148V-18Q206 -63 186 -94T129 -142T35 -158V-123Z" />
<glyph unicode="~" horiz-adv-x="570" d="M279 337Q251 352 228 360T171 368Q142 368 113 355T55 312V352Q78 375 108 388T172 401Q212 401 238 393T296 368Q325 355 348 347T401 338Q429 338 458 351T515 393V355Q495 333 466 319T400 305Q366 305 339 313T279 337Z" />
<glyph unicode="&#xa0;" horiz-adv-x="260" />
<glyph unicode="&#xa1;" horiz-adv-x="232" d="M99 349H130L137 -185H93L99 349ZM149 500Q149 482 142 472T116 461Q97 461 90 471T82 500Q82 517 89 527T116 538Q134 538 141 528T149 500Z" />
<glyph unicode="&#xa2;" horiz-adv-x="570" d="M341 639Q381 639 411 633T471 614L462 579Q433 593 403 598T344 604Q276 604 227 574T152 489T126 361Q126 293 147 240T214 156T330 125Q367 125 402 132T466 152V116Q443 106 411 99T341 89V-10H307V90Q232 95
183 130T110 224T86 361Q86 439 112 498T188 593T307 637V724H341V639Z" />
<glyph unicode="&#xa3;" horiz-adv-x="570" d="M342 723Q391 723 428 714T495 692L482 657Q449 671 417 679T342 688Q269 688 233 646T197 515V365H397V332H197V194Q197 149 187 118T159 67T119 36H521V0H40V33Q79 40 105 59T144 112T158 193V332H53V365H158V520Q158
587 179 632T242 700T342 723Z" />
<glyph unicode="&#xa4;" horiz-adv-x="570" d="M85 354Q85 389 97 422T132 483L57 559L79 581L155 506Q183 530 216 542T284 554Q319 554 353 542T414 506L489 580L511 558L437 483Q460 456 472 423T484 354Q484 319 473 286T437 224L512 149L489 126L414 202Q387
178 353 166T284 154Q249 154 216 166T155 202L79 127L58 149L132 224Q109 252 97 285T85 354ZM116 354Q116 306 139 268T200 208T284 185Q331 185 369 208T430 269T453 355Q453 401 430 439T370 500T285 523Q239 523 201 501T139 440T116 354Z" />
<glyph unicode="&#xa5;" horiz-adv-x="570" d="M286 342L504 714H547L316 326H475V293H305V188H475V155H305V0H267V155H96V188H267V293H96V326H254L23 714H66L286 342Z" />
<glyph unicode="&#xa6;" horiz-adv-x="538" d="M250 762H285V392H250V762ZM250 122H285V-249H250V122Z" />
<glyph unicode="&#xa7;" horiz-adv-x="517" d="M79 395Q79 444 108 475T181 522Q139 539 112 563T84 634Q84 693 132 726T264 760Q311 760 350 752T421 730L407 697Q379 711 341 719T263 727Q195 727 159 704T122 634Q122 603 140 586T190 556T263 530Q308 516
346 499T409 456T433 381Q433 333 408 299T344 245Q381 229 404 204T428 134Q428 72 379 35T232 -2Q179 -2 136 8T64 31V70Q89 58 116 50T173 36T233 31Q317 31 353 59T390 133Q390 165 372 185T320 219T241 247Q195 262 158 278T100 322T79 395ZM115 397Q115 361
133 340T183 305T258 277L310 260Q348 276 372 307T397 379Q397 413 378 436T320 475T223 507Q178 495 147 469T115 397Z" />
<glyph unicode="&#xa8;" horiz-adv-x="576" d="M166 679Q166 693 172 703T194 713Q211 713 217 703T223 679Q223 663 217 654T194 644Q179 644 173 653T166 679ZM351 679Q351 693 358 703T379 713Q396 713 402 703T408 679Q408 663 402 654T379 644Q365 644 358
653T351 679Z" />
<glyph unicode="&#xa9;" horiz-adv-x="832" d="M434 141Q341 141 286 195T231 356Q231 422 256 471T329 547T438 574Q480 574 509 567T564 547L549 516Q526 528 500 534T438 540Q363 540 316 491T268 356Q268 266 314 220T435 174Q468 174 493 179T548 195V163Q523
153 496 147T434 141ZM416 -8Q336 -8 269 20T153 98T77 215T50 357Q50 435 78 502T157 618T274 695T416 722Q495 722 562 693T678 613T755 496T782 357Q782 281 754 215T676 98T559 20T416 -8ZM416 22Q487 22 548 48T654 121T725 228T750 357Q750 425 725 485T655
592T549 665T416 692Q345 692 285 666T179 595T108 489T82 357Q82 289 106 229T174 122T280 49T416 22Z" />
<glyph unicode="&#xaa;" horiz-adv-x="329" d="M171 722Q224 722 250 696T276 619V399H248L243 445Q230 424 205 410T141 395Q110 395 87 405T52 435T39 485Q39 518 55 539T107 571T196 585L243 587V617Q243 656 223 674T169 692Q144 692 121 686T74 666L62 695Q85
707 113 714T171 722ZM196 556Q132 554 103 538T74 485Q74 455 92 440T145 425Q195 425 219 452T243 526V558L196 556Z" />
<glyph unicode="&#xab;" horiz-adv-x="413" d="M29 282L184 472L210 455L72 276L210 97L184 81L29 269V282ZM204 282L359 472L385 455L247 276L385 97L359 81L204 269V282Z" />
<glyph unicode="&#xac;" horiz-adv-x="570" d="M502 370V131H469V336H54V370H502Z" />
<glyph unicode="&#xad;" horiz-adv-x="322" d="M40 253V289H282V253H40Z" />
<glyph unicode="&#xae;" horiz-adv-x="832" d="M294 142V570H414Q480 570 519 541T558 448Q558 400 532 371T468 330L582 142H539L432 321H330V142H294ZM411 351Q458 351 490 375T523 448Q523 496 493 517T412 538H329V351H411ZM416 -8Q336 -8 269 20T153 98T77
215T50 357Q50 435 78 502T157 618T274 695T416 722Q495 722 562 693T678 613T755 496T782 357Q782 281 754 215T676 98T559 20T416 -8ZM416 22Q487 22 548 48T654 121T725 228T750 357Q750 425 725 485T655 592T549 665T416 692Q345 692 285 666T179 595T108 489T82
357Q82 289 106 229T174 122T280 49T416 22Z" />
<glyph unicode="&#xaf;" horiz-adv-x="500" d="M503 760H-3V793H503V760Z" />
<glyph unicode="&#xb0;" horiz-adv-x="428" d="M214 436Q172 436 139 454T87 504T68 580Q68 624 87 656T139 706T214 724Q256 724 289 706T341 655T360 580Q360 537 342 505T290 454T214 436ZM213 468Q264 468 295 499T326 580Q326 632 295 662T213 692Q162 692
132 662T102 580Q102 531 132 500T213 468Z" />
<glyph unicode="&#xb1;" horiz-adv-x="570" d="M54 0V34H516V0H54ZM302 370H516V337H302V121H268V337H54V370H268V586H302V370Z" />
<glyph unicode="&#xb2;" horiz-adv-x="332" d="M307 416H26V444L148 567Q185 604 210 632T248 685T262 739Q262 777 238 800T169 823Q138 823 112 813T58 781L40 807Q68 830 100 842T169 855Q230 855 263 823T297 740Q297 705 282 677T239 618T172 548L74 449H307V416Z" />
<glyph unicode="&#xb3;" horiz-adv-x="332" d="M169 851Q228 851 262 824T297 746Q297 705 276 679T221 643V641Q262 633 284 608T307 539Q307 479 267 445T150 411Q115 411 83 418T24 437V472Q55 458 86 451T151 443Q211 443 241 468T271 539Q271 583 242 603T153
624H88V655H153Q205 655 233 678T261 745Q261 780 237 800T169 820Q133 820 105 810T47 782L32 809Q60 829 94 840T169 851Z" />
<glyph unicode="&#xb4;" horiz-adv-x="256" d="M216 758Q203 742 186 723T149 682T109 642T69 606H40V613Q61 633 86 660T134 716T170 766H216V758Z" />
<glyph unicode="&#xb5;" horiz-adv-x="589" d="M499 530V0H466L461 90H458Q445 62 424 40T370 4T283 -10Q223 -10 185 10T128 64H126Q126 51 126 36T127 3T127 -31V-240H89V530H127V186Q127 106 165 66T284 25Q350 25 388 49T444 120T461 233V530H499Z" />
<glyph unicode="&#xb6;" horiz-adv-x="655" d="M524 -127H491V729H364V-127H331V338Q315 334 298 332T260 329Q204 329 165 356T107 432T87 547Q87 618 108 665T171 736T275 760H524V-127Z" />
<glyph unicode="&#xb7;" horiz-adv-x="230" d="M82 322Q82 339 90 350T115 361Q134 361 141 350T149 322Q149 305 142 295T115 284Q98 284 90 294T82 322Z" />
<glyph unicode="&#xb8;" horiz-adv-x="200" d="M187 -144Q187 -188 154 -214T66 -240Q48 -240 35 -239T11 -234V-204Q23 -207 36 -208T67 -210Q105 -210 128 -194T152 -145Q152 -114 127 -100T52 -85L95 0H127L96 -63Q124 -64 144 -74T175 -102T187 -144Z" />
<glyph unicode="&#xb9;" horiz-adv-x="332" d="M203 844V416H167V695Q167 714 167 733T168 772T169 808Q153 798 138 789T101 768L53 740L37 767L172 844H203Z" />
<glyph unicode="&#xba;" horiz-adv-x="357" d="M323 559Q323 486 287 440T179 393Q110 393 73 439T36 559Q36 636 75 680T182 724Q230 724 261 703T307 644T323 559ZM70 559Q70 498 97 461T179 423Q236 423 262 461T289 559Q289 616 264 655T182 694Q128 694 99
658T70 559Z" />
<glyph unicode="&#xbb;" horiz-adv-x="413" d="M385 271L229 81L204 98L341 277L204 456L229 472L385 284V271ZM209 271L54 81L29 98L166 277L29 456L54 472L209 284V271Z" />
<glyph unicode="&#xbc;" horiz-adv-x="708" d="M143 0L528 714H565L180 0H143ZM150 565Q150 584 150 603T150 642T152 678Q136 668 121 659T84 638L36 610L20 637L154 714H185V286H150V565ZM592 0V124H390V149L590 431H627V155H699V124H627V0H592ZM430 155H592V305Q592
328 592 349T593 391Q584 376 576 363T557 334L430 155Z" />
<glyph unicode="&#xbd;" horiz-adv-x="749" d="M137 0L522 714H559L174 0H137ZM148 565Q148 579 148 593T148 623T148 652T149 678Q134 668 119 659T82 638L33 610L17 637L152 714H183V286H148V565ZM443 0V28L565 151Q602 188 627 216T665 269T679 323Q679 361
655 384T586 407Q555 407 529 397T475 365L457 391Q485 414 517 426T586 439Q647 439 680 407T714 324Q714 289 699 261T656 202T589 132L491 33H724V0H443Z" />
<glyph unicode="&#xbe;" horiz-adv-x="763" d="M199 0L584 714H622L237 0H199ZM150 281Q115 281 83 288T24 307V342Q55 328 86 321T150 313Q210 313 240 338T271 409Q271 453 242 473T152 494H87V525H152Q205 525 232 548T260 615Q260 650 236 670T169 690Q133
690 104 680T47 652L31 679Q60 699 93 710T169 721Q228 721 262 694T296 616Q296 575 275 549T221 513V511Q262 503 284 478T307 409Q307 349 266 315T150 281ZM647 0V124H445V149L645 431H682V155H754V124H682V0H647ZM485 155H647V305Q647 328 647 349T649 391Q640
376 632 363T612 334L485 155Z" />
<glyph unicode="&#xbf;" horiz-adv-x="417" d="M276 337Q276 291 269 260T244 205T191 156Q155 129 130 105T91 51T77 -21Q77 -90 119 -123T228 -156Q268 -156 302 -147T372 -121L387 -156Q344 -174 308 -183T227 -192Q141 -192 90 -149T38 -21Q38 28 54 62T100
125T168 180Q195 201 211 221T235 270T242 340V353H276V337ZM290 503Q290 486 282 475T257 464Q238 464 231 475T223 503Q223 520 230 530T257 541Q274 541 282 531T290 503Z" />
<glyph unicode="&#xc0;" horiz-adv-x="590" d="M548 0L448 261H143L41 0H0L281 716H318L589 0H548ZM330 578Q327 590 322 604T310 636T298 670Q293 654 288 638T276 606T265 578L157 297H434L330 578ZM247 950Q261 929 283 901T331 845T378 797V790H349Q329 806
309 825T269 866T232 906T202 942V950H247Z" />
<glyph unicode="&#xc1;" horiz-adv-x="590" d="M548 0L448 261H143L41 0H0L281 716H318L589 0H548ZM330 578Q327 590 322 604T310 636T298 670Q293 654 288 638T276 606T265 578L157 297H434L330 578ZM425 942Q412 926 395 907T358 866T318 826T278 790H249V797Q270
817 295 844T343 900T379 950H425V942Z" />
<glyph unicode="&#xc2;" horiz-adv-x="590" d="M548 0L448 261H143L41 0H0L281 716H318L589 0H548ZM330 578Q327 590 322 604T310 636T298 670Q293 654 288 638T276 606T265 578L157 297H434L330 578ZM313 948Q325 927 345 900T388 845T429 797V790H400Q373 816
345 848T295 908Q273 880 245 848T189 790H160V797Q179 818 201 845T244 899T277 948H313Z" />
<glyph unicode="&#xc3;" horiz-adv-x="590" d="M548 0L448 261H143L41 0H0L281 716H318L589 0H548ZM330 578Q327 590 322 604T310 636T298 670Q293 654 288 638T276 606T265 578L157 297H434L330 578ZM129 800Q131 826 138 845T158 877T186 897T222 904Q247 904
265 893T300 868T333 843T369 832Q392 832 410 846T432 904H463Q458 853 433 826T368 799Q344 799 325 810T290 835T257 859T220 870Q199 870 182 856T159 800H129Z" />
<glyph unicode="&#xc4;" horiz-adv-x="590" d="M548 0L448 261H143L41 0H0L281 716H318L589 0H548ZM330 578Q327 590 322 604T310 636T298 670Q293 654 288 638T276 606T265 578L157 297H434L330 578ZM174 863Q174 877 180 887T202 897Q219 897 225 887T231 863Q231
847 225 838T202 828Q187 828 181 837T174 863ZM359 863Q359 877 366 887T387 897Q404 897 410 887T416 863Q416 847 410 838T387 828Q373 828 366 837T359 863Z" />
<glyph unicode="&#xc5;" horiz-adv-x="590" d="M548 0L448 261H143L41 0H0L281 716H318L589 0H548ZM330 578Q327 590 322 604T310 636T298 670Q293 654 288 638T276 606T265 578L157 297H434L330 578ZM297 690Q255 690 225 717T194 791Q194 836 224 864T297 892Q339
892 369 863T399 791Q399 746 369 718T297 690ZM297 719Q329 719 349 740T369 791Q369 822 348 842T297 863Q265 863 245 843T224 791Q224 761 244 740T297 719Z" />
<glyph unicode="&#xc6;" horiz-adv-x="787" d="M764 0H382V260H155L43 0H-1L313 714H764V678H421V394H745V358H421V36H764V0ZM172 296H382V678H337L172 296Z" />
<glyph unicode="&#xc7;" horiz-adv-x="618" d="M405 688Q333 688 277 664T183 596T124 492T103 359Q103 259 135 184T231 68T389 26Q445 26 489 34T571 55V21Q536 7 491 -1T387 -10Q280 -10 208 36T100 165T63 360Q63 438 85 504T152 620T260 696T405 724Q455
724 500 715T587 686L571 651Q530 672 489 680T405 688ZM446 -144Q446 -188 413 -214T325 -240Q307 -240 294 -239T270 -234V-204Q282 -207 295 -208T326 -210Q364 -210 387 -194T411 -145Q411 -114 386 -100T311 -85L354 0H386L355 -63Q383 -64 403 -74T434 -102T446
-144Z" />
<glyph unicode="&#xc8;" horiz-adv-x="551" d="M490 0H102V714H490V678H141V394H470V358H141V36H490V0ZM257 950Q271 929 293 901T341 845T388 797V790H359Q339 806 319 825T279 866T242 906T212 942V950H257Z" />
<glyph unicode="&#xc9;" horiz-adv-x="551" d="M490 0H102V714H490V678H141V394H470V358H141V36H490V0ZM435 942Q422 926 405 907T368 866T328 826T288 790H259V797Q280 817 305 844T353 900T389 950H435V942Z" />
<glyph unicode="&#xca;" horiz-adv-x="551" d="M490 0H102V714H490V678H141V394H470V358H141V36H490V0ZM323 948Q335 927 355 900T398 845T439 797V790H410Q383 816 355 848T305 908Q283 880 255 848T199 790H170V797Q189 818 211 845T254 899T287 948H323Z" />
<glyph unicode="&#xcb;" horiz-adv-x="551" d="M490 0H102V714H490V678H141V394H470V358H141V36H490V0ZM184 863Q184 877 190 887T212 897Q229 897 235 887T241 863Q241 847 235 838T212 828Q197 828 191 837T184 863ZM369 863Q369 877 376 887T397 897Q414 897
420 887T426 863Q426 847 420 838T397 828Q383 828 376 837T369 863Z" />
<glyph unicode="&#xcc;" horiz-adv-x="294" d="M238 0H57V27L128 33V680L57 688V714H238V688L167 680V33L238 27V0ZM99 950Q113 929 135 901T183 845T230 797V790H201Q181 806 161 825T121 866T84 906T54 942V950H99Z" />
<glyph unicode="&#xcd;" horiz-adv-x="294" d="M238 0H57V27L128 33V680L57 688V714H238V688L167 680V33L238 27V0ZM278 942Q265 926 248 907T211 866T171 826T131 790H102V797Q123 817 148 844T196 900T232 950H278V942Z" />
<glyph unicode="&#xce;" horiz-adv-x="294" d="M238 0H57V27L128 33V680L57 688V714H238V688L167 680V33L238 27V0ZM166 948Q178 927 198 900T241 845T282 797V790H253Q226 816 198 848T148 908Q126 880 98 848T42 790H13V797Q32 818 54 845T97 899T130 948H166Z" />
<glyph unicode="&#xcf;" horiz-adv-x="294" d="M238 0H57V27L128 33V680L57 688V714H238V688L167 680V33L238 27V0ZM27 863Q27 877 33 887T55 897Q72 897 78 887T84 863Q84 847 78 838T55 828Q40 828 34 837T27 863ZM212 863Q212 877 219 887T240 897Q257 897
263 887T269 863Q269 847 263 838T240 828Q226 828 219 837T212 863Z" />
<glyph unicode="&#xd0;" horiz-adv-x="700" d="M288 714Q403 714 480 674T597 556T636 364Q636 244 595 163T471 41T265 0H103V337H20V373H103V714H288ZM277 678H142V373H343V337H142V36H265Q432 36 514 117T596 363Q596 466 562 536T458 642T277 678Z" />
<glyph unicode="&#xd1;" horiz-adv-x="711" d="M608 0H572L139 642H137Q138 615 138 589T139 536T139 481V0H102V714H139L570 74H572Q572 97 572 124T571 178T570 231V714H608V0ZM189 800Q191 826 198 845T218 877T246 897T282 904Q307 904 325 893T360 868T393
843T429 832Q452 832 470 846T492 904H523Q518 853 493 826T428 799Q404 799 385 810T350 835T317 859T280 870Q259 870 242 856T219 800H189Z" />
<glyph unicode="&#xd2;" horiz-adv-x="759" d="M696 358Q696 277 676 210T617 93T518 17T379 -10Q300 -10 241 17T142 93T83 210T63 359Q63 467 99 549T208 678T384 725Q485 725 554 681T659 555T696 358ZM103 359Q103 261 133 186T224 69T380 26Q474 26 535 67T626
184T655 358Q655 515 586 602T384 689Q289 689 227 647T134 531T103 359ZM332 950Q346 929 368 901T416 845T463 797V790H434Q414 806 394 825T354 866T317 906T287 942V950H332Z" />
<glyph unicode="&#xd3;" horiz-adv-x="759" d="M696 358Q696 277 676 210T617 93T518 17T379 -10Q300 -10 241 17T142 93T83 210T63 359Q63 467 99 549T208 678T384 725Q485 725 554 681T659 555T696 358ZM103 359Q103 261 133 186T224 69T380 26Q474 26 535 67T626
184T655 358Q655 515 586 602T384 689Q289 689 227 647T134 531T103 359ZM510 942Q497 926 480 907T443 866T403 826T363 790H334V797Q355 817 380 844T428 900T464 950H510V942Z" />
<glyph unicode="&#xd4;" horiz-adv-x="759" d="M696 358Q696 277 676 210T617 93T518 17T379 -10Q300 -10 241 17T142 93T83 210T63 359Q63 467 99 549T208 678T384 725Q485 725 554 681T659 555T696 358ZM103 359Q103 261 133 186T224 69T380 26Q474 26 535 67T626
184T655 358Q655 515 586 602T384 689Q289 689 227 647T134 531T103 359ZM398 948Q410 927 430 900T473 845T514 797V790H485Q458 816 430 848T380 908Q358 880 330 848T274 790H245V797Q264 818 286 845T329 899T362 948H398Z" />
<glyph unicode="&#xd5;" horiz-adv-x="759" d="M696 358Q696 277 676 210T617 93T518 17T379 -10Q300 -10 241 17T142 93T83 210T63 359Q63 467 99 549T208 678T384 725Q485 725 554 681T659 555T696 358ZM103 359Q103 261 133 186T224 69T380 26Q474 26 535 67T626
184T655 358Q655 515 586 602T384 689Q289 689 227 647T134 531T103 359ZM214 800Q216 826 223 845T243 877T271 897T307 904Q332 904 350 893T385 868T418 843T454 832Q477 832 495 846T517 904H548Q543 853 518 826T453 799Q429 799 410 810T375 835T342 859T305
870Q284 870 267 856T244 800H214Z" />
<glyph unicode="&#xd6;" horiz-adv-x="759" d="M696 358Q696 277 676 210T617 93T518 17T379 -10Q300 -10 241 17T142 93T83 210T63 359Q63 467 99 549T208 678T384 725Q485 725 554 681T659 555T696 358ZM103 359Q103 261 133 186T224 69T380 26Q474 26 535 67T626
184T655 358Q655 515 586 602T384 689Q289 689 227 647T134 531T103 359ZM259 863Q259 877 265 887T287 897Q304 897 310 887T316 863Q316 847 310 838T287 828Q272 828 266 837T259 863ZM444 863Q444 877 451 887T472 897Q489 897 495 887T501 863Q501 847 495
838T472 828Q458 828 451 837T444 863Z" />
<glyph unicode="&#xd7;" horiz-adv-x="570" d="M477 568L500 545L309 353L500 161L477 138L285 329L94 138L70 161L261 353L70 544L94 568L285 377L477 568Z" />
<glyph unicode="&#xd8;" horiz-adv-x="759" d="M696 358Q696 277 676 210T617 93T518 17T379 -10Q317 -10 267 7T178 58L116 -27L87 -7L152 81Q108 131 86 202T63 359Q63 467 99 549T208 678T384 725Q443 725 491 709T577 663L634 741L663 721L604 640Q648 593
672 522T696 358ZM655 358Q655 522 580 608L200 88Q233 59 278 43T380 26Q474 26 535 67T626 184T655 358ZM103 359Q103 283 121 221T175 114L555 633Q523 660 480 674T384 689Q289 689 227 647T134 531T103 359Z" />
<glyph unicode="&#xd9;" horiz-adv-x="716" d="M622 252Q622 166 590 108T498 20T356 -10Q231 -10 163 58T94 254V714H133V255Q133 142 191 84T358 26Q428 26 478 51T556 125T584 246V714H622V252ZM310 950Q324 929 346 901T394 845T441 797V790H412Q392 806 372
825T332 866T295 906T265 942V950H310Z" />
<glyph unicode="&#xda;" horiz-adv-x="716" d="M622 252Q622 166 590 108T498 20T356 -10Q231 -10 163 58T94 254V714H133V255Q133 142 191 84T358 26Q428 26 478 51T556 125T584 246V714H622V252ZM488 942Q475 926 458 907T421 866T381 826T341 790H312V797Q333
817 358 844T406 900T442 950H488V942Z" />
<glyph unicode="&#xdb;" horiz-adv-x="716" d="M622 252Q622 166 590 108T498 20T356 -10Q231 -10 163 58T94 254V714H133V255Q133 142 191 84T358 26Q428 26 478 51T556 125T584 246V714H622V252ZM376 948Q388 927 408 900T451 845T492 797V790H463Q436 816 408
848T358 908Q336 880 308 848T252 790H223V797Q242 818 264 845T307 899T340 948H376Z" />
<glyph unicode="&#xdc;" horiz-adv-x="716" d="M622 252Q622 166 590 108T498 20T356 -10Q231 -10 163 58T94 254V714H133V255Q133 142 191 84T358 26Q428 26 478 51T556 125T584 246V714H622V252ZM237 863Q237 877 243 887T265 897Q282 897 288 887T294 863Q294
847 288 838T265 828Q250 828 244 837T237 863ZM422 863Q422 877 429 887T450 897Q467 897 473 887T479 863Q479 847 473 838T450 828Q436 828 429 837T422 863Z" />
<glyph unicode="&#xdd;" horiz-adv-x="517" d="M259 314L474 714H517L279 275V0H240V271L0 714H44L259 314ZM389 942Q376 926 359 907T322 866T282 826T242 790H213V797Q234 817 259 844T307 900T343 950H389V942Z" />
<glyph unicode="&#xde;" horiz-adv-x="580" d="M525 382Q525 329 508 289T457 223T374 183T258 169H141V0H102V714H141V584H281Q405 584 465 535T525 382ZM253 205Q325 205 377 221T457 276T485 381Q485 469 435 508T274 548H141V205H253Z" />
<glyph unicode="&#xdf;" horiz-adv-x="570" d="M456 632Q456 596 442 572T408 532T367 500T332 467T318 418Q318 394 328 377T359 343T411 306Q441 286 465 265T505 213T520 138Q520 96 501 63T444 10T350 -10Q303 -10 272 -2T214 18V57Q235 47 256 40T301 28T349
24Q415 24 448 54T481 137Q481 173 470 197T437 241T387 279Q355 301 331 320T293 362T279 417Q279 452 293 474T327 512T368 542T402 578T416 631Q416 678 383 704T287 730Q234 730 199 712T145 658T127 567V0H88V567Q88 633 111 676T180 742T287 765Q341 765
378 749T436 703T456 632Z" />
<glyph unicode="&#xe0;" horiz-adv-x="521" d="M269 539Q354 539 396 495T439 353V0H408L401 98H399Q383 68 359 43T298 4T209 -10Q157 -10 121 7T67 57T48 133Q48 212 113 252T300 299L400 305V345Q400 431 367 467T268 504Q227 504 190 495T111 464L99 498Q138
516 180 527T269 539ZM304 268Q202 263 145 231T88 133Q88 81 121 53T213 24Q307 24 353 77T400 219V272L304 268ZM213 766Q227 745 249 717T297 661T344 613V606H315Q295 622 275 641T235 682T198 722T168 758V766H213Z" />
<glyph unicode="&#xe1;" horiz-adv-x="521" d="M269 539Q354 539 396 495T439 353V0H408L401 98H399Q383 68 359 43T298 4T209 -10Q157 -10 121 7T67 57T48 133Q48 212 113 252T300 299L400 305V345Q400 431 367 467T268 504Q227 504 190 495T111 464L99 498Q138
516 180 527T269 539ZM304 268Q202 263 145 231T88 133Q88 81 121 53T213 24Q307 24 353 77T400 219V272L304 268ZM391 758Q378 742 361 723T324 682T284 642T244 606H215V613Q236 633 261 660T309 716T345 766H391V758Z" />
<glyph unicode="&#xe2;" horiz-adv-x="521" d="M269 539Q354 539 396 495T439 353V0H408L401 98H399Q383 68 359 43T298 4T209 -10Q157 -10 121 7T67 57T48 133Q48 212 113 252T300 299L400 305V345Q400 431 367 467T268 504Q227 504 190 495T111 464L99 498Q138
516 180 527T269 539ZM304 268Q202 263 145 231T88 133Q88 81 121 53T213 24Q307 24 353 77T400 219V272L304 268ZM279 764Q291 743 311 716T354 661T395 613V606H366Q339 632 311 664T261 724Q239 696 211 664T155 606H126V613Q145 634 167 661T210 715T243 764H279Z"
/>
<glyph unicode="&#xe3;" horiz-adv-x="521" d="M269 539Q354 539 396 495T439 353V0H408L401 98H399Q383 68 359 43T298 4T209 -10Q157 -10 121 7T67 57T48 133Q48 212 113 252T300 299L400 305V345Q400 431 367 467T268 504Q227 504 190 495T111 464L99 498Q138
516 180 527T269 539ZM304 268Q202 263 145 231T88 133Q88 81 121 53T213 24Q307 24 353 77T400 219V272L304 268ZM95 616Q97 642 104 661T124 693T152 713T188 720Q213 720 231 709T266 684T299 659T335 648Q358 648 376 662T398 720H429Q424 669 399 642T334
615Q310 615 291 626T256 651T223 675T186 686Q165 686 148 672T125 616H95Z" />
<glyph unicode="&#xe4;" horiz-adv-x="521" d="M269 539Q354 539 396 495T439 353V0H408L401 98H399Q383 68 359 43T298 4T209 -10Q157 -10 121 7T67 57T48 133Q48 212 113 252T300 299L400 305V345Q400 431 367 467T268 504Q227 504 190 495T111 464L99 498Q138
516 180 527T269 539ZM304 268Q202 263 145 231T88 133Q88 81 121 53T213 24Q307 24 353 77T400 219V272L304 268ZM396 679Q396 693 402 703T424 713Q441 713 447 703T453 679Q453 663 447 654T424 644Q409 644 403 653T396 679ZM581 679Q581 693 588 703T609 713Q626
713 632 703T638 679Q638 663 632 654T609 644Q595 644 588 653T581 679Z" />
<glyph unicode="&#xe5;" horiz-adv-x="521" d="M269 539Q354 539 396 495T439 353V0H408L401 98H399Q383 68 359 43T298 4T209 -10Q157 -10 121 7T67 57T48 133Q48 212 113 252T300 299L400 305V345Q400 431 367 467T268 504Q227 504 190 495T111 464L99 498Q138
516 180 527T269 539ZM304 268Q202 263 145 231T88 133Q88 81 121 53T213 24Q307 24 353 77T400 219V272L304 268ZM261 610Q219 610 189 637T158 711Q158 756 188 784T261 812Q303 812 333 783T363 711Q363 666 333 638T261 610ZM261 639Q293 639 313 660T333 711Q333
742 312 762T261 783Q229 783 209 763T188 711Q188 681 208 660T261 639Z" />
<glyph unicode="&#xe6;" horiz-adv-x="853" d="M604 540Q668 540 711 508T775 420T794 294V263H429Q428 147 478 86T615 25Q660 25 694 32T773 61V23Q735 6 697 -2T615 -10Q561 -10 520 8T452 60T410 136Q396 93 371 60T306 9T211 -10Q158 -10 122 7T67 57T48
133Q48 186 77 221T161 275T295 299L390 305V346Q390 431 358 467T262 504Q225 504 187 495T108 464L96 498Q135 517 177 528T264 539Q332 539 370 506T419 399Q442 462 488 501T604 540ZM299 268Q200 263 144 231T88 133Q88 81 121 53T214 24Q272 24 310 48T368
116T389 219V272L299 268ZM604 505Q534 505 486 452T430 297H753Q754 359 738 406T688 479T604 505Z" />
<glyph unicode="&#xe7;" horiz-adv-x="474" d="M302 -10Q220 -10 166 24T85 119T58 262Q58 346 90 408T179 505T316 540Q353 540 384 534T443 515L434 480Q405 493 375 498T316 504Q248 504 200 474T125 390T98 262Q98 195 119 141T185 56T301 25Q339 25 374 32T438
52V17Q413 6 379 -2T302 -10ZM363 -144Q363 -188 330 -214T242 -240Q224 -240 211 -239T187 -234V-204Q199 -207 212 -208T243 -210Q281 -210 304 -194T328 -145Q328 -114 303 -100T228 -85L271 0H303L272 -63Q300 -64 320 -74T351 -102T363 -144Z" />
<glyph unicode="&#xe8;" horiz-adv-x="545" d="M288 540Q356 540 399 508T464 420T486 294V263H98Q98 148 150 87T300 25Q349 25 384 32T465 61V23Q426 6 388 -2T299 -10Q218 -10 164 24T84 119T58 260Q58 338 84 401T161 502T288 540ZM288 505Q208 505 158 452T99
297H446Q447 359 430 406T377 479T288 505ZM225 766Q239 745 261 717T309 661T356 613V606H327Q307 622 287 641T247 682T210 722T180 758V766H225Z" />
<glyph unicode="&#xe9;" horiz-adv-x="545" d="M288 540Q356 540 399 508T464 420T486 294V263H98Q98 148 150 87T300 25Q349 25 384 32T465 61V23Q426 6 388 -2T299 -10Q218 -10 164 24T84 119T58 260Q58 338 84 401T161 502T288 540ZM288 505Q208 505 158 452T99
297H446Q447 359 430 406T377 479T288 505ZM403 758Q390 742 373 723T336 682T296 642T256 606H227V613Q248 633 273 660T321 716T357 766H403V758Z" />
<glyph unicode="&#xea;" horiz-adv-x="545" d="M288 540Q356 540 399 508T464 420T486 294V263H98Q98 148 150 87T300 25Q349 25 384 32T465 61V23Q426 6 388 -2T299 -10Q218 -10 164 24T84 119T58 260Q58 338 84 401T161 502T288 540ZM288 505Q208 505 158 452T99
297H446Q447 359 430 406T377 479T288 505ZM291 764Q303 743 323 716T366 661T407 613V606H378Q351 632 323 664T273 724Q251 696 223 664T167 606H138V613Q157 634 179 661T222 715T255 764H291Z" />
<glyph unicode="&#xeb;" horiz-adv-x="545" d="M288 540Q356 540 399 508T464 420T486 294V263H98Q98 148 150 87T300 25Q349 25 384 32T465 61V23Q426 6 388 -2T299 -10Q218 -10 164 24T84 119T58 260Q58 338 84 401T161 502T288 540ZM288 505Q208 505 158 452T99
297H446Q447 359 430 406T377 479T288 505ZM408 679Q408 693 414 703T436 713Q453 713 459 703T465 679Q465 663 459 654T436 644Q421 644 415 653T408 679ZM593 679Q593 693 600 703T621 713Q638 713 644 703T650 679Q650 663 644 654T621 644Q607 644 600 653T593
679Z" />
<glyph unicode="&#xec;" horiz-adv-x="217" d="M128 0H89V530H128V0ZM317 766Q331 745 353 717T401 661T448 613V606H419Q399 622 379 641T339 682T302 722T272 758V766H317Z" />
<glyph unicode="&#xed;" horiz-adv-x="217" d="M128 0H89V530H128V0ZM239 758Q226 742 209 723T172 682T132 642T92 606H63V613Q84 633 109 660T157 716T193 766H239V758Z" />
<glyph unicode="&#xee;" horiz-adv-x="217" d="M128 0H89V530H128V0ZM383 764Q395 743 415 716T458 661T499 613V606H470Q443 632 415 664T365 724Q343 696 315 664T259 606H230V613Q249 634 271 661T314 715T347 764H383Z" />
<glyph unicode="&#xef;" horiz-adv-x="217" d="M128 0H89V530H128V0ZM-12 679Q-12 693 -6 703T16 713Q33 713 39 703T45 679Q45 663 39 654T16 644Q1 644 -5 653T-12 679ZM173 679Q173 693 180 703T201 713Q218 713 224 703T230 679Q230 663 224 654T201 644Q187
644 180 653T173 679Z" />
<glyph unicode="&#xf0;" horiz-adv-x="564" d="M206 759Q242 742 272 724T325 687L435 754L454 726L351 665Q402 614 436 553T488 421T506 273Q506 192 481 128T405 27T279 -10Q210 -10 160 19T84 101T57 225Q57 300 86 354T165 437T281 467Q326 467 358 458T413
433T453 396H456Q441 465 406 531T319 646L190 569L172 596L292 668Q271 684 244 700T189 730L206 759ZM284 432Q229 432 187 408T120 338T96 224Q96 161 118 117T182 49T280 25Q369 25 417 89T466 278Q466 302 458 328T429 379T374 417T284 432Z" />
<glyph unicode="&#xf1;" horiz-adv-x="582" d="M316 540Q404 540 451 493T499 347V0H460V345Q460 428 422 466T313 505Q227 505 178 454T128 297V0H89V530H120L126 426H129Q142 457 166 482T227 524T316 540ZM125 616Q127 642 134 661T154 693T182 713T218 720Q243
720 261 709T296 684T329 659T365 648Q388 648 406 662T428 720H459Q454 669 429 642T364 615Q340 615 321 626T286 651T253 675T216 686Q195 686 178 672T155 616H125Z" />
<glyph unicode="&#xf2;" horiz-adv-x="581" d="M522 265Q522 205 508 155T465 68T392 11T289 -10Q233 -10 190 10T118 67T73 154T58 265Q58 350 86 411T167 506T294 540Q373 540 423 504T498 406T522 265ZM98 265Q98 194 119 140T182 55T289 25Q356 25 398 55T461
140T482 265Q482 333 463 387T403 473T294 505Q198 505 148 442T98 265ZM243 766Q257 745 279 717T327 661T374 613V606H345Q325 622 305 641T265 682T228 722T198 758V766H243Z" />
<glyph unicode="&#xf3;" horiz-adv-x="581" d="M522 265Q522 205 508 155T465 68T392 11T289 -10Q233 -10 190 10T118 67T73 154T58 265Q58 350 86 411T167 506T294 540Q373 540 423 504T498 406T522 265ZM98 265Q98 194 119 140T182 55T289 25Q356 25 398 55T461
140T482 265Q482 333 463 387T403 473T294 505Q198 505 148 442T98 265ZM421 758Q408 742 391 723T354 682T314 642T274 606H245V613Q266 633 291 660T339 716T375 766H421V758Z" />
<glyph unicode="&#xf4;" horiz-adv-x="581" d="M522 265Q522 205 508 155T465 68T392 11T289 -10Q233 -10 190 10T118 67T73 154T58 265Q58 350 86 411T167 506T294 540Q373 540 423 504T498 406T522 265ZM98 265Q98 194 119 140T182 55T289 25Q356 25 398 55T461
140T482 265Q482 333 463 387T403 473T294 505Q198 505 148 442T98 265ZM309 764Q321 743 341 716T384 661T425 613V606H396Q369 632 341 664T291 724Q269 696 241 664T185 606H156V613Q175 634 197 661T240 715T273 764H309Z" />
<glyph unicode="&#xf5;" horiz-adv-x="581" d="M522 265Q522 205 508 155T465 68T392 11T289 -10Q233 -10 190 10T118 67T73 154T58 265Q58 350 86 411T167 506T294 540Q373 540 423 504T498 406T522 265ZM98 265Q98 194 119 140T182 55T289 25Q356 25 398 55T461
140T482 265Q482 333 463 387T403 473T294 505Q198 505 148 442T98 265ZM125 616Q127 642 134 661T154 693T182 713T218 720Q243 720 261 709T296 684T329 659T365 648Q388 648 406 662T428 720H459Q454 669 429 642T364 615Q340 615 321 626T286 651T253 675T216
686Q195 686 178 672T155 616H125Z" />
<glyph unicode="&#xf6;" horiz-adv-x="581" d="M522 265Q522 205 508 155T465 68T392 11T289 -10Q233 -10 190 10T118 67T73 154T58 265Q58 350 86 411T167 506T294 540Q373 540 423 504T498 406T522 265ZM98 265Q98 194 119 140T182 55T289 25Q356 25 398 55T461
140T482 265Q482 333 463 387T403 473T294 505Q198 505 148 442T98 265ZM170 679Q170 693 176 703T198 713Q215 713 221 703T227 679Q227 663 221 654T198 644Q183 644 177 653T170 679ZM355 679Q355 693 362 703T383 713Q400 713 406 703T412 679Q412 663 406
654T383 644Q369 644 362 653T355 679Z" />
<glyph unicode="&#xf7;" horiz-adv-x="570" d="M54 336V370H516V336H54ZM284 139Q268 139 261 149T253 176Q253 193 260 203T284 213Q303 213 310 203T317 176Q317 160 310 150T284 139ZM284 492Q268 492 261 502T253 529Q253 546 260 556T284 566Q303 566 310
556T317 529Q317 513 310 503T284 492Z" />
<glyph unicode="&#xf8;" horiz-adv-x="581" d="M522 265Q522 186 497 124T420 26T289 -10Q240 -10 203 5T137 48L76 -28L49 -8L113 73Q86 110 72 158T58 265Q58 392 120 466T294 540Q341 540 377 527T440 488L494 557L521 537L464 465Q493 428 507 377T522 265ZM98
265Q98 217 107 176T137 104L417 460Q395 481 365 493T294 505Q198 505 148 442T98 265ZM482 265Q482 315 472 358T440 433L159 76Q182 52 215 39T289 25Q356 25 398 55T461 140T482 265Z" />
<glyph unicode="&#xf9;" horiz-adv-x="582" d="M492 530V0H460L454 103H452Q440 73 416 47T354 6T264 -10Q204 -10 164 11T102 76T81 183V530H120V187Q120 104 158 65T267 25Q325 25 366 48T430 116T453 232V530H492ZM243 766Q257 745 279 717T327 661T374 613V606H345Q325
622 305 641T265 682T228 722T198 758V766H243Z" />
<glyph unicode="&#xfa;" horiz-adv-x="582" d="M492 530V0H460L454 103H452Q440 73 416 47T354 6T264 -10Q204 -10 164 11T102 76T81 183V530H120V187Q120 104 158 65T267 25Q325 25 366 48T430 116T453 232V530H492ZM422 758Q409 742 392 723T355 682T315 642T275
606H246V613Q267 633 292 660T340 716T376 766H422V758Z" />
<glyph unicode="&#xfb;" horiz-adv-x="582" d="M492 530V0H460L454 103H452Q440 73 416 47T354 6T264 -10Q204 -10 164 11T102 76T81 183V530H120V187Q120 104 158 65T267 25Q325 25 366 48T430 116T453 232V530H492ZM310 764Q322 743 342 716T385 661T426 613V606H397Q370
632 342 664T292 724Q270 696 242 664T186 606H157V613Q176 634 198 661T241 715T274 764H310Z" />
<glyph unicode="&#xfc;" horiz-adv-x="582" d="M492 530V0H460L454 103H452Q440 73 416 47T354 6T264 -10Q204 -10 164 11T102 76T81 183V530H120V187Q120 104 158 65T267 25Q325 25 366 48T430 116T453 232V530H492ZM171 679Q171 693 177 703T199 713Q216 713
222 703T228 679Q228 663 222 654T199 644Q184 644 178 653T171 679ZM356 679Q356 693 363 703T384 713Q401 713 407 703T413 679Q413 663 407 654T384 644Q370 644 363 653T356 679Z" />
<glyph unicode="&#xfd;" horiz-adv-x="445" d="M0 530H41L174 184Q185 153 194 128T211 83T223 47H225Q233 69 244 103T273 181L405 530H446L201 -107Q184 -151 164 -181T118 -227T55 -242Q39 -242 25 -240T-3 -233V-198Q11 -202 23 -205T52 -208Q79 -208 99 -197T135
-160T166 -96L204 4L0 530ZM353 758Q340 742 323 723T286 682T246 642T206 606H177V613Q198 633 223 660T271 716T307 766H353V758Z" />
<glyph unicode="&#xfe;" horiz-adv-x="590" d="M533 269Q533 180 507 118T431 23T311 -10Q261 -10 224 5T164 47T128 106H126Q127 87 127 66T128 25T128 -15V-234H90V760H128V527Q128 505 128 473T126 418H129Q141 450 165 478T228 523T318 540Q422 540 477 471T533
269ZM493 269Q493 389 449 447T315 505Q222 505 176 444T129 270V263Q129 142 175 84T308 25Q367 25 408 52T471 134T493 269Z" />
<glyph unicode="&#xff;" horiz-adv-x="445" d="M0 530H41L174 184Q185 153 194 128T211 83T223 47H225Q233 69 244 103T273 181L405 530H446L201 -107Q184 -151 164 -181T118 -227T55 -242Q39 -242 25 -240T-3 -233V-198Q11 -202 23 -205T52 -208Q79 -208 99 -197T135
-160T166 -96L204 4L0 530ZM358 679Q358 693 364 703T386 713Q403 713 409 703T415 679Q415 663 409 654T386 644Q371 644 365 653T358 679ZM543 679Q543 693 550 703T571 713Q588 713 594 703T600 679Q600 663 594 654T571 644Q557 644 550 653T543 679Z" />
<glyph unicode="&#x2013;" horiz-adv-x="500" d="M40 253V289H460V253H40Z" />
<glyph unicode="&#x2014;" horiz-adv-x="1000" d="M40 253V289H960V253H40Z" />
<glyph unicode="&#x2018;" horiz-adv-x="137" d="M20 478Q27 518 38 559T64 640T95 714H122Q108 678 96 635T74 548T61 469H26L20 478Z" />
<glyph unicode="&#x2019;" horiz-adv-x="137" d="M117 705Q110 665 99 624T73 544T42 469H15Q26 495 35 527T53 591T66 655T76 714H111L117 705Z" />
<glyph unicode="&#x201a;" horiz-adv-x="212" d="M136 107Q129 67 118 26T92 -54T61 -129H34Q45 -103 54 -71T72 -7T85 57T95 116H130L136 107Z" />
<glyph unicode="&#x201c;" horiz-adv-x="284" d="M269 714Q255 678 243 635T222 548T209 469H173L167 478Q174 518 185 559T211 640T242 714H269ZM121 714Q108 678 96 635T74 548T61 469H26L20 478Q27 518 38 559T64 640T95 714H121Z" />
<glyph unicode="&#x201d;" horiz-adv-x="284" d="M264 705Q258 665 246 624T220 544T189 469H162Q177 505 189 548T210 635T223 714H258L264 705ZM117 705Q110 665 99 624T73 544T42 469H15Q26 495 35 527T53 591T66 655T75 714H110L117 705Z" />
<glyph unicode="&#x201e;" horiz-adv-x="363" d="M283 107Q277 67 265 26T239 -54T208 -129H181Q196 -93 208 -50T229 37T242 116H277L283 107ZM136 107Q129 67 118 26T92 -54T61 -129H34Q45 -103 54 -71T72 -7T85 57T94 116H129L136 107Z" />
<glyph unicode="&#x2022;" horiz-adv-x="376" d="M123 365Q123 390 130 407T152 433T188 443Q209 443 224 434T246 406T254 365Q254 343 247 325T224 297T188 287Q167 287 153 297T131 324T123 365Z" />
<glyph unicode="&#x2039;" horiz-adv-x="238" d="M29 282L184 472L210 455L72 276L210 97L184 81L29 269V282Z" />
<glyph unicode="&#x203a;" horiz-adv-x="238" d="M54 472L209 284V271L54 81L29 98L166 277L29 456L54 472Z" />
</font>
</defs>
</svg>
