<?xml version="1.0" standalone="no"?>
<!DOCTYPE svg PUBLIC "-//W3C//DTD SVG 1.1//EN" "http://www.w3.org/Graphics/SVG/1.1/DTD/svg11.dtd">
<svg xmlns="http://www.w3.org/2000/svg">
<defs >
<font id="NotoSans" horiz-adv-x="552" ><font-face
    font-family="Noto Sans ExtraLight"
    units-per-em="1000"
    panose-1="2 11 5 2 4 5 4 9 2 4"
    ascent="1069"
    descent="-293"
    alphabetic="0" />
<glyph unicode=" " horiz-adv-x="260" />
<glyph unicode="!" horiz-adv-x="220" d="M77 179L186 714H230L111 179H77ZM59 -9Q46 -9 38 -2T30 19Q30 37 39 52T69 68Q83 68 90 60T97 39Q97 23 88 7T59 -9Z" />
<glyph unicode="&quot;" horiz-adv-x="327" d="M255 456L302 714H344L282 456H255ZM110 456L158 714H199L137 456H110Z" />
<glyph unicode="#" horiz-adv-x="621" d="M105 0L169 223H34L37 256H177L237 457H95L98 489H246L311 714H345L281 489H458L524 714H557L493 489H630L627 457H484L427 256H569L566 223H418L352 0H317L384 223H204L139 0H105ZM213 256H392L449 457H271L213 256Z" />
<glyph unicode="$" horiz-adv-x="550" d="M210 50Q160 50 118 59T48 80V119Q79 105 123 96T218 85L274 350Q232 366 201 385T151 432T133 502Q133 559 161 595T238 652T343 675L360 758H392L375 674Q412 671 448 663T515 640L500 606Q467 622 434 629T368 640L311
374Q355 356 387 338T437 295T455 226Q455 172 426 134T348 75T242 50L218 -58H186L210 50ZM250 85Q295 88 333 105T394 151T417 223Q417 254 404 274T365 308T303 338L250 85ZM335 640Q289 638 252 621T193 575T171 504Q171 471 186 450T226 414T281 385L335 640Z"
/>
<glyph unicode="%" horiz-adv-x="770" d="M119 0L646 714H686L158 0H119ZM189 276Q140 276 113 309T85 411Q85 444 91 485T110 568T145 645T196 702T268 724Q320 724 346 692T373 593Q373 562 367 521T348 437T313 358T261 299T189 276ZM192 309Q224 309 248 329T289
382T316 452T332 527T337 591Q337 643 320 667T266 691Q235 691 211 672T169 621T142 552T126 477T121 412Q121 360 140 335T192 309ZM534 -12Q485 -12 457 21T429 123Q429 156 435 197T455 281T489 358T541 414T613 436Q665 436 691 404T718 306Q718 275 712 234T693
149T658 70T606 11T534 -12ZM536 22Q569 22 592 42T633 94T661 165T676 239T681 303Q681 355 664 379T611 403Q580 403 556 384T514 333T487 264T471 190T466 125Q466 72 484 47T536 22Z" />
<glyph unicode="&amp;" horiz-adv-x="680" d="M222 -10Q145 -10 95 32T44 150Q44 215 71 258T148 334T261 395Q232 436 215 472T198 549Q198 600 220 639T284 702T379 725Q420 725 451 708T501 662T519 594Q519 538 492 502T419 439T313 384L480 151Q517 186 548
233T602 330H641Q623 289 602 253T555 184T501 123L589 0H543L475 100Q421 52 363 21T222 -10ZM227 25Q276 25 314 37T387 72T455 126L280 370Q222 344 178 315T109 248T83 153Q83 112 103 84T156 40T227 25ZM294 410Q324 423 356 439T417 475T462 525T480 593Q480
636 450 663T375 691Q337 691 305 674T255 626T236 550Q236 514 251 481T294 410Z" />
<glyph unicode="&apos;" horiz-adv-x="182" d="M110 456L158 714H199L137 456H110Z" />
<glyph unicode="(" horiz-adv-x="252" d="M100 -158Q79 -119 64 -75T42 18T34 121Q34 212 52 295T102 454T180 595T279 714H322Q264 657 218 589T139 444T89 287T71 121Q71 69 78 20T101 -73T137 -158H100Z" />
<glyph unicode=")" horiz-adv-x="252" d="M-66 -158Q-7 -101 39 -33T118 112T168 269T185 435Q185 488 178 536T157 630T120 714H156Q178 676 192 632T215 538T223 435Q223 344 205 260T154 101T77 -39T-22 -158H-66Z" />
<glyph unicode="*" horiz-adv-x="535" d="M391 330L318 521L174 375L147 404L301 538L122 626L139 661L314 557L349 758L388 750L337 552L541 576L539 537L341 529L429 344L391 330Z" />
<glyph unicode="+" horiz-adv-x="570" d="M322 370H536V336H322V121H288V336H74V370H288V585H322V370Z" />
<glyph unicode="," horiz-adv-x="198" d="M-45 -129Q-21 -82 -3 -41T31 40T59 116H100L102 104Q87 68 69 27T30 -54T-13 -129H-45Z" />
<glyph unicode="-" horiz-adv-x="312" d="M36 253L43 289H275L268 253H36Z" />
<glyph unicode="." horiz-adv-x="219" d="M58 -9Q45 -9 38 -2T30 19Q30 37 39 52T69 68Q83 68 90 60T97 39Q97 23 87 7T58 -9Z" />
<glyph unicode="/" horiz-adv-x="316" d="M-44 0L361 714H402L-2 0H-44Z" />
<glyph unicode="0" horiz-adv-x="550" d="M236 -10Q158 -10 111 45T64 209Q64 263 71 322T94 439T132 548T188 639T263 702T358 725Q402 725 434 711T487 669T518 603T529 517Q529 455 521 392T497 270T457 161T400 72T327 12T236 -10ZM239 25Q280 25 314 45T377
102T426 187T461 290T482 402T489 515Q489 597 457 643T356 690Q312 690 276 669T212 610T164 525T130 423T111 315T104 210Q104 117 139 71T239 25Z" />
<glyph unicode="1" horiz-adv-x="550" d="M338 538Q344 568 349 592T360 636T368 671Q355 659 341 649T306 625L180 542L161 571L379 714H415L263 0H224L338 538Z" />
<glyph unicode="2" horiz-adv-x="550" d="M9 0L15 34L272 266Q309 300 344 334T409 405T455 483T472 573Q472 627 439 658T348 689Q320 689 292 682T236 660T178 625L159 653Q208 690 256 707T350 724Q399 724 435 705T491 653T511 575Q511 509 484 455T408 349T298
243L69 38V36H432L425 0H9Z" />
<glyph unicode="3" horiz-adv-x="550" d="M210 -10Q150 -10 103 2T22 32V72Q55 53 104 39T211 25Q262 25 302 38T371 76T415 134T430 208Q430 257 409 289T348 337T255 354H179L186 388H262Q301 388 340 399T413 432T465 488T485 571Q485 625 450 657T357 689Q305
689 257 672T158 621L139 651Q187 684 241 704T359 724Q409 724 446 705T504 652T525 572Q525 516 500 474T434 407T343 371V369Q402 358 436 317T471 209Q471 162 453 123T401 53T319 7T210 -10Z" />
<glyph unicode="4" horiz-adv-x="550" d="M321 0L361 188H13L19 218L466 717H511L407 223H530L522 188H399L359 0H321ZM68 223H369L428 501Q437 541 443 570T456 623T468 673H465Q453 657 442 643T418 613T388 580L68 223Z" />
<glyph unicode="5" horiz-adv-x="550" d="M205 -10Q171 -10 140 -5T83 10T38 31V73Q67 52 112 39T206 25Q255 25 297 39T370 80T419 148T437 244Q437 313 397 354T280 395Q239 395 208 389T141 373L121 390L217 714H537L529 678H244L165 412Q187 418 216 423T287
429Q344 429 386 407T453 343T477 247Q477 186 457 138T400 57T314 7T205 -10Z" />
<glyph unicode="6" horiz-adv-x="550" d="M253 -10Q188 -10 147 18T86 97T67 209Q67 261 78 320T111 438T162 548T230 638Q260 668 296 687T371 716T449 726Q476 726 501 722T544 712L535 676Q519 683 497 686T447 690Q376 690 313 656T199 543T118 331H120Q139
358 168 383T237 425T327 441Q403 441 448 394T493 267Q493 209 475 158T423 70T346 11T253 -10ZM254 25Q299 25 336 45T399 100T440 178T454 266Q454 334 418 370T318 407Q265 407 221 384T149 328T113 262Q112 254 110 244T107 222T106 198Q106 168 113 138T136
82T180 41T254 25Z" />
<glyph unicode="7" horiz-adv-x="550" d="M107 0L510 678H124L131 714H562L557 686L152 0H107Z" />
<glyph unicode="8" horiz-adv-x="550" d="M240 -10Q182 -10 139 11T71 71T47 160Q47 222 75 262T154 330T266 378Q238 397 213 419T174 471T159 541Q159 598 185 639T257 702T361 724Q414 724 452 704T512 651T533 577Q533 524 508 486T439 421T342 373Q379 353
409 330T457 273T475 191Q475 128 444 83T360 14T240 -10ZM242 25Q295 25 339 44T409 100T436 190Q436 234 420 263T373 314T302 358Q245 339 196 316T116 257T86 161Q86 97 130 61T242 25ZM308 392Q362 412 403 436T469 495T493 576Q493 629 455 659T359 689Q313
689 277 673T219 623T197 541Q197 488 228 454T308 392Z" />
<glyph unicode="9" horiz-adv-x="550" d="M165 -10Q132 -10 101 -6T47 6V45Q68 38 99 32T165 25Q213 25 257 44T342 106T414 215T470 378H468Q451 352 422 328T355 289T267 273Q214 273 176 295T118 356T97 445Q97 504 116 555T167 644T244 703T341 724Q403 724
443 696T503 619T523 506Q523 453 511 391T476 269T424 156T356 69Q335 49 312 34T264 9T215 -5T165 -10ZM271 307Q325 307 367 328T439 383T477 453Q481 467 482 481T484 513Q484 559 470 599T425 664T340 689Q292 689 255 669T191 615T151 537T137 446Q137 382
173 345T271 307Z" />
<glyph unicode=":" horiz-adv-x="219" d="M156 459Q143 459 135 466T127 487Q127 499 131 510T144 528T166 536Q180 536 187 528T194 507Q194 491 185 475T156 459ZM58 -9Q45 -9 38 -2T30 19Q30 37 39 52T69 68Q83 68 90 60T97 39Q97 23 87 7T58 -9Z" />
<glyph unicode=";" horiz-adv-x="219" d="M-46 -129Q-22 -82 -4 -41T30 40T58 116H99L101 104Q86 68 68 27T29 -54T-14 -129H-46ZM155 459Q142 459 134 466T126 487Q126 499 130 510T143 528T166 536Q180 536 186 528T193 507Q193 491 184 475T155 459Z" />
<glyph unicode="&lt;" horiz-adv-x="570" d="M535 134L75 347V371L535 590V554L122 360L535 170V134Z" />
<glyph unicode="=" horiz-adv-x="570" d="M75 438V471H535V438H75ZM75 235V268H535V235H75Z" />
<glyph unicode="&gt;" horiz-adv-x="570" d="M75 170L488 360L75 554V590L535 371V347L75 134V170Z" />
<glyph unicode="?" horiz-adv-x="408" d="M122 179Q132 234 149 268T192 327T255 380Q289 406 319 430T369 487T389 566Q389 622 355 655T265 689Q234 689 201 681T130 655L116 687Q159 707 195 715T267 724Q341 724 384 681T428 569Q428 519 409 483T356 416T278
355Q246 331 222 309T181 257T156 179H122ZM109 -9Q96 -9 88 -2T80 19Q80 37 90 52T120 68Q134 68 140 60T147 39Q147 23 138 7T109 -9Z" />
<glyph unicode="@" horiz-adv-x="837" d="M377 -90Q311 -90 253 -69T151 -7T81 97T55 243Q55 313 74 380T131 507T225 611T354 682T519 707Q612 707 676 670T775 567T810 413Q810 363 800 317T772 233T728 166T671 123T605 107Q559 107 539 132T518 206H515Q489
160 450 134T359 107Q309 107 277 140T244 234Q244 281 256 322T292 398T346 457T414 495T491 508Q528 508 559 501T615 484L575 335Q563 292 556 263T549 213Q549 180 562 160T607 140Q633 140 658 153T704 192T740 252T765 327T774 412Q774 490 745 549T658 641T515
674Q434 674 368 652T250 589T164 495T111 377T92 244Q92 144 131 77T235 -23T379 -57Q428 -57 479 -49T578 -21V-54Q532 -71 482 -80T377 -90ZM364 140Q425 140 468 187T535 320L573 461Q556 467 535 471T487 476Q445 476 409 459T343 409T298 334T281 236Q281
188 303 164T364 140Z" />
<glyph unicode="A" horiz-adv-x="550" d="M-51 0L360 716H399L501 0H463L425 261H142L-8 0H-51ZM162 297H420L383 565Q379 588 376 615T371 669H369Q357 644 343 617T314 564L162 297Z" />
<glyph unicode="B" horiz-adv-x="598" d="M48 0L199 714H381Q450 714 494 697T560 646T582 567Q582 515 562 475T504 409T414 375L413 373Q470 360 500 322T531 223Q531 147 494 98T392 24T246 0H48ZM256 35Q321 35 374 54T458 115T490 223Q490 293 444 325T314
358H164L95 35H256ZM324 392Q389 392 437 410T513 467T541 565Q541 621 500 649T374 678H232L171 392H324Z" />
<glyph unicode="C" horiz-adv-x="593" d="M326 -10Q249 -10 194 24T111 120T82 267Q82 345 100 414T152 540T234 638T341 702T468 724Q516 724 556 715T633 686L616 651Q583 671 546 679T468 688Q408 688 355 668T259 610T186 521T139 405T122 269Q122 156 177
91T330 26Q379 26 421 34T500 55V21Q465 8 423 -1T326 -10Z" />
<glyph unicode="D" horiz-adv-x="675" d="M48 0L199 714H349Q484 714 560 643T637 426Q637 358 620 296T569 179T482 85T359 23T200 0H48ZM202 36Q280 36 342 56T452 112T532 197T580 304T596 426Q596 557 529 617T339 678H232L95 36H202Z" />
<glyph unicode="E" horiz-adv-x="531" d="M48 0L199 714H558L551 678H231L171 394H471L464 358H164L95 36H414L407 0H48Z" />
<glyph unicode="F" horiz-adv-x="485" d="M48 0L199 714H559L552 678H231L164 359H466L458 324H156L88 0H48Z" />
<glyph unicode="G" horiz-adv-x="688" d="M335 -10Q214 -10 148 64T82 265Q82 348 101 419T156 546T239 642T343 703T463 724Q520 724 570 713T664 682L648 646Q607 666 560 677T462 688Q392 688 331 658T223 573T149 440T122 267Q122 188 149 134T224 53T338
26Q388 26 436 36T520 60L575 320H387L395 355H622L553 34Q504 13 448 2T335 -10Z" />
<glyph unicode="H" horiz-adv-x="681" d="M48 0L199 714H239L171 393H570L638 714H678L527 0H487L563 357H164L88 0H48Z" />
<glyph unicode="I" horiz-adv-x="288" d="M2 0L8 26L77 32L215 681L148 688L153 714H330L325 688L254 681L116 32L184 26L179 0H2Z" />
<glyph unicode="J" horiz-adv-x="240" d="M-86 -177Q-109 -177 -131 -173T-167 -164L-166 -129Q-148 -134 -127 -137T-86 -140Q-46 -140 -19 -124T24 -78T49 -5L202 714H241L88 -11Q76 -67 53 -104T-4 -159T-86 -177Z" />
<glyph unicode="K" horiz-adv-x="547" d="M48 0L199 714H239L158 333L216 388L582 714H633L295 411L489 0H445L264 386L149 290L88 0H48Z" />
<glyph unicode="L" horiz-adv-x="488" d="M48 0L199 714H239L95 36H413L405 0H48Z" />
<glyph unicode="M" horiz-adv-x="813" d="M48 0L199 714H255L363 64H366L748 714H810L659 0H620L740 566Q743 583 747 600T755 634T764 668H762L368 0H337L226 668H224Q221 651 219 634T213 600T205 563L87 0H48Z" />
<glyph unicode="N" horiz-adv-x="681" d="M48 0L199 714H233L503 68H506Q510 94 515 122T526 179T537 233L640 714H678L527 0H492L222 645H220Q216 625 212 605T205 564T197 522T188 479L87 0H48Z" />
<glyph unicode="O" horiz-adv-x="717" d="M335 -10Q244 -10 188 28T107 130T82 274Q82 331 91 385T119 490T168 583T236 658T324 707T431 725Q545 725 612 656T679 446Q679 402 672 352T648 250T606 153T541 70T452 12T335 -10ZM336 26Q391 26 435 45T512 97T570
173T609 263T631 357T638 445Q638 559 586 624T429 689Q373 689 329 671T251 622T193 550T153 463T130 368T122 275Q122 201 145 145T215 58T336 26Z" />
<glyph unicode="P" horiz-adv-x="560" d="M48 0L199 714H355Q424 714 469 694T537 634T560 536Q560 483 543 440T490 365T402 317T276 300H151L88 0H48ZM282 335Q364 335 417 359T495 429T520 535Q520 610 476 644T349 678H232L159 335H282Z" />
<glyph unicode="Q" horiz-adv-x="717" d="M337 -10Q335 -10 333 -10T327 -10Q242 -8 188 28T108 129T82 274Q82 331 91 385T119 490T168 583T236 658T324 707T431 725Q545 725 612 656T679 446Q679 397 670 340T639 226T584 119T500 37T382 -6L499 -170H448L337
-10ZM336 26Q391 26 435 45T512 97T570 173T609 263T631 357T638 445Q638 559 586 624T429 689Q373 689 329 671T251 622T193 550T153 463T130 368T122 275Q122 201 145 145T215 58T336 26Z" />
<glyph unicode="R" horiz-adv-x="564" d="M48 0L199 714H348Q453 714 506 672T560 546Q560 484 538 439T473 365T365 323L482 0H439L327 315H155L88 0H48ZM299 350Q346 350 386 361T457 397T503 457T520 544Q520 613 476 645T342 678H232L162 350H299Z" />
<glyph unicode="S" horiz-adv-x="499" d="M195 -10Q134 -10 93 0T19 24V65Q53 48 96 37T196 26Q229 26 264 34T329 62T377 113T396 187Q396 229 378 258T327 309T249 355Q215 373 184 396T134 451T115 528Q115 581 134 618T187 678T261 713T343 724Q398 724 436
714T511 686L495 651Q458 669 423 678T342 688Q313 688 281 680T220 654T173 605T155 530Q155 491 172 465T216 420T276 384Q321 360 357 335T415 276T437 189Q437 135 416 97T359 36T281 1T195 -10Z" />
<glyph unicode="T" horiz-adv-x="488" d="M168 0L312 678H92L100 714H579L571 678H352L208 0H168Z" />
<glyph unicode="U" horiz-adv-x="689" d="M300 -10Q234 -10 186 12T112 78T86 184Q86 201 88 220T95 260L192 714H231L135 260Q131 241 129 222T127 186Q127 108 173 67T302 26Q368 26 418 51T503 128T554 256L652 714H692L594 250Q575 162 535 104T436 18T300 -10Z" />
<glyph unicode="V" horiz-adv-x="538" d="M191 0L103 714H141L207 170Q210 150 212 129T215 88T217 50H219Q231 76 245 104T280 168L574 714H617L228 0H191Z" />
<glyph unicode="W" horiz-adv-x="832" d="M155 0L121 714H158L183 193Q185 162 185 129T184 64H187Q200 94 212 124T244 193L493 714H532L565 193Q566 173 566 150T567 104T568 61H571Q578 80 586 100T603 143T624 190L860 714H902L576 0H540L506 556Q505 574
505 591T504 625T503 659H501Q491 634 483 615T464 572L192 0H155Z" />
<glyph unicode="X" horiz-adv-x="497" d="M-58 0L249 373L115 714H155L275 400L529 714H573L293 370L439 0H398L265 342L-12 0H-58Z" />
<glyph unicode="Y" horiz-adv-x="490" d="M169 0L226 270L95 714H135L252 312L537 714H583L266 273L209 0H169Z" />
<glyph unicode="Z" horiz-adv-x="537" d="M-8 0L-3 29L513 678H151L158 714H571L566 685L50 36H439L432 0H-8Z" />
<glyph unicode="[" horiz-adv-x="300" d="M-9 -158L177 714H369L361 678H207L37 -122H193L184 -158H-9Z" />
<glyph unicode="\" horiz-adv-x="316" d="M225 0L100 714H135L260 0H225Z" />
<glyph unicode="]" horiz-adv-x="300" d="M-72 -158L-64 -122H90L260 678H104L113 714H306L120 -158H-72Z" />
<glyph unicode="^" horiz-adv-x="554" d="M48 276L339 719H369L510 276H474L350 674L89 276H48Z" />
<glyph unicode="_" horiz-adv-x="376" d="M-86 -139L-79 -105H298L290 -139H-86Z" />
<glyph unicode="`" horiz-adv-x="237" d="M246 606Q231 624 211 652T174 709T147 756V766H188Q198 741 212 713T242 660T269 618V606H246Z" />
<glyph unicode="a" horiz-adv-x="551" d="M196 -10Q149 -10 117 13T67 78T50 177Q50 228 61 279T95 378T149 461T223 518T317 540Q362 540 390 521T435 474T457 416H460L488 530H519L407 0H375L400 131H397Q379 101 349 68T280 13T196 -10ZM204 25Q249 25 294
56T374 142T425 264Q431 295 434 317T437 359Q437 428 406 466T318 505Q275 505 239 486T175 435T129 360T100 271T90 177Q90 106 119 66T204 25Z" />
<glyph unicode="b" horiz-adv-x="570" d="M245 -10Q198 -10 166 8T117 54T93 113H90L63 0H31L192 760H231L186 551Q182 528 176 500T163 446T150 399H153Q173 432 203 464T273 518T362 539Q409 539 444 517T497 452T516 353Q516 302 506 251T474 153T419 69T343
11T245 -10ZM244 25Q291 25 327 44T392 95T439 170T467 259T477 353Q477 424 445 464T353 505Q319 505 289 492T231 455T182 399T145 330T122 252T113 170Q113 98 149 62T244 25Z" />
<glyph unicode="c" horiz-adv-x="452" d="M247 -10Q186 -10 143 16T77 87T54 193Q54 249 66 300T101 394T158 470T236 521T334 540Q368 540 401 534T459 515L447 480Q423 493 393 499T334 505Q279 505 235 481T159 414T110 316T93 195Q93 147 111 109T163 48T250
25Q285 25 315 33T377 55V20Q352 7 320 -1T247 -10Z" />
<glyph unicode="d" horiz-adv-x="570" d="M199 -10Q150 -10 117 13T67 78T50 177Q50 228 61 279T93 377T148 460T224 518T321 539Q369 539 400 521T450 474T473 416H476Q480 439 483 462T492 507T501 552L545 760H583L422 0H390L415 132H412Q391 99 360 66T288
12T199 -10ZM207 25Q237 25 267 37T324 71T375 125T416 193T444 272T454 359Q454 431 418 468T322 505Q276 505 239 486T175 435T128 360T100 270T90 177Q90 104 119 65T207 25Z" />
<glyph unicode="e" horiz-adv-x="493" d="M245 -10Q195 -10 153 11T85 78T59 194Q59 264 79 326T136 437T222 512T330 540Q390 540 425 508T460 423Q460 376 436 344T368 291T264 261T133 251H102Q101 241 100 225T99 194Q99 112 140 69T252 25Q294 25 328 36T390
59V23Q364 10 326 0T245 -10ZM148 285Q227 285 288 299T385 344T421 421Q421 458 397 481T325 505Q281 505 237 479T158 404T108 285H148Z" />
<glyph unicode="f" horiz-adv-x="275" d="M-66 -240Q-81 -240 -99 -237T-128 -230V-194Q-114 -199 -98 -202T-68 -205Q-33 -205 -12 -179T21 -103L148 496H55L59 521L155 530L171 605Q180 644 193 674T227 725T274 755T339 765Q363 765 384 761T419 751L408 717Q392
724 375 727T339 730Q283 730 253 700T209 601L194 530H313L306 496H187L58 -108Q49 -153 32 -182T-9 -226T-66 -240Z" />
<glyph unicode="g" horiz-adv-x="570" d="M175 -240Q131 -240 93 -230T26 -207V-167Q45 -177 69 -186T121 -200T175 -205Q264 -205 312 -158T378 -27L387 14Q393 41 401 75T416 135H414Q393 100 361 67T288 12T200 -10Q150 -10 117 13T67 78T50 177Q50 228 61
279T93 377T148 460T224 518T322 540Q369 540 400 522T449 475T473 416H476L504 530H535L416 -29Q403 -95 373 -142T295 -214T175 -240ZM209 25Q238 25 267 37T323 71T374 124T415 192T443 271T453 359Q453 431 418 468T323 505Q277 505 240 486T175 435T128 360T100
270T90 177Q90 106 118 66T209 25Z" />
<glyph unicode="h" horiz-adv-x="558" d="M31 0L192 760H231L188 558Q182 532 176 505T164 451T150 399H153Q171 429 201 461T272 516T364 539Q408 539 438 524T483 481T499 408Q499 393 497 375T490 339L419 0H380L453 343Q457 361 458 376T460 404Q460 455 433
480T356 505Q305 505 258 473T175 387T126 265L70 0H31Z" />
<glyph unicode="i" horiz-adv-x="217" d="M31 0L144 530H182L70 0H31ZM194 652Q182 652 174 659T166 679Q166 690 170 700T182 717T202 724Q216 724 222 716T229 697Q229 681 219 667T194 652Z" />
<glyph unicode="j" horiz-adv-x="217" d="M-82 -240Q-96 -240 -112 -237T-139 -230V-194Q-127 -200 -111 -202T-82 -205Q-57 -205 -39 -194T-9 -160T9 -106L144 530H182L46 -110Q38 -153 22 -182T-20 -225T-82 -240ZM194 652Q182 652 174 659T166 679Q166 690
170 700T182 717T202 724Q216 724 222 716T228 697Q228 681 219 667T194 652Z" />
<glyph unicode="k" horiz-adv-x="450" d="M31 0L192 760H231L154 399Q142 344 132 302T112 219H113L439 530H487L245 300L395 0H352L216 275L107 176L70 0H31Z" />
<glyph unicode="l" horiz-adv-x="217" d="M31 0L192 760H231L70 0H31Z" />
<glyph unicode="m" horiz-adv-x="849" d="M31 0L144 530H176L150 399H153Q169 429 195 461T260 517T346 540Q411 540 439 501T465 397H467Q484 429 511 462T577 517T664 540Q724 540 757 507T790 409Q790 393 788 375T781 339L710 0H671L744 343Q748 361 749 376T751
404Q751 455 726 480T655 505Q620 505 587 486T525 435T476 359T445 268L389 0H350L421 331Q426 353 427 373T429 406Q429 453 405 479T336 505Q301 505 268 486T206 434T157 358T126 265L70 0H31Z" />
<glyph unicode="n" horiz-adv-x="558" d="M30 0L143 530H176L152 399H154Q171 430 200 462T271 517T364 540Q408 540 438 525T484 481T500 409Q500 393 498 375T491 339L419 0H379L452 343Q456 362 458 376T460 404Q460 455 433 479T356 504Q306 504 259 473T176
387T127 265L70 0H30Z" />
<glyph unicode="o" horiz-adv-x="565" d="M239 -10Q178 -10 137 15T75 87T54 193Q54 253 67 306T104 401T162 475T238 522T328 539Q388 539 428 513T490 442T511 338Q511 282 500 231T465 136T410 60T334 9T239 -10ZM243 25Q285 25 320 40T384 84T431 152T461
239T471 340Q471 387 456 424T408 482T327 504Q286 504 251 490T187 448T137 383T105 297T93 193Q93 115 131 70T243 25Z" />
<glyph unicode="p" horiz-adv-x="570" d="M-18 -234L144 530H176L151 399H153Q173 433 203 465T274 518T363 539Q410 539 444 517T497 452T516 352Q516 301 506 250T474 153T419 69T343 11T245 -10Q198 -10 167 8T117 54T93 113H90Q86 83 80 49T67 -14L20 -234H-18ZM244
25Q291 25 327 44T392 95T439 170T467 259T477 353Q477 424 445 464T353 505Q321 505 291 492T234 456T185 401T147 333T122 254T113 170Q113 98 149 62T244 25Z" />
<glyph unicode="q" horiz-adv-x="570" d="M381 -14Q386 5 391 31T404 84T416 136H414Q395 103 363 69T290 13T200 -10Q151 -10 118 13T67 78T50 177Q50 228 61 279T93 377T148 460T224 518T322 540Q370 540 401 521T449 474T473 416H476L504 530H535L373 -234H335L381
-14ZM209 25Q239 25 269 37T326 73T377 128T417 196T443 275T453 359Q453 430 418 467T323 505Q277 505 240 486T175 435T128 360T100 270T90 177Q90 106 118 66T209 25Z" />
<glyph unicode="r" horiz-adv-x="376" d="M31 0L144 530H176L151 399H154Q171 428 198 460T262 515T343 538Q360 538 375 536T402 530L393 495Q383 498 370 500T341 502Q305 502 271 483T208 431T157 354T125 262L70 0H31Z" />
<glyph unicode="s" horiz-adv-x="425" d="M162 -10Q111 -10 73 2T11 26V67Q40 50 79 38T162 25Q214 25 246 39T293 79T309 138Q309 169 294 189T255 226T200 257Q166 276 139 294T95 337T78 398Q78 446 101 477T164 524T253 540Q301 540 338 531T402 508L389 474Q364
487 328 496T252 505Q194 505 156 480T117 401Q117 373 131 355T169 321T223 289Q256 271 284 253T331 208T349 141Q349 98 329 64T267 10T162 -10Z" />
<glyph unicode="t" horiz-adv-x="314" d="M154 -10Q104 -10 78 15T52 87Q52 100 54 115T60 148L133 496H55L61 522L140 532L180 659H207L180 530H337L329 496H172L99 150Q95 135 94 120T92 91Q92 60 107 43T157 25Q180 25 198 28T233 38V4Q218 -1 199 -5T154 -10Z" />
<glyph unicode="u" horiz-adv-x="558" d="M190 -10Q147 -10 117 5T71 49T55 121Q55 136 57 154T64 191L135 530H174L101 186Q97 169 96 154T94 126Q94 75 121 50T198 25Q250 25 297 57T379 143T428 264L485 530H523L411 0H378L403 131H400Q384 101 354 68T283
13T190 -10Z" />
<glyph unicode="v" horiz-adv-x="422" d="M128 0L50 530H88L141 158Q145 136 147 116T151 77T154 42H156Q166 60 175 79T194 118T217 159L428 530H470L168 0H128Z" />
<glyph unicode="w" horiz-adv-x="666" d="M85 0L55 530H93L112 175Q114 134 114 104T114 49H117Q124 66 131 83T149 122T175 172L357 530H392L427 175Q430 137 432 107T434 49H437Q443 67 450 86T468 127T492 180L657 530H697L447 0H407L372 369Q370 388 369 404T367
438T366 477H364Q356 457 348 441T332 407T314 371L125 0H85Z" />
<glyph unicode="x" horiz-adv-x="461" d="M-34 0L204 274L85 530H127L230 301L431 530H477L249 271L377 0H336L222 244L12 0H-34Z" />
<glyph unicode="y" horiz-adv-x="422" d="M-50 -242Q-71 -242 -84 -240T-110 -232V-197Q-98 -202 -84 -205T-50 -208Q-13 -208 16 -181T78 -96L136 4L50 530H88L142 192Q147 161 151 133T157 83T161 44H163Q171 59 181 81T206 129T236 183L428 530H470L112 -110Q88
-152 64 -182T13 -227T-50 -242Z" />
<glyph unicode="z" horiz-adv-x="438" d="M-14 0L-9 26L379 496H106L114 530H437L431 503L42 33H343L337 0H-14Z" />
<glyph unicode="{" horiz-adv-x="332" d="M203 -158Q133 -158 102 -135T70 -57Q70 -45 71 -32T76 -5L111 151Q114 164 115 175T117 197Q117 231 95 246T24 262L31 297Q92 297 122 322T164 409L201 578Q211 626 233 655T292 699T377 714H386L379 679Q319 678 285
654T237 571L201 404Q191 354 167 321T96 279V277Q127 267 140 247T154 196Q154 185 153 173T147 145L114 -8Q111 -21 110 -32T108 -53Q108 -95 132 -109T212 -123V-158H203Z" />
<glyph unicode="|" horiz-adv-x="538" d="M278 -241V760H312V-241H278Z" />
<glyph unicode="}" horiz-adv-x="332" d="M-43 -124Q-3 -123 26 -113T73 -79T100 -16L136 151Q147 201 171 234T241 276V279Q211 288 197 308T183 359Q183 371 185 383T190 410L223 564Q226 577 228 588T230 608Q230 650 205 664T123 678L126 713H134Q180 713
209 703T253 671T267 612Q267 601 266 588T261 560L226 404Q223 391 222 380T220 359Q220 324 242 309T313 293L306 259Q246 259 216 234T173 147L136 -22Q126 -71 103 -101T44 -145T-41 -159H-47L-43 -124Z" />
<glyph unicode="~" horiz-adv-x="570" d="M299 337Q271 352 248 360T191 368Q162 368 133 355T75 312V352Q98 375 128 388T192 401Q232 401 258 393T316 368Q345 355 368 347T421 338Q449 338 478 351T535 393V355Q515 333 486 319T420 305Q386 305 359 313T299 337Z" />
<glyph unicode="&#xa0;" horiz-adv-x="260" />
<glyph unicode="&#xa1;" horiz-adv-x="220" d="M-6 -182L115 349H146L38 -182H-6ZM156 461Q141 461 135 469T128 489Q128 507 137 522T167 538Q180 538 187 531T195 510Q195 493 186 477T156 461Z" />
<glyph unicode="&#xa2;" horiz-adv-x="550" d="M256 93Q186 105 147 158T107 289Q107 343 118 393T151 486T205 562T277 615T366 639L383 724H416L398 639Q428 638 457 632T510 615L498 580Q474 592 443 598T384 604Q332 604 288 580T213 513T164 413T147 290Q147
218 186 171T298 124Q332 124 364 131T427 154V120Q392 101 358 96T288 90L267 -10H234L256 93Z" />
<glyph unicode="&#xa3;" horiz-adv-x="550" d="M-1 33Q37 41 66 60T114 112T144 192L173 331H73L80 364H181L214 524Q229 592 256 636T325 701T422 723Q465 723 501 713T561 689L545 656Q522 667 491 677T421 688Q353 688 312 648T252 517L219 364H406L399 331H212L182
190Q167 121 142 87T80 36H455L448 0H-7L-1 33Z" />
<glyph unicode="&#xa4;" horiz-adv-x="566" d="M429 203Q402 180 369 168T300 156Q266 156 233 168T172 204L98 129L76 151L150 226Q127 253 116 286T104 354Q104 388 115 421T150 482L76 557L98 579L172 504Q200 528 233 540T300 552Q335 552 368 540T429 504L503
578L525 556L451 482Q474 455 486 422T498 354Q498 319 487 286T451 226L526 151L503 129L429 203ZM300 187Q346 187 384 210T444 271T467 355Q467 401 445 438T385 498T301 521Q256 521 218 498T157 438T135 354Q135 308 157 270T216 210T300 187Z" />
<glyph unicode="&#xa5;" horiz-adv-x="550" d="M196 0L229 155H68L75 189H237L258 293H97L104 326H251L119 714H158L283 338L568 714H612L316 326H463L457 293H295L274 189H434L427 155H267L234 0H196Z" />
<glyph unicode="&#xa6;" horiz-adv-x="538" d="M278 392V760H312V392H278ZM278 -240V129H312V-240H278Z" />
<glyph unicode="&#xa7;" horiz-adv-x="496" d="M175 -2Q128 -2 90 9T28 31V69Q58 54 98 43T175 31Q252 31 295 59T338 140Q338 168 323 185T282 215T224 243Q194 257 165 274T118 318T99 384Q99 426 120 454T172 499T234 525Q205 539 182 563T158 626Q158 673
184 703T253 746T340 760Q380 760 420 751T487 730L474 698Q446 711 409 719T340 727Q308 727 275 719T219 688T196 627Q196 592 225 572T306 529Q336 516 365 500T415 459T435 393Q435 356 418 326T374 273T319 234Q344 218 360 197T376 143Q376 96 352 64T283
15T175 -2ZM291 251Q333 272 365 306T397 390Q397 420 383 438T339 472T266 507Q236 499 206 486T157 449T137 386Q137 353 154 332T206 292T291 251Z" />
<glyph unicode="&#xa8;" horiz-adv-x="571" d="M456 644Q444 644 438 651T432 669Q432 684 440 698T466 713Q479 713 484 706T490 688Q490 672 482 658T456 644ZM279 644Q267 644 261 651T255 669Q255 684 263 698T289 713Q297 713 302 710T310 701T313 688Q313
672 305 658T279 644Z" />
<glyph unicode="&#xa9;" horiz-adv-x="832" d="M416 -8Q336 -8 269 20T153 98T77 215T50 357Q50 435 78 502T157 618T274 695T416 722Q495 722 562 693T678 613T755 496T782 357Q782 281 754 215T676 98T559 20T416 -8ZM434 141Q341 141 286 195T231 356Q231 422
256 471T329 547T438 574Q480 574 509 567T564 547L549 516Q526 528 500 534T438 540Q363 540 316 491T268 356Q268 266 314 220T435 174Q468 174 493 179T548 195V163Q523 153 496 147T434 141ZM416 22Q487 22 548 48T654 121T725 228T750 357Q750 425 725 485T655
592T549 665T416 692Q345 692 285 666T179 595T108 489T82 357Q82 289 106 229T174 122T280 49T416 22Z" />
<glyph unicode="&#xaa;" horiz-adv-x="325" d="M181 395Q155 395 134 407T100 443T88 502Q88 547 100 587T134 657T185 705T246 722Q281 722 299 705T326 662H328L345 716H371L304 399H278L290 468H288Q269 438 242 417T181 395ZM185 426Q205 426 224 437T259
467T286 510T304 560T311 609Q311 643 295 667T245 692Q222 692 200 678T160 639T132 579T122 504Q122 468 139 447T185 426Z" />
<glyph unicode="&#xab;" horiz-adv-x="393" d="M131 80L24 272L27 285L212 472L233 451L68 274L158 94L131 80ZM298 80L193 268L195 281L379 471L400 451L236 270L325 94L298 80Z" />
<glyph unicode="&#xac;" horiz-adv-x="570" d="M522 370V131H489V336H74V370H522Z" />
<glyph unicode="&#xad;" horiz-adv-x="304" d="M291 253L298 289H530L523 253H291Z" />
<glyph unicode="&#xae;" horiz-adv-x="832" d="M294 142V570H414Q480 570 519 541T558 448Q558 400 532 371T468 330L582 142H539L432 321H330V142H294ZM411 351Q458 351 490 375T523 448Q523 496 493 517T412 538H329V351H411ZM416 -8Q336 -8 269 20T153 98T77
215T50 357Q50 435 78 502T157 618T274 695T416 722Q495 722 562 693T678 613T755 496T782 357Q782 281 754 215T676 98T559 20T416 -8ZM416 22Q487 22 548 48T654 121T725 228T750 357Q750 425 725 485T655 592T549 665T416 692Q345 692 285 666T179 595T108 489T82
357Q82 289 106 229T174 122T280 49T416 22Z" />
<glyph unicode="&#xaf;" horiz-adv-x="462" d="M101 760L109 794H503L495 760H101Z" />
<glyph unicode="&#xb0;" horiz-adv-x="428" d="M214 436Q172 436 139 454T87 504T68 580Q68 624 87 656T139 706T214 724Q256 724 289 706T341 655T360 580Q360 537 342 505T290 454T214 436ZM213 468Q264 468 295 499T326 580Q326 632 295 662T213 692Q162 692
132 662T102 580Q102 531 132 500T213 468Z" />
<glyph unicode="&#xb1;" horiz-adv-x="570" d="M74 0V34H536V0H74ZM322 370H536V337H322V121H288V337H74V370H288V586H322V370Z" />
<glyph unicode="&#xb2;" horiz-adv-x="320" d="M54 416L60 444L200 563Q248 603 280 634T329 695T346 756Q346 787 327 805T273 823Q244 823 217 813T160 782L144 808Q174 831 207 843T276 855Q311 855 334 842T369 808T381 759Q381 720 363 686T310 619T227 546L110
448H331L324 416H54Z" />
<glyph unicode="&#xb3;" horiz-adv-x="320" d="M177 411Q144 411 115 418T63 437V472Q89 459 117 451T177 443Q237 443 274 470T311 551Q311 586 285 605T208 625H161L168 656H215Q250 656 279 666T326 699T344 753Q344 784 326 802T270 820Q237 820 209 810T152
783L138 810Q167 829 201 840T274 852Q307 852 331 840T367 807T380 758Q380 707 351 679T282 641V638Q311 631 329 608T347 551Q347 504 326 473T266 427T177 411Z" />
<glyph unicode="&#xb4;" horiz-adv-x="227" d="M114 613Q136 633 161 660T210 716T248 766H292V758Q280 742 262 723T224 682T183 642T142 606H114V613Z" />
<glyph unicode="&#xb5;" horiz-adv-x="559" d="M-22 -234L140 530H178L106 189Q101 163 99 147T97 120Q97 79 123 52T200 25Q247 25 294 52T379 134T434 272L489 530H527L415 0H383L407 131H405Q386 98 357 66T288 12T193 -10Q143 -10 116 13T79 66H76Q73 47 69
23T59 -30T47 -87L16 -234H-22Z" />
<glyph unicode="&#xb6;" horiz-adv-x="655" d="M363 338Q347 334 331 332T292 329Q249 329 217 344T163 389T130 457T119 547Q119 600 131 639T166 706T225 746T307 760H556V-127H523V724H396V-127H363V338Z" />
<glyph unicode="&#xb7;" horiz-adv-x="219" d="M120 284Q107 284 100 291T92 312Q92 330 101 345T131 361Q145 361 152 353T159 332Q159 316 149 300T120 284Z" />
<glyph unicode="&#xb8;" horiz-adv-x="195" d="M-32 -240Q-48 -240 -61 -239T-85 -234V-205Q-74 -207 -62 -208T-35 -210Q-14 -210 7 -203T44 -180T59 -138Q59 -113 39 -100T-23 -86L24 0H56L23 -63Q54 -67 74 -86T95 -138Q95 -170 77 -193T31 -228T-32 -240Z" />
<glyph unicode="&#xb9;" horiz-adv-x="320" d="M249 689Q255 717 263 748T278 807Q262 797 247 788T208 767L158 740L144 767L289 844H319L228 416H192L249 689Z" />
<glyph unicode="&#xba;" horiz-adv-x="349" d="M205 393Q152 393 122 427T92 517Q92 561 104 599T139 665T193 708T261 724Q316 724 344 690T372 601Q372 559 361 521T327 454T274 409T205 393ZM207 423Q236 423 260 437T301 475T328 531T338 599Q338 641 318
667T259 694Q230 694 206 681T164 643T136 588T126 518Q126 474 147 449T207 423Z" />
<glyph unicode="&#xbb;" horiz-adv-x="393" d="M183 80L163 101L328 278L238 459L265 472L371 280L369 267L183 80ZM17 82L-4 101L160 282L71 459L98 472L203 284L201 271L17 82Z" />
<glyph unicode="&#xbc;" horiz-adv-x="683" d="M79 0L609 714H652L121 0H79ZM219 560Q225 588 233 619T248 678Q232 668 217 659T178 638L128 611L114 638L259 715H289L198 287H162L219 560ZM514 1L538 114H346L354 147L606 432H641L580 146H645L638 114H573L549
1H514ZM394 146H544L569 260Q575 289 582 322T596 380Q590 371 578 356T551 324T522 291L394 146Z" />
<glyph unicode="&#xbd;" horiz-adv-x="732" d="M73 0L603 714H646L115 0H73ZM219 560Q225 588 233 619T248 678Q232 668 217 659T178 638L128 611L114 638L259 715H289L198 287H162L219 560ZM384 1L390 29L530 148Q578 188 610 219T659 280T676 341Q676 372 657
390T603 408Q574 408 547 398T490 367L474 393Q504 416 537 428T606 440Q641 440 664 427T699 393T711 344Q711 305 693 271T640 204T557 131L440 33H661L654 1H384Z" />
<glyph unicode="&#xbe;" horiz-adv-x="709" d="M141 279Q108 279 79 286T27 305V340Q53 327 81 319T141 311Q201 311 238 338T275 419Q275 454 249 473T172 493H125L132 524H179Q214 524 243 534T290 567T308 621Q308 652 290 670T234 688Q201 688 173 678T116
651L102 678Q131 697 165 708T238 720Q271 720 295 708T331 675T344 626Q344 575 315 547T246 509V506Q275 499 293 476T311 419Q311 372 290 341T230 295T141 279ZM119 0L649 714H692L161 0H119ZM539 2L563 115H371L379 148L631 433H666L605 147H670L663 115H598L574
2H539ZM419 147H569L594 261Q600 290 607 323T621 381Q615 372 603 357T576 325T547 292L419 147Z" />
<glyph unicode="&#xbf;" horiz-adv-x="408" d="M297 352Q289 298 272 264T228 206T164 152Q132 127 101 102T51 45T31 -35Q31 -90 64 -123T155 -157Q186 -157 219 -148T289 -123L304 -155Q261 -175 225 -183T153 -192Q79 -192 36 -149T-8 -38Q-8 14 11 50T64 116T141
177Q174 201 198 223T238 276T264 352H297ZM310 541Q324 541 331 534T339 513Q339 496 330 480T300 464Q286 464 279 472T272 492Q272 510 282 525T310 541Z" />
<glyph unicode="&#xc0;" horiz-adv-x="550" d="M-51 0L360 716H399L501 0H463L425 261H142L-8 0H-51ZM162 297H420L383 565Q379 588 376 615T371 669H369Q357 644 343 617T314 564L162 297ZM401 790Q386 808 366 836T329 893T302 940V950H343Q353 925 367 897T397
844T424 802V790H401Z" />
<glyph unicode="&#xc1;" horiz-adv-x="550" d="M-51 0L360 716H399L501 0H463L425 261H142L-8 0H-51ZM162 297H420L383 565Q379 588 376 615T371 669H369Q357 644 343 617T314 564L162 297ZM358 797Q380 817 405 844T454 900T492 950H536V942Q524 926 506 907T468
866T427 826T386 790H358V797Z" />
<glyph unicode="&#xc2;" horiz-adv-x="550" d="M-51 0L360 716H399L501 0H463L425 261H142L-8 0H-51ZM162 297H420L383 565Q379 588 376 615T371 669H369Q357 644 343 617T314 564L162 297ZM259 797Q280 817 307 844T359 898T400 948H435Q442 926 455 899T484
845T513 797L512 790H486Q473 807 460 827T434 868T412 908Q385 880 352 848T289 790H258L259 797Z" />
<glyph unicode="&#xc3;" horiz-adv-x="550" d="M-51 0L360 716H399L501 0H463L425 261H142L-8 0H-51ZM162 297H420L383 565Q379 588 376 615T371 669H369Q357 644 343 617T314 564L162 297ZM234 800Q243 834 256 857T289 892T335 904Q359 904 377 894T412 869T443
845T473 834Q495 834 512 847T543 904H575Q566 871 552 847T519 811T471 799Q449 799 432 809T399 834T367 858T333 869Q313 869 296 855T266 800H234Z" />
<glyph unicode="&#xc4;" horiz-adv-x="550" d="M-51 0L360 716H399L501 0H463L425 261H142L-8 0H-51ZM162 297H420L383 565Q379 588 376 615T371 669H369Q357 644 343 617T314 564L162 297ZM483 828Q471 828 465 835T459 853Q459 868 467 882T493 897Q506 897
511 890T517 872Q517 856 509 842T483 828ZM306 828Q294 828 288 835T282 853Q282 868 290 882T316 897Q324 897 329 894T337 885T340 872Q340 856 332 842T306 828Z" />
<glyph unicode="&#xc5;" horiz-adv-x="550" d="M-51 0L360 716H399L501 0H463L425 261H142L-8 0H-51ZM162 297H420L383 565Q379 588 376 615T371 669H369Q357 644 343 617T314 564L162 297ZM391 713Q350 713 320 740T289 814Q289 858 319 886T391 915Q434 915
463 886T493 814Q493 769 464 741T391 713ZM391 742Q424 742 443 763T463 814Q463 845 442 865T391 886Q360 886 340 866T319 814Q319 784 339 763T391 742Z" />
<glyph unicode="&#xc6;" horiz-adv-x="791" d="M-52 0L393 714H827L819 678H492L431 394H740L733 358H424L356 36H683L676 0H309L364 260H154L-6 0H-52ZM177 296H371L451 678H413L177 296Z" />
<glyph unicode="&#xc7;" horiz-adv-x="593" d="M326 -10Q249 -10 194 24T111 120T82 267Q82 345 100 414T152 540T234 638T341 702T468 724Q516 724 556 715T633 686L616 651Q583 671 546 679T468 688Q408 688 355 668T259 610T186 521T139 405T122 269Q122 156
177 91T330 26Q379 26 421 34T500 55V21Q465 8 423 -1T326 -10ZM232 -240Q216 -240 203 -239T179 -234V-205Q190 -207 202 -208T229 -210Q250 -210 271 -203T308 -180T323 -138Q323 -113 303 -100T241 -86L288 0H320L287 -63Q318 -67 338 -86T359 -138Q359 -170
341 -193T295 -228T232 -240Z" />
<glyph unicode="&#xc8;" horiz-adv-x="531" d="M48 0L199 714H558L551 678H231L171 394H471L464 358H164L95 36H414L407 0H48ZM404 790Q389 808 369 836T332 893T305 940V950H346Q356 925 370 897T400 844T427 802V790H404Z" />
<glyph unicode="&#xc9;" horiz-adv-x="531" d="M48 0L199 714H558L551 678H231L171 394H471L464 358H164L95 36H414L407 0H48ZM353 797Q375 817 400 844T449 900T487 950H531V942Q519 926 501 907T463 866T422 826T381 790H353V797Z" />
<glyph unicode="&#xca;" horiz-adv-x="531" d="M48 0L199 714H558L551 678H231L171 394H471L464 358H164L95 36H414L407 0H48ZM266 797Q287 817 314 844T366 898T407 948H442Q449 926 462 899T491 845T520 797L519 790H493Q480 807 467 827T441 868T419 908Q392
880 359 848T296 790H265L266 797Z" />
<glyph unicode="&#xcb;" horiz-adv-x="531" d="M48 0L199 714H558L551 678H231L171 394H471L464 358H164L95 36H414L407 0H48ZM494 828Q482 828 476 835T470 853Q470 868 478 882T504 897Q517 897 522 890T528 872Q528 856 520 842T494 828ZM317 828Q305 828 299
835T293 853Q293 868 301 882T327 897Q335 897 340 894T348 885T351 872Q351 856 343 842T317 828Z" />
<glyph unicode="&#xcc;" horiz-adv-x="288" d="M2 0L8 26L77 32L215 681L148 688L153 714H330L325 688L254 681L116 32L184 26L179 0H2ZM271 790Q256 808 236 836T199 893T172 940V950H213Q223 925 237 897T267 844T294 802V790H271Z" />
<glyph unicode="&#xcd;" horiz-adv-x="288" d="M2 0L8 26L77 32L215 681L148 688L153 714H330L325 688L254 681L116 32L184 26L179 0H2ZM219 797Q241 817 266 844T315 900T353 950H397V942Q385 926 367 907T329 866T288 826T247 790H219V797Z" />
<glyph unicode="&#xce;" horiz-adv-x="288" d="M2 0L8 26L77 32L215 681L148 688L153 714H330L325 688L254 681L116 32L184 26L179 0H2ZM121 797Q142 817 169 844T221 898T262 948H297Q304 926 317 899T346 845T375 797L374 790H348Q335 807 322 827T296 868T274
908Q247 880 214 848T151 790H120L121 797Z" />
<glyph unicode="&#xcf;" horiz-adv-x="288" d="M2 0L8 26L77 32L215 681L148 688L153 714H330L325 688L254 681L116 32L184 26L179 0H2ZM349 828Q337 828 331 835T325 853Q325 868 333 882T359 897Q372 897 377 890T383 872Q383 856 375 842T349 828ZM172 828Q160
828 154 835T148 853Q148 868 156 882T182 897Q190 897 195 894T203 885T206 872Q206 856 198 842T172 828Z" />
<glyph unicode="&#xd0;" horiz-adv-x="675" d="M42 337L49 373H354L347 337H42ZM48 0L199 714H349Q484 714 560 643T637 426Q637 358 620 296T569 179T482 85T359 23T200 0H48ZM202 36Q280 36 342 56T452 112T532 197T580 304T596 426Q596 557 529 617T339 678H232L95
36H202Z" />
<glyph unicode="&#xd1;" horiz-adv-x="681" d="M48 0L199 714H233L503 68H506Q510 94 515 122T526 179T537 233L640 714H678L527 0H492L222 645H220Q216 625 212 605T205 564T197 522T188 479L87 0H48ZM305 800Q314 834 327 857T360 892T406 904Q430 904 448 894T483
869T514 845T544 834Q566 834 583 847T614 904H646Q637 871 623 847T590 811T542 799Q520 799 503 809T470 834T438 858T404 869Q384 869 367 855T337 800H305Z" />
<glyph unicode="&#xd2;" horiz-adv-x="717" d="M335 -10Q244 -10 188 28T107 130T82 274Q82 331 91 385T119 490T168 583T236 658T324 707T431 725Q545 725 612 656T679 446Q679 402 672 352T648 250T606 153T541 70T452 12T335 -10ZM336 26Q391 26 435 45T512
97T570 173T609 263T631 357T638 445Q638 559 586 624T429 689Q373 689 329 671T251 622T193 550T153 463T130 368T122 275Q122 201 145 145T215 58T336 26ZM470 790Q455 808 435 836T398 893T371 940V950H412Q422 925 436 897T466 844T493 802V790H470Z" />
<glyph unicode="&#xd3;" horiz-adv-x="717" d="M335 -10Q244 -10 188 28T107 130T82 274Q82 331 91 385T119 490T168 583T236 658T324 707T431 725Q545 725 612 656T679 446Q679 402 672 352T648 250T606 153T541 70T452 12T335 -10ZM336 26Q391 26 435 45T512
97T570 173T609 263T631 357T638 445Q638 559 586 624T429 689Q373 689 329 671T251 622T193 550T153 463T130 368T122 275Q122 201 145 145T215 58T336 26ZM419 797Q441 817 466 844T515 900T553 950H597V942Q585 926 567 907T529 866T488 826T447 790H419V797Z"
/>
<glyph unicode="&#xd4;" horiz-adv-x="717" d="M335 -10Q244 -10 188 28T107 130T82 274Q82 331 91 385T119 490T168 583T236 658T324 707T431 725Q545 725 612 656T679 446Q679 402 672 352T648 250T606 153T541 70T452 12T335 -10ZM336 26Q391 26 435 45T512
97T570 173T609 263T631 357T638 445Q638 559 586 624T429 689Q373 689 329 671T251 622T193 550T153 463T130 368T122 275Q122 201 145 145T215 58T336 26ZM322 797Q343 817 370 844T422 898T463 948H498Q505 926 518 899T547 845T576 797L575 790H549Q536 807
523 827T497 868T475 908Q448 880 415 848T352 790H321L322 797Z" />
<glyph unicode="&#xd5;" horiz-adv-x="717" d="M335 -10Q244 -10 188 28T107 130T82 274Q82 331 91 385T119 490T168 583T236 658T324 707T431 725Q545 725 612 656T679 446Q679 402 672 352T648 250T606 153T541 70T452 12T335 -10ZM336 26Q391 26 435 45T512
97T570 173T609 263T631 357T638 445Q638 559 586 624T429 689Q373 689 329 671T251 622T193 550T153 463T130 368T122 275Q122 201 145 145T215 58T336 26ZM300 800Q309 834 322 857T355 892T401 904Q425 904 443 894T478 869T509 845T539 834Q561 834 578 847T609
904H641Q632 871 618 847T585 811T537 799Q515 799 498 809T465 834T433 858T399 869Q379 869 362 855T332 800H300Z" />
<glyph unicode="&#xd6;" horiz-adv-x="717" d="M335 -10Q244 -10 188 28T107 130T82 274Q82 331 91 385T119 490T168 583T236 658T324 707T431 725Q545 725 612 656T679 446Q679 402 672 352T648 250T606 153T541 70T452 12T335 -10ZM336 26Q391 26 435 45T512
97T570 173T609 263T631 357T638 445Q638 559 586 624T429 689Q373 689 329 671T251 622T193 550T153 463T130 368T122 275Q122 201 145 145T215 58T336 26ZM569 828Q557 828 551 835T545 853Q545 868 553 882T579 897Q592 897 597 890T603 872Q603 856 595 842T569
828ZM392 828Q380 828 374 835T368 853Q368 868 376 882T402 897Q410 897 415 894T423 885T426 872Q426 856 418 842T392 828Z" />
<glyph unicode="&#xd7;" horiz-adv-x="570" d="M497 568L520 545L329 353L520 161L497 138L305 329L114 138L90 161L281 353L90 544L114 568L305 377L497 568Z" />
<glyph unicode="&#xd8;" horiz-adv-x="717" d="M58 -29L32 -5L124 97Q102 133 92 178T82 274Q82 331 91 385T119 490T168 583T236 658T324 707T431 725Q490 725 536 706T615 649L698 742L725 720L636 620Q657 589 668 545T679 446Q679 402 672 352T648 250T606
153T541 70T452 12T335 -10Q269 -10 223 11T146 69L58 -29ZM336 26Q391 26 435 45T512 97T570 173T609 263T631 357T638 445Q638 488 631 524T609 588L171 98Q196 65 237 46T336 26ZM589 620Q563 653 524 671T429 689Q373 689 329 671T251 622T193 550T153 463T130
368T122 275Q122 233 129 196T152 129L589 620Z" />
<glyph unicode="&#xd9;" horiz-adv-x="689" d="M300 -10Q234 -10 186 12T112 78T86 184Q86 201 88 220T95 260L192 714H231L135 260Q131 241 129 222T127 186Q127 108 173 67T302 26Q368 26 418 51T503 128T554 256L652 714H692L594 250Q575 162 535 104T436 18T300
-10ZM468 790Q453 808 433 836T396 893T369 940V950H410Q420 925 434 897T464 844T491 802V790H468Z" />
<glyph unicode="&#xda;" horiz-adv-x="689" d="M300 -10Q234 -10 186 12T112 78T86 184Q86 201 88 220T95 260L192 714H231L135 260Q131 241 129 222T127 186Q127 108 173 67T302 26Q368 26 418 51T503 128T554 256L652 714H692L594 250Q575 162 535 104T436 18T300
-10ZM410 797Q432 817 457 844T506 900T544 950H588V942Q576 926 558 907T520 866T479 826T438 790H410V797Z" />
<glyph unicode="&#xdb;" horiz-adv-x="689" d="M300 -10Q234 -10 186 12T112 78T86 184Q86 201 88 220T95 260L192 714H231L135 260Q131 241 129 222T127 186Q127 108 173 67T302 26Q368 26 418 51T503 128T554 256L652 714H692L594 250Q575 162 535 104T436 18T300
-10ZM317 797Q338 817 365 844T417 898T458 948H493Q500 926 513 899T542 845T571 797L570 790H544Q531 807 518 827T492 868T470 908Q443 880 410 848T347 790H316L317 797Z" />
<glyph unicode="&#xdc;" horiz-adv-x="689" d="M300 -10Q234 -10 186 12T112 78T86 184Q86 201 88 220T95 260L192 714H231L135 260Q131 241 129 222T127 186Q127 108 173 67T302 26Q368 26 418 51T503 128T554 256L652 714H692L594 250Q575 162 535 104T436 18T300
-10ZM555 828Q543 828 537 835T531 853Q531 868 539 882T565 897Q578 897 583 890T589 872Q589 856 581 842T555 828ZM378 828Q366 828 360 835T354 853Q354 868 362 882T388 897Q396 897 401 894T409 885T412 872Q412 856 404 842T378 828Z" />
<glyph unicode="&#xdd;" horiz-adv-x="490" d="M169 0L226 270L95 714H135L252 312L537 714H583L266 273L209 0H169ZM314 797Q336 817 361 844T410 900T448 950H492V942Q480 926 462 907T424 866T383 826T342 790H314V797Z" />
<glyph unicode="&#xde;" horiz-adv-x="560" d="M48 0L199 714H239L211 584H328Q397 584 442 564T509 507T532 417Q532 347 509 300T445 223T348 182T230 169H123L88 0H48ZM236 205Q307 205 365 224T457 290T492 415Q492 482 449 515T321 548H204L131 205H236Z" />
<glyph unicode="&#xdf;" horiz-adv-x="542" d="M-84 -240Q-101 -240 -115 -237T-140 -230V-194Q-128 -200 -114 -202T-85 -205Q-48 -205 -25 -179T9 -106L151 564Q165 631 192 675T263 742T366 765Q437 765 475 731T513 645Q513 603 498 576T459 532T410 498Q379
479 355 456T330 393Q330 375 340 360T366 331T397 302Q426 277 448 246T471 164Q471 111 450 72T388 12T285 -10Q241 -10 210 -2T157 19V57Q183 43 215 34T283 25Q354 25 392 60T430 162Q430 188 422 207T401 244T370 276Q339 303 316 328T292 392Q292 429 305
452T341 492T386 522Q408 536 427 551T460 588T473 643Q473 681 444 705T364 730Q313 730 278 711T222 654T189 564L47 -108Q38 -152 20 -181T-24 -225T-84 -240Z" />
<glyph unicode="&#xe0;" horiz-adv-x="551" d="M196 -10Q149 -10 117 13T67 78T50 177Q50 228 61 279T95 378T149 461T223 518T317 540Q362 540 390 521T435 474T457 416H460L488 530H519L407 0H375L400 131H397Q379 101 349 68T280 13T196 -10ZM204 25Q249 25
294 56T374 142T425 264Q431 295 434 317T437 359Q437 428 406 466T318 505Q275 505 239 486T175 435T129 360T100 271T90 177Q90 106 119 66T204 25ZM375 606Q360 624 340 652T303 709T276 756V766H317Q327 741 341 713T371 660T398 618V606H375Z" />
<glyph unicode="&#xe1;" horiz-adv-x="551" d="M196 -10Q149 -10 117 13T67 78T50 177Q50 228 61 279T95 378T149 461T223 518T317 540Q362 540 390 521T435 474T457 416H460L488 530H519L407 0H375L400 131H397Q379 101 349 68T280 13T196 -10ZM204 25Q249 25
294 56T374 142T425 264Q431 295 434 317T437 359Q437 428 406 466T318 505Q275 505 239 486T175 435T129 360T100 271T90 177Q90 106 119 66T204 25ZM307 613Q329 633 354 660T403 716T441 766H485V758Q473 742 455 723T417 682T376 642T335 606H307V613Z" />
<glyph unicode="&#xe2;" horiz-adv-x="551" d="M196 -10Q149 -10 117 13T67 78T50 177Q50 228 61 279T95 378T149 461T223 518T317 540Q362 540 390 521T435 474T457 416H460L488 530H519L407 0H375L400 131H397Q379 101 349 68T280 13T196 -10ZM204 25Q249 25
294 56T374 142T425 264Q431 295 434 317T437 359Q437 428 406 466T318 505Q275 505 239 486T175 435T129 360T100 271T90 177Q90 106 119 66T204 25ZM220 613Q241 633 268 660T320 714T361 764H396Q403 742 416 715T445 661T474 613L473 606H447Q434 623 421 643T395
684T373 724Q346 696 313 664T250 606H219L220 613Z" />
<glyph unicode="&#xe3;" horiz-adv-x="551" d="M196 -10Q149 -10 117 13T67 78T50 177Q50 228 61 279T95 378T149 461T223 518T317 540Q362 540 390 521T435 474T457 416H460L488 530H519L407 0H375L400 131H397Q379 101 349 68T280 13T196 -10ZM204 25Q249 25
294 56T374 142T425 264Q431 295 434 317T437 359Q437 428 406 466T318 505Q275 505 239 486T175 435T129 360T100 271T90 177Q90 106 119 66T204 25ZM181 616Q190 650 203 673T236 708T282 720Q306 720 324 710T359 685T390 661T420 650Q442 650 459 663T490 720H522Q513
687 499 663T466 627T418 615Q396 615 379 625T346 650T314 674T280 685Q260 685 243 671T213 616H181Z" />
<glyph unicode="&#xe4;" horiz-adv-x="551" d="M196 -10Q149 -10 117 13T67 78T50 177Q50 228 61 279T95 378T149 461T223 518T317 540Q362 540 390 521T435 474T457 416H460L488 530H519L407 0H375L400 131H397Q379 101 349 68T280 13T196 -10ZM204 25Q249 25
294 56T374 142T425 264Q431 295 434 317T437 359Q437 428 406 466T318 505Q275 505 239 486T175 435T129 360T100 271T90 177Q90 106 119 66T204 25ZM703 644Q691 644 685 651T679 669Q679 684 687 698T713 713Q726 713 731 706T737 688Q737 672 729 658T703 644ZM526
644Q514 644 508 651T502 669Q502 684 510 698T536 713Q544 713 549 710T557 701T560 688Q560 672 552 658T526 644Z" />
<glyph unicode="&#xe5;" horiz-adv-x="551" d="M196 -10Q149 -10 117 13T67 78T50 177Q50 228 61 279T95 378T149 461T223 518T317 540Q362 540 390 521T435 474T457 416H460L488 530H519L407 0H375L400 131H397Q379 101 349 68T280 13T196 -10ZM204 25Q249 25
294 56T374 142T425 264Q431 295 434 317T437 359Q437 428 406 466T318 505Q275 505 239 486T175 435T129 360T100 271T90 177Q90 106 119 66T204 25ZM354 610Q313 610 283 637T252 711Q252 755 282 783T354 812Q397 812 426 783T456 711Q456 666 427 638T354 610ZM354
639Q387 639 406 660T426 711Q426 742 405 762T354 783Q323 783 303 763T282 711Q282 681 302 660T354 639Z" />
<glyph unicode="&#xe6;" horiz-adv-x="838" d="M191 -10Q147 -10 116 12T67 77T50 177Q50 228 61 279T94 378T148 461T221 518T312 540Q355 540 380 520T419 471T435 416H438L467 530H497L472 417Q507 472 556 506T675 540Q728 540 764 508T800 424Q800 377 776
344T707 291T604 261T472 251H441Q440 241 439 225T438 194Q438 115 477 70T593 25Q633 25 667 36T729 59V24Q702 10 665 0T589 -10Q524 -10 476 23T413 130L385 0H356L380 126H378Q360 93 333 62T271 11T191 -10ZM199 25Q233 25 265 43T325 93T373 170T405 265Q412
296 414 318T417 359Q417 428 390 466T313 505Q271 505 237 486T175 435T129 360T100 271T90 177Q90 105 118 65T199 25ZM487 285Q566 285 628 299T725 344T760 422Q760 456 737 480T670 505Q621 505 576 479T496 404T447 285H487Z" />
<glyph unicode="&#xe7;" horiz-adv-x="452" d="M247 -10Q186 -10 143 16T77 87T54 193Q54 249 66 300T101 394T158 470T236 521T334 540Q368 540 401 534T459 515L447 480Q423 493 393 499T334 505Q279 505 235 481T159 414T110 316T93 195Q93 147 111 109T163
48T250 25Q285 25 315 33T377 55V20Q352 7 320 -1T247 -10ZM150 -240Q134 -240 121 -239T97 -234V-205Q108 -207 120 -208T147 -210Q168 -210 189 -203T226 -180T241 -138Q241 -113 221 -100T159 -86L206 0H238L205 -63Q236 -67 256 -86T277 -138Q277 -170 259
-193T213 -228T150 -240Z" />
<glyph unicode="&#xe8;" horiz-adv-x="493" d="M245 -10Q195 -10 153 11T85 78T59 194Q59 264 79 326T136 437T222 512T330 540Q390 540 425 508T460 423Q460 376 436 344T368 291T264 261T133 251H102Q101 241 100 225T99 194Q99 112 140 69T252 25Q294 25 328
36T390 59V23Q364 10 326 0T245 -10ZM148 285Q227 285 288 299T385 344T421 421Q421 458 397 481T325 505Q281 505 237 479T158 404T108 285H148ZM344 606Q329 624 309 652T272 709T245 756V766H286Q296 741 310 713T340 660T367 618V606H344Z" />
<glyph unicode="&#xe9;" horiz-adv-x="493" d="M245 -10Q195 -10 153 11T85 78T59 194Q59 264 79 326T136 437T222 512T330 540Q390 540 425 508T460 423Q460 376 436 344T368 291T264 261T133 251H102Q101 241 100 225T99 194Q99 112 140 69T252 25Q294 25 328
36T390 59V23Q364 10 326 0T245 -10ZM148 285Q227 285 288 299T385 344T421 421Q421 458 397 481T325 505Q281 505 237 479T158 404T108 285H148ZM285 613Q307 633 332 660T381 716T419 766H463V758Q451 742 433 723T395 682T354 642T313 606H285V613Z" />
<glyph unicode="&#xea;" horiz-adv-x="493" d="M245 -10Q195 -10 153 11T85 78T59 194Q59 264 79 326T136 437T222 512T330 540Q390 540 425 508T460 423Q460 376 436 344T368 291T264 261T133 251H102Q101 241 100 225T99 194Q99 112 140 69T252 25Q294 25 328
36T390 59V23Q364 10 326 0T245 -10ZM148 285Q227 285 288 299T385 344T421 421Q421 458 397 481T325 505Q281 505 237 479T158 404T108 285H148ZM192 613Q213 633 240 660T292 714T333 764H368Q375 742 388 715T417 661T446 613L445 606H419Q406 623 393 643T367
684T345 724Q318 696 285 664T222 606H191L192 613Z" />
<glyph unicode="&#xeb;" horiz-adv-x="493" d="M245 -10Q195 -10 153 11T85 78T59 194Q59 264 79 326T136 437T222 512T330 540Q390 540 425 508T460 423Q460 376 436 344T368 291T264 261T133 251H102Q101 241 100 225T99 194Q99 112 140 69T252 25Q294 25 328
36T390 59V23Q364 10 326 0T245 -10ZM148 285Q227 285 288 299T385 344T421 421Q421 458 397 481T325 505Q281 505 237 479T158 404T108 285H148ZM673 644Q661 644 655 651T649 669Q649 684 657 698T683 713Q696 713 701 706T707 688Q707 672 699 658T673 644ZM496
644Q484 644 478 651T472 669Q472 684 480 698T506 713Q514 713 519 710T527 701T530 688Q530 672 522 658T496 644Z" />
<glyph unicode="&#xec;" horiz-adv-x="217" d="M31 0L144 530H182L70 0H31ZM448 606Q433 624 413 652T376 709T349 756V766H390Q400 741 414 713T444 660T471 618V606H448Z" />
<glyph unicode="&#xed;" horiz-adv-x="217" d="M31 0L144 530H182L70 0H31ZM132 613Q154 633 179 660T228 716T266 766H310V758Q298 742 280 723T242 682T201 642T160 606H132V613Z" />
<glyph unicode="&#xee;" horiz-adv-x="217" d="M31 0L144 530H182L70 0H31ZM305 613Q326 633 353 660T405 714T446 764H481Q488 742 501 715T530 661T559 613L558 606H532Q519 623 506 643T480 684T458 724Q431 696 398 664T335 606H304L305 613Z" />
<glyph unicode="&#xef;" horiz-adv-x="217" d="M31 0L144 530H182L70 0H31ZM272 644Q260 644 254 651T248 669Q248 684 256 698T282 713Q295 713 300 706T306 688Q306 672 298 658T272 644ZM95 644Q83 644 77 651T71 669Q71 684 79 698T105 713Q113 713 118 710T126
701T129 688Q129 672 121 658T95 644Z" />
<glyph unicode="&#xf0;" horiz-adv-x="555" d="M226 -10Q171 -10 131 15T70 83T49 182Q49 237 65 288T113 379T191 443T296 467Q362 467 405 434T461 354H464Q464 431 442 507T375 643L242 568L227 596L354 666Q339 684 321 701T279 734L303 763Q326 745 347 725T386
685L510 754L526 726L407 661Q432 625 453 579T486 477T499 353Q499 298 489 245T457 145T404 64T327 10T226 -10ZM228 25Q263 25 295 36T355 70T403 125T435 198T446 286Q446 308 439 333T414 381T368 418T296 432Q247 432 208 412T143 357T102 277T88 183Q88
112 126 69T228 25Z" />
<glyph unicode="&#xf1;" horiz-adv-x="558" d="M30 0L143 530H176L152 399H154Q171 430 200 462T271 517T364 540Q408 540 438 525T484 481T500 409Q500 393 498 375T491 339L419 0H379L452 343Q456 362 458 376T460 404Q460 455 433 479T356 504Q306 504 259
473T176 387T127 265L70 0H30ZM183 616Q192 650 205 673T238 708T284 720Q308 720 326 710T361 685T392 661T422 650Q444 650 461 663T492 720H524Q515 687 501 663T468 627T420 615Q398 615 381 625T348 650T316 674T282 685Q262 685 245 671T215 616H183Z" />
<glyph unicode="&#xf2;" horiz-adv-x="565" d="M239 -10Q178 -10 137 15T75 87T54 193Q54 253 67 306T104 401T162 475T238 522T328 539Q388 539 428 513T490 442T511 338Q511 282 500 231T465 136T410 60T334 9T239 -10ZM243 25Q285 25 320 40T384 84T431 152T461
239T471 340Q471 387 456 424T408 482T327 504Q286 504 251 490T187 448T137 383T105 297T93 193Q93 115 131 70T243 25ZM357 606Q342 624 322 652T285 709T258 756V766H299Q309 741 323 713T353 660T380 618V606H357Z" />
<glyph unicode="&#xf3;" horiz-adv-x="565" d="M239 -10Q178 -10 137 15T75 87T54 193Q54 253 67 306T104 401T162 475T238 522T328 539Q388 539 428 513T490 442T511 338Q511 282 500 231T465 136T410 60T334 9T239 -10ZM243 25Q285 25 320 40T384 84T431 152T461
239T471 340Q471 387 456 424T408 482T327 504Q286 504 251 490T187 448T137 383T105 297T93 193Q93 115 131 70T243 25ZM304 613Q326 633 351 660T400 716T438 766H482V758Q470 742 452 723T414 682T373 642T332 606H304V613Z" />
<glyph unicode="&#xf4;" horiz-adv-x="565" d="M239 -10Q178 -10 137 15T75 87T54 193Q54 253 67 306T104 401T162 475T238 522T328 539Q388 539 428 513T490 442T511 338Q511 282 500 231T465 136T410 60T334 9T239 -10ZM243 25Q285 25 320 40T384 84T431 152T461
239T471 340Q471 387 456 424T408 482T327 504Q286 504 251 490T187 448T137 383T105 297T93 193Q93 115 131 70T243 25ZM208 613Q229 633 256 660T308 714T349 764H384Q391 742 404 715T433 661T462 613L461 606H435Q422 623 409 643T383 684T361 724Q334 696
301 664T238 606H207L208 613Z" />
<glyph unicode="&#xf5;" horiz-adv-x="565" d="M239 -10Q178 -10 137 15T75 87T54 193Q54 253 67 306T104 401T162 475T238 522T328 539Q388 539 428 513T490 442T511 338Q511 282 500 231T465 136T410 60T334 9T239 -10ZM243 25Q285 25 320 40T384 84T431 152T461
239T471 340Q471 387 456 424T408 482T327 504Q286 504 251 490T187 448T137 383T105 297T93 193Q93 115 131 70T243 25ZM183 616Q192 650 205 673T238 708T284 720Q308 720 326 710T361 685T392 661T422 650Q444 650 461 663T492 720H524Q515 687 501 663T468
627T420 615Q398 615 381 625T348 650T316 674T282 685Q262 685 245 671T215 616H183Z" />
<glyph unicode="&#xf6;" horiz-adv-x="565" d="M239 -10Q178 -10 137 15T75 87T54 193Q54 253 67 306T104 401T162 475T238 522T328 539Q388 539 428 513T490 442T511 338Q511 282 500 231T465 136T410 60T334 9T239 -10ZM243 25Q285 25 320 40T384 84T431 152T461
239T471 340Q471 387 456 424T408 482T327 504Q286 504 251 490T187 448T137 383T105 297T93 193Q93 115 131 70T243 25ZM698 644Q686 644 680 651T674 669Q674 684 682 698T708 713Q721 713 726 706T732 688Q732 672 724 658T698 644ZM521 644Q509 644 503 651T497
669Q497 684 505 698T531 713Q539 713 544 710T552 701T555 688Q555 672 547 658T521 644Z" />
<glyph unicode="&#xf7;" horiz-adv-x="570" d="M74 336V370H536V336H74ZM304 139Q288 139 281 149T273 176Q273 193 280 203T304 213Q323 213 330 203T337 176Q337 160 330 150T304 139ZM304 492Q288 492 281 502T273 529Q273 546 280 556T304 566Q323 566 330
556T337 529Q337 513 330 503T304 492Z" />
<glyph unicode="&#xf8;" horiz-adv-x="565" d="M28 -31L3 -8L81 75Q68 99 61 128T54 193Q54 253 67 306T104 401T162 475T238 522T328 539Q373 539 407 524T464 482L536 558L562 536L484 456Q498 432 504 402T511 339Q511 284 499 233T465 137T410 60T334 9T239
-10Q192 -10 158 6T102 48L28 -31ZM243 25Q285 25 320 40T384 84T432 151T462 237T472 338Q472 362 468 384T456 424L126 75Q145 51 174 38T243 25ZM439 455Q422 477 394 490T327 504Q286 504 251 490T186 449T136 383T104 298T93 194Q93 168 97 145T109 105L439
455Z" />
<glyph unicode="&#xf9;" horiz-adv-x="558" d="M190 -10Q147 -10 117 5T71 49T55 121Q55 136 57 154T64 191L135 530H174L101 186Q97 169 96 154T94 126Q94 75 121 50T198 25Q250 25 297 57T379 143T428 264L485 530H523L411 0H378L403 131H400Q384 101 354 68T283
13T190 -10ZM367 606Q352 624 332 652T295 709T268 756V766H309Q319 741 333 713T363 660T390 618V606H367Z" />
<glyph unicode="&#xfa;" horiz-adv-x="558" d="M190 -10Q147 -10 117 5T71 49T55 121Q55 136 57 154T64 191L135 530H174L101 186Q97 169 96 154T94 126Q94 75 121 50T198 25Q250 25 297 57T379 143T428 264L485 530H523L411 0H378L403 131H400Q384 101 354 68T283
13T190 -10ZM304 613Q326 633 351 660T400 716T438 766H482V758Q470 742 452 723T414 682T373 642T332 606H304V613Z" />
<glyph unicode="&#xfb;" horiz-adv-x="558" d="M190 -10Q147 -10 117 5T71 49T55 121Q55 136 57 154T64 191L135 530H174L101 186Q97 169 96 154T94 126Q94 75 121 50T198 25Q250 25 297 57T379 143T428 264L485 530H523L411 0H378L403 131H400Q384 101 354 68T283
13T190 -10ZM212 613Q233 633 260 660T312 714T353 764H388Q395 742 408 715T437 661T466 613L465 606H439Q426 623 413 643T387 684T365 724Q338 696 305 664T242 606H211L212 613Z" />
<glyph unicode="&#xfc;" horiz-adv-x="558" d="M190 -10Q147 -10 117 5T71 49T55 121Q55 136 57 154T64 191L135 530H174L101 186Q97 169 96 154T94 126Q94 75 121 50T198 25Q250 25 297 57T379 143T428 264L485 530H523L411 0H378L403 131H400Q384 101 354 68T283
13T190 -10ZM695 644Q683 644 677 651T671 669Q671 684 679 698T705 713Q718 713 723 706T729 688Q729 672 721 658T695 644ZM518 644Q506 644 500 651T494 669Q494 684 502 698T528 713Q536 713 541 710T549 701T552 688Q552 672 544 658T518 644Z" />
<glyph unicode="&#xfd;" horiz-adv-x="422" d="M-50 -242Q-71 -242 -84 -240T-110 -232V-197Q-98 -202 -84 -205T-50 -208Q-13 -208 16 -181T78 -96L136 4L50 530H88L142 192Q147 161 151 133T157 83T161 44H163Q171 59 181 81T206 129T236 183L428 530H470L112
-110Q88 -152 64 -182T13 -227T-50 -242ZM224 613Q246 633 271 660T320 716T358 766H402V758Q390 742 372 723T334 682T293 642T252 606H224V613Z" />
<glyph unicode="&#xfe;" horiz-adv-x="570" d="M-18 -234L192 760H231L186 551Q179 517 170 476T150 399H153Q173 433 204 465T275 518T362 539Q433 539 474 489T516 352Q516 302 506 251T474 153T419 69T343 11T245 -10Q198 -10 167 8T117 54T93 113H90Q86 83
80 49T67 -14L20 -234H-18ZM244 25Q291 25 327 44T392 95T439 170T467 259T477 353Q477 424 445 464T353 505Q305 505 258 474T175 389T123 262Q119 244 117 228T114 198T113 170Q113 98 149 62T244 25Z" />
<glyph unicode="&#xff;" horiz-adv-x="422" d="M-50 -242Q-71 -242 -84 -240T-110 -232V-197Q-98 -202 -84 -205T-50 -208Q-13 -208 16 -181T78 -96L136 4L50 530H88L142 192Q147 161 151 133T157 83T161 44H163Q171 59 181 81T206 129T236 183L428 530H470L112
-110Q88 -152 64 -182T13 -227T-50 -242ZM621 644Q609 644 603 651T597 669Q597 684 605 698T631 713Q644 713 649 706T655 688Q655 672 647 658T621 644ZM444 644Q432 644 426 651T420 669Q420 684 428 698T454 713Q462 713 467 710T475 701T478 688Q478 672 470
658T444 644Z" />
<glyph unicode="&#x2013;" horiz-adv-x="480" d="M36 253L43 289H443L436 253H36Z" />
<glyph unicode="&#x2014;" horiz-adv-x="956" d="M36 253L43 289H919L912 253H36Z" />
<glyph unicode="&#x2018;" horiz-adv-x="132" d="M64 478Q79 518 98 559T139 640T184 714H213Q197 687 181 656T151 591T125 527T104 469H69L64 478Z" />
<glyph unicode="&#x2019;" horiz-adv-x="132" d="M60 469Q82 505 103 548T141 635T169 714H205L210 705Q195 665 176 624T135 544T90 469H60Z" />
<glyph unicode="&#x201a;" horiz-adv-x="202" d="M-43 -129Q-21 -93 0 -50T38 37T67 116H102L107 107Q93 67 74 26T32 -54T-13 -129H-43Z" />
<glyph unicode="&#x201c;" horiz-adv-x="274" d="M206 478Q221 518 239 559T280 640T326 714H355Q334 678 313 635T275 548T246 469H210L206 478ZM64 478Q79 518 98 559T139 640T184 714H213Q197 687 181 656T151 591T125 527T104 469H69L64 478Z" />
<glyph unicode="&#x201d;" horiz-adv-x="274" d="M202 469Q224 505 244 548T282 635T311 714H347L351 705Q337 665 318 624T277 544T231 469H202ZM60 469Q82 505 103 548T141 635T169 714H205L210 705Q195 665 176 624T135 544T90 469H60Z" />
<glyph unicode="&#x201e;" horiz-adv-x="351" d="M99 -129Q121 -93 142 -50T180 37T208 116H244L249 107Q234 67 215 26T174 -54T129 -129H99ZM-43 -129Q-21 -93 0 -50T38 37T67 116H102L107 107Q93 67 74 26T32 -54T-13 -129H-43Z" />
<glyph unicode="&#x2022;" horiz-adv-x="376" d="M202 287Q175 287 161 303T146 348Q146 372 154 394T178 429T219 443Q237 443 249 436T268 414T275 380Q275 358 267 337T242 301T202 287Z" />
<glyph unicode="&#x2039;" horiz-adv-x="226" d="M131 80L24 271L27 284L212 472L233 451L68 273L158 94L131 80Z" />
<glyph unicode="&#x203a;" horiz-adv-x="226" d="M16 80L-4 101L161 279L71 459L98 472L204 281L202 268L16 80Z" />
</font>
</defs>
</svg>
