<?xml version="1.0" standalone="no"?>
<!DOCTYPE svg PUBLIC "-//W3C//DTD SVG 1.1//EN" "http://www.w3.org/Graphics/SVG/1.1/DTD/svg11.dtd">
<svg xmlns="http://www.w3.org/2000/svg">
<defs >
<font id="NotoSans" horiz-adv-x="575" ><font-face
    font-family="Noto Sans Light"
    units-per-em="1000"
    panose-1="2 11 5 2 4 5 4 2 2 4"
    ascent="1069"
    descent="-293"
    alphabetic="0" />
<glyph unicode=" " horiz-adv-x="260" />
<glyph unicode="!" horiz-adv-x="246" d="M144 188H103L90 714H158L144 188ZM79 39Q79 63 90 75T122 88Q144 88 155 76T167 39Q167 14 156 2T122 -11Q102 -11 91 1T79 39Z" />
<glyph unicode="&quot;" horiz-adv-x="364" d="M131 714L119 456H81L69 714H131ZM295 714L283 456H246L234 714H295Z" />
<glyph unicode="#" horiz-adv-x="646" d="M474 449L438 264H583V218H429L387 0H339L381 218H210L169 0H121L162 218H27V264H171L207 449H65V494H215L257 714H306L264 494H435L477 714H524L482 494H619V449H474ZM219 264H390L426 449H255L219 264Z" />
<glyph unicode="$" horiz-adv-x="571" d="M253 30Q194 31 146 39T65 61V118Q99 103 149 93T253 81V341Q195 360 153 382T87 438T63 522Q63 573 87 608T154 664T253 688V759H297V688Q344 687 386 678T466 651L447 603Q410 619 372 627T297 638V383Q358 363 402
341T469 287T493 203Q493 126 440 83T297 32V-58H253V30ZM297 83Q362 88 399 117T436 201Q436 234 421 256T376 294T297 325V83ZM253 637Q213 635 183 622T137 585T120 527Q120 491 136 467T182 427T253 398V637Z" />
<glyph unicode="%" horiz-adv-x="812" d="M196 724Q268 724 303 667T339 501Q339 392 303 334T195 276Q127 276 91 334T54 501Q54 610 90 667T196 724ZM196 681Q151 681 128 636T104 501Q104 412 127 366T195 320Q243 320 266 366T289 501Q289 589 267 635T196
681ZM631 714L235 0H182L578 714H631ZM615 438Q686 438 722 381T758 215Q758 106 722 48T614 -10Q546 -10 510 48T473 215Q473 324 509 381T615 438ZM615 394Q570 394 547 350T523 215Q523 125 546 80T614 34Q662 34 685 80T708 215Q708 303 686 348T615 394Z"
/>
<glyph unicode="&amp;" horiz-adv-x="717" d="M304 725Q354 725 391 707T448 656T469 576Q469 510 426 467T312 386L530 170Q558 203 578 247T610 343H668Q653 280 628 228T567 132L699 0H622L529 95Q498 64 462 41T382 4T280 -10Q213 -10 164 12T86 78T58 183Q58
236 78 273T136 339T227 396Q199 425 177 452T143 508T130 573Q130 620 151 654T212 706T304 725ZM262 359Q216 336 184 312T135 258T118 184Q118 117 163 80T281 42Q355 42 404 67T492 131L262 359ZM303 677Q250 677 218 649T186 573Q186 532 209 499T275 421Q342
455 377 490T412 576Q412 622 383 649T303 677Z" />
<glyph unicode="&apos;" horiz-adv-x="199" d="M131 714L119 456H81L69 714H131Z" />
<glyph unicode="(" horiz-adv-x="278" d="M41 274Q41 360 57 439T107 587T187 714H245Q172 623 136 511T99 275Q99 195 115 119T164 -26T245 -158H187Q140 -100 107 -32T58 113T41 274Z" />
<glyph unicode=")" horiz-adv-x="278" d="M237 278Q237 194 221 116T172 -32T91 -158H34Q83 -97 115 -27T163 121T179 278Q179 359 163 436T115 583T33 714H91Q140 656 172 587T220 441T237 278Z" />
<glyph unicode="*" horiz-adv-x="551" d="M305 759L292 560L485 622L496 562L306 526L428 366L373 334L273 506L177 334L121 366L242 526L52 562L63 622L255 560L242 759H305Z" />
<glyph unicode="+" horiz-adv-x="571" d="M309 377H518V329H309V117H261V329H53V377H261V589H309V377Z" />
<glyph unicode="," horiz-adv-x="226" d="M159 105Q151 69 139 28T113 -53T83 -129H40Q52 -85 62 -43T80 39T93 116H154L159 105Z" />
<glyph unicode="-" horiz-adv-x="322" d="M40 244V296H282V244H40Z" />
<glyph unicode="." horiz-adv-x="244" d="M79 39Q79 63 90 75T122 88Q144 88 155 76T167 39Q167 14 156 2T122 -11Q102 -11 91 1T79 39Z" />
<glyph unicode="/" horiz-adv-x="347" d="M336 714L69 0H12L279 714H336Z" />
<glyph unicode="0" horiz-adv-x="571" d="M515 359Q515 270 502 202T460 86T389 15T285 -10Q210 -10 159 32T82 156T56 359Q56 469 78 551T151 679T286 725Q368 725 418 680T492 553T515 359ZM113 359Q113 252 131 181T188 75T285 40Q347 40 384 75T439 181T457
359Q457 459 442 529T389 637T286 675Q221 675 184 637T130 529T113 359Z" />
<glyph unicode="1" horiz-adv-x="571" d="M338 0H282V531Q282 560 282 581T283 620T284 654Q270 641 258 631T226 605L127 528L96 568L290 714H338V0Z" />
<glyph unicode="2" horiz-adv-x="571" d="M506 0H54V48L259 261Q311 314 345 356T398 440T416 534Q416 601 377 637T272 674Q224 674 182 657T99 608L68 648Q98 672 131 689T199 715T272 724Q334 724 379 701T450 636T475 537Q475 479 454 431T396 337T306 239L127
55V53H506V0Z" />
<glyph unicode="3" horiz-adv-x="571" d="M482 549Q482 502 463 466T410 407T332 376V373Q416 362 460 318T504 199Q504 138 476 91T390 17T244 -10Q187 -10 137 0T46 31V86Q88 65 140 53T245 40Q347 40 395 83T444 200Q444 252 418 284T344 330T231 345H155V395H232Q288
395 331 412T398 463T423 546Q423 610 383 642T273 675Q236 675 203 668T141 646T81 610L52 650Q93 682 148 703T273 724Q373 724 427 677T482 549Z" />
<glyph unicode="4" horiz-adv-x="571" d="M556 178H437V0H382V178H23V225L378 718H437V230H556V178ZM382 495Q382 524 382 546T382 586T383 621T385 655H382Q369 632 357 612T328 569L84 230H382V495Z" />
<glyph unicode="5" horiz-adv-x="571" d="M275 432Q347 432 400 408T481 337T510 223Q510 151 479 99T389 18T251 -10Q195 -10 148 1T69 31V87Q104 66 152 53T251 40Q312 40 357 60T427 121T452 218Q452 296 405 339T260 383Q223 383 187 378T121 364L89 385L118
714H464V662H167L146 417Q167 421 199 426T275 432Z" />
<glyph unicode="6" horiz-adv-x="571" d="M62 304Q62 381 73 446T109 562T170 650T258 706T375 725Q400 725 425 723T468 714V663Q450 670 426 673T376 677Q312 677 264 655T185 590T138 485T118 343H122Q136 369 161 392T223 429T311 443Q375 443 421 417T493
343T519 228Q519 156 493 103T417 20T299 -10Q242 -10 198 13T123 78T78 178T62 304ZM298 40Q375 40 418 88T462 228Q462 306 423 351T302 396Q247 396 207 374T144 319T122 253Q122 221 131 185T160 115T215 61T298 40Z" />
<glyph unicode="7" horiz-adv-x="571" d="M160 0L455 662H51V714H517V672L223 0H160Z" />
<glyph unicode="8" horiz-adv-x="571" d="M284 724Q346 724 392 705T463 648T489 557Q489 514 470 482T417 425T339 380Q390 360 429 333T491 270T513 183Q513 123 484 80T403 14T284 -10Q214 -10 163 13T85 79T57 179Q57 231 78 268T138 332T224 377Q184 396
152 420T100 477T80 557Q80 609 106 646T179 704T284 724ZM113 178Q113 115 157 77T283 38Q362 38 409 76T456 183Q456 222 438 251T384 304T298 345L276 353Q227 335 191 312T134 256T113 178ZM284 676Q220 676 178 645T136 555Q136 515 155 488T209 440T288 403Q333
422 365 442T414 490T432 556Q432 615 393 645T284 676Z" />
<glyph unicode="9" horiz-adv-x="571" d="M510 411Q510 335 499 270T463 153T402 65T314 9T197 -11Q172 -11 144 -8T98 1V52Q116 46 142 42T196 38Q260 38 307 60T386 125T434 230T453 372H449Q435 347 410 324T348 286T259 271Q195 271 149 297T78 371T53 487Q53
559 79 612T155 695T274 724Q332 724 376 701T450 637T495 538T510 411ZM274 675Q197 675 154 627T110 488Q110 409 149 364T269 318Q325 318 365 340T427 396T450 463Q450 493 441 530T412 600T357 654T274 675Z" />
<glyph unicode=":" horiz-adv-x="244" d="M79 39Q79 63 90 75T122 88Q144 88 155 76T167 39Q167 14 156 2T122 -11Q102 -11 91 1T79 39ZM79 492Q79 517 90 529T122 541Q144 541 155 529T167 492Q167 467 156 455T122 442Q102 442 91 454T79 492Z" />
<glyph unicode=";" horiz-adv-x="244" d="M154 105Q146 69 134 28T108 -53T79 -129H35Q44 -97 52 -65T66 -1T78 59T88 116H149L154 105ZM78 492Q78 517 89 529T121 541Q143 541 154 529T166 492Q166 467 155 455T121 442Q101 442 90 454T78 492Z" />
<glyph unicode="&lt;" horiz-adv-x="571" d="M518 127L53 338V372L518 597V545L118 357L518 179V127Z" />
<glyph unicode="=" horiz-adv-x="571" d="M56 430V477H515V430H56ZM56 228V276H515V228H56Z" />
<glyph unicode="&gt;" horiz-adv-x="571" d="M53 179L453 357L53 545V597L518 372V338L53 127V179Z" />
<glyph unicode="?" horiz-adv-x="424" d="M142 207Q142 251 149 280T175 334T227 385Q264 414 288 437T324 487T336 551Q336 612 298 642T196 673Q153 673 117 663T46 635L25 683Q67 703 108 713T199 724Q288 724 339 680T391 552Q391 504 376 471T332 410T266
354Q237 331 220 311T197 265T190 202V188H142V207ZM125 39Q125 63 136 75T169 88Q190 88 201 76T213 39Q213 14 202 2T169 -11Q148 -11 137 1T125 39Z" />
<glyph unicode="@" horiz-adv-x="889" d="M834 354Q834 306 824 262T793 183T742 128T669 108Q624 108 597 135T565 204H562Q542 158 504 133T414 108Q340 108 299 156T258 290Q258 355 284 405T358 484T470 513Q510 513 547 507T611 491L602 317Q601 299 601
283T600 252Q600 199 618 176T672 152Q710 152 735 178T772 251T785 355Q785 451 748 520T640 627T475 665Q390 665 322 639T205 562T131 442T105 284Q105 179 142 105T251 -9T424 -49Q479 -49 533 -37T632 -7V-55Q589 -73 537 -83T424 -94Q309 -94 227 -49T100
81T55 282Q55 380 84 459T169 594T302 680T475 710Q556 710 621 686T735 615T808 503T834 354ZM311 289Q311 221 339 187T421 152Q484 152 515 195T552 319L559 457Q541 463 519 466T471 469Q419 469 383 445T329 381T311 289Z" />
<glyph unicode="A" horiz-adv-x="608" d="M547 0L452 246H156L60 0H0L281 717H334L608 0H547ZM339 556Q335 566 329 583T317 619T306 653Q301 636 296 618T284 584T274 555L175 299H434L339 556Z" />
<glyph unicode="B" horiz-adv-x="632" d="M298 714Q430 714 493 673T556 540Q556 499 540 465T493 409T417 378V375Q469 367 505 346T559 289T577 203Q577 134 546 89T458 22T326 0H100V714H298ZM311 399Q410 399 453 433T496 534Q496 603 449 633T298 663H158V399H311ZM158
349V51H321Q420 51 467 90T515 206Q515 256 493 287T426 334T312 349H158Z" />
<glyph unicode="C" horiz-adv-x="623" d="M404 672Q338 672 286 650T197 586T142 487T123 359Q123 263 153 192T244 81T394 42Q447 42 490 50T572 71V20Q535 6 491 -2T388 -10Q280 -10 208 36T99 165T62 359Q62 439 85 505T152 621T259 697T405 724Q457 724 504
714T592 685L569 634Q531 653 490 662T404 672Z" />
<glyph unicode="D" horiz-adv-x="711" d="M649 364Q649 244 607 163T481 41T277 0H100V714H299Q412 714 490 674T608 557T649 364ZM588 362Q588 463 555 529T455 629T287 663H158V51H272Q431 51 509 129T588 362Z" />
<glyph unicode="E" horiz-adv-x="553" d="M492 0H100V714H492V662H158V401H473V349H158V52H492V0Z" />
<glyph unicode="F" horiz-adv-x="506" d="M158 0H100V714H493V662H158V368H474V316H158V0Z" />
<glyph unicode="G" horiz-adv-x="724" d="M387 364H647V32Q594 11 536 1T410 -10Q297 -10 220 33T102 159T62 356Q62 465 106 548T231 678T428 725Q486 725 538 715T638 682L615 631Q570 652 522 662T425 673Q331 673 263 633T159 522T123 357Q123 254 157 184T257
78T422 42Q474 42 515 49T589 68V311H387V364Z" />
<glyph unicode="H" horiz-adv-x="724" d="M623 0H565V348H158V0H100V714H158V400H565V714H623V0Z" />
<glyph unicode="I" horiz-adv-x="311" d="M261 0H51V36L127 47V666L51 678V714H261V678L185 666V47L261 36V0Z" />
<glyph unicode="J" horiz-adv-x="252" d="M-11 -182Q-37 -182 -55 -178T-88 -169V-117Q-73 -122 -54 -125T-12 -129Q24 -129 49 -115T86 -70T99 5V714H157V7Q157 -52 139 -94T83 -159T-11 -182Z" />
<glyph unicode="K" horiz-adv-x="589" d="M589 0H519L247 370L158 285V0H100V714H158V343Q179 367 201 390T245 437L509 714H580L290 410L589 0Z" />
<glyph unicode="L" horiz-adv-x="515" d="M100 0V714H158V53H493V0H100Z" />
<glyph unicode="M" horiz-adv-x="872" d="M410 0L154 653H151Q152 635 153 613T154 566T155 515V0H100V714H188L434 89H437L686 714H772V0H714V521Q714 543 714 566T716 611T718 652H715L457 0H410Z" />
<glyph unicode="N" horiz-adv-x="729" d="M629 0H567L153 624H150Q152 598 152 570T154 513T155 451V0H100V714H162L575 92H578Q577 113 576 142T575 202T574 261V714H629V0Z" />
<glyph unicode="O" horiz-adv-x="768" d="M705 358Q705 276 685 209T625 93T524 17T384 -10Q303 -10 243 17T142 93T82 209T62 359Q62 468 98 550T207 679T387 725Q490 725 561 681T668 554T705 358ZM123 359Q123 264 151 193T237 82T384 42Q474 42 531 81T616
191T644 358Q644 507 580 590T387 673Q298 673 239 634T152 524T123 359Z" />
<glyph unicode="P" horiz-adv-x="589" d="M278 714Q408 714 471 664T535 512Q535 461 519 420T469 351T384 307T263 292H158V0H100V714H278ZM272 663H158V343H257Q326 343 375 358T449 410T475 509Q475 589 426 626T272 663Z" />
<glyph unicode="Q" horiz-adv-x="768" d="M705 358Q705 267 680 193T604 70T478 2L634 -170H552L415 -8Q407 -9 400 -9T384 -10Q303 -10 243 17T142 93T82 209T62 359Q62 468 98 550T207 679T387 725Q490 725 561 681T668 554T705 358ZM123 359Q123 264 151 193T237
82T384 42Q474 42 531 81T616 191T644 358Q644 507 580 590T387 673Q298 673 239 634T152 524T123 359Z" />
<glyph unicode="R" horiz-adv-x="600" d="M278 714Q364 714 421 695T506 632T535 518Q535 463 515 425T461 362T383 324L579 0H510L328 308H158V0H100V714H278ZM273 663H158V358H293Q380 358 427 399T475 516Q475 571 453 603T387 649T273 663Z" />
<glyph unicode="S" horiz-adv-x="546" d="M496 186Q496 122 464 79T376 13T249 -10Q206 -10 171 -6T106 6T54 22V79Q92 64 142 53T252 42Q307 42 348 57T413 104T437 182Q437 225 418 252T358 299T254 341Q209 357 174 374T113 414T75 468T62 543Q62 602 92 642T173
703T290 724Q343 724 389 715T478 686L459 636Q417 654 374 663T288 672Q239 672 202 658T143 615T121 544Q121 499 141 471T199 424T292 386Q356 365 401 341T471 280T496 186Z" />
<glyph unicode="T" horiz-adv-x="531" d="M294 0H236V662H6V714H524V662H294V0Z" />
<glyph unicode="U" horiz-adv-x="722" d="M629 252Q629 171 598 112T506 22T359 -10Q230 -10 162 60T93 254V714H151V254Q151 150 205 96T362 42Q430 42 476 66T547 137T572 248V714H629V252Z" />
<glyph unicode="V" horiz-adv-x="582" d="M582 714L320 0H262L0 714H61L250 200Q259 176 266 153T280 109T291 69Q296 88 302 108T316 152T333 201L520 714H582Z" />
<glyph unicode="W" horiz-adv-x="900" d="M878 714L684 0H627L477 525Q472 543 468 559T459 591T452 619T446 642Q445 632 443 620T437 595T430 566T421 535L272 0H215L23 714H83L213 224Q218 204 223 185T232 148T239 114T246 80Q249 97 252 114T260 150T269
187T280 227L418 714H477L619 224Q625 203 630 184T639 146T647 111T654 78Q657 101 661 123T672 170T686 224L818 714H878Z" />
<glyph unicode="X" horiz-adv-x="548" d="M547 0H481L274 330L64 0H1L240 371L21 714H86L276 412L467 714H530L309 372L547 0Z" />
<glyph unicode="Y" horiz-adv-x="536" d="M268 332L472 714H536L298 276V0H240V272L0 714H64L268 332Z" />
<glyph unicode="Z" d="M536 0H37V43L452 662H57V714H525V671L110 53H536V0Z" />
<glyph unicode="[" horiz-adv-x="321" d="M296 -158H84V714H296V666H140V-109H296V-158Z" />
<glyph unicode="\" horiz-adv-x="347" d="M69 714L336 0H279L12 714H69Z" />
<glyph unicode="]" horiz-adv-x="321" d="M25 -109H182V666H25V714H237V-158H25V-109Z" />
<glyph unicode="^" horiz-adv-x="571" d="M42 273L266 719H303L529 273H476L284 656L96 273H42Z" />
<glyph unicode="_" horiz-adv-x="418" d="M420 -135H-2V-90H420V-135Z" />
<glyph unicode="`" horiz-adv-x="265" d="M108 766Q121 745 141 717T184 662T225 615V606H185Q167 622 146 641T105 682T68 722T40 758V766H108Z" />
<glyph unicode="a" horiz-adv-x="536" d="M276 541Q366 541 410 498T454 358V0H411L401 90H398Q379 60 355 38T296 3T212 -10Q161 -10 124 7T67 58T47 139Q47 219 112 260T301 307L398 312V349Q398 428 367 460T274 493Q233 493 195 483T119 453L101 499Q139 517
183 529T276 541ZM308 265Q207 260 157 230T107 139Q107 90 137 64T222 38Q306 38 351 85T398 217V269L308 265Z" />
<glyph unicode="b" horiz-adv-x="599" d="M144 550Q144 521 143 489T141 436H144Q164 482 210 512T325 542Q428 542 485 473T542 267Q542 183 517 121T441 25T317 -10Q250 -10 208 18T145 86H141L130 0H87V760H144V550ZM318 493Q256 493 218 467T162 391T144 267V260Q144
153 182 96T311 39Q396 39 439 98T483 268Q483 380 442 436T318 493Z" />
<glyph unicode="c" horiz-adv-x="476" d="M301 -10Q224 -10 169 22T86 116T57 263Q57 353 89 415T179 510T313 542Q351 542 385 535T445 516L429 467Q402 478 371 484T312 491Q249 491 206 464T139 385T116 264Q116 198 136 148T196 69T301 41Q341 41 375 49T438
69V18Q412 6 379 -2T301 -10Z" />
<glyph unicode="d" horiz-adv-x="599" d="M279 -10Q172 -10 115 59T57 261Q57 398 117 470T284 542Q329 542 362 529T418 492T455 441H459Q458 464 457 493T455 545V760H512V0H466L458 93H455Q441 65 418 42T361 4T279 -10ZM286 39Q379 39 417 95T456 257V266Q456
376 418 434T290 493Q205 493 161 433T116 260Q116 152 158 96T286 39Z" />
<glyph unicode="e" horiz-adv-x="552" d="M290 542Q358 542 404 511T473 424T496 298V259H116Q117 153 166 97T307 40Q356 40 393 48T474 76V24Q435 7 396 -1T305 -10Q225 -10 170 23T86 117T57 262Q57 343 84 406T164 506T290 542ZM289 494Q216 494 171 446T118
306H437Q437 362 421 404T373 470T289 494Z" />
<glyph unicode="f" horiz-adv-x="309" d="M295 486H168V0H111V486H13V517L111 534V587Q111 647 128 686T181 745T270 765Q299 765 321 761T363 750L350 703Q333 709 312 713T271 717Q217 717 193 687T168 587V532H295V486Z" />
<glyph unicode="g" horiz-adv-x="599" d="M283 542Q346 542 387 518T453 451H457L465 532H511V-17Q511 -86 488 -136T414 -213T282 -240Q222 -240 176 -230T92 -204V-149Q129 -167 178 -179T284 -191Q372 -191 413 -145T455 -20V11Q455 32 455 53T457 94H454Q431
43 386 17T276 -10Q173 -10 115 60T57 262Q57 391 115 466T283 542ZM289 493Q231 493 193 466T136 387T116 261Q116 153 159 96T283 39Q333 39 366 54T418 98T446 164T455 246V281Q455 349 439 396T387 468T289 493Z" />
<glyph unicode="h" horiz-adv-x="596" d="M145 517Q145 496 144 478T141 440H145Q159 470 184 492T244 528T325 542Q386 542 428 522T491 458T513 348V0H457V344Q457 421 422 457T320 493Q261 493 223 471T165 403T145 290V0H88V760H145V517Z" />
<glyph unicode="i" horiz-adv-x="233" d="M145 532V0H88V532H145ZM117 729Q136 729 146 718T156 686Q156 665 146 654T117 642Q98 642 88 653T78 686Q78 706 88 717T117 729Z" />
<glyph unicode="j" horiz-adv-x="233" d="M17 -240Q-5 -240 -22 -237T-52 -229V-180Q-37 -186 -22 -188T11 -191Q47 -191 67 -169T88 -99V532H145V-100Q145 -145 130 -176T86 -224T17 -240ZM78 686Q78 706 88 717T117 729Q136 729 146 718T156 686Q156 665 146
654T117 642Q98 642 88 653T78 686Z" />
<glyph unicode="k" horiz-adv-x="494" d="M144 374Q144 342 144 308T142 240H143Q152 250 162 262T183 288T204 312L406 532H475L264 304L492 0H424L225 267L144 185V0H88V760H144V374Z" />
<glyph unicode="l" horiz-adv-x="233" d="M145 0H88V760H145V0Z" />
<glyph unicode="m" horiz-adv-x="894" d="M644 542Q723 542 767 498T812 355V0H756V353Q756 424 724 458T636 493Q560 493 519 449T478 311V0H422V353Q422 401 407 432T366 478T302 493Q252 493 217 472T164 409T145 302V0H88V532H134L142 448H146Q160 474 182
495T236 529T310 542Q368 542 408 517T465 443H468Q491 490 536 516T644 542Z" />
<glyph unicode="n" horiz-adv-x="596" d="M326 542Q417 542 465 496T513 348V0H457V344Q457 421 422 457T320 493Q232 493 189 442T145 290V0H88V532H134L142 440H146Q161 470 186 493T246 529T326 542Z" />
<glyph unicode="o" horiz-adv-x="590" d="M533 267Q533 204 518 154T472 67T397 10T294 -10Q239 -10 195 9T121 65T74 153T57 267Q57 353 86 414T169 509T298 542Q375 542 427 508T506 412T533 267ZM116 267Q116 199 135 148T194 68T295 39Q357 39 396 67T455
147T474 267Q474 333 456 384T399 464T297 493Q207 493 162 433T116 267Z" />
<glyph unicode="p" horiz-adv-x="599" d="M327 542Q429 542 486 474T543 269Q543 179 516 117T440 22T321 -10Q275 -10 240 4T182 41T145 92H141Q143 67 144 38T145 -17V-236H88V532H135L142 433H145Q159 462 182 487T242 527T327 542ZM319 493Q260 493 222 468T165
395T145 276V266Q145 190 163 140T219 65T315 39Q370 39 407 67T464 146T484 270Q484 378 443 435T319 493Z" />
<glyph unicode="q" horiz-adv-x="599" d="M454 -4Q454 17 454 46T457 97H453Q434 51 388 21T271 -10Q170 -10 113 59T56 265Q56 349 81 411T157 507T281 542Q348 542 390 514T453 444H456L465 532H511V-236H454V-4ZM280 39Q341 39 379 64T436 138T454 257V271Q454
380 415 436T287 493Q201 493 158 432T115 264Q115 155 156 97T280 39Z" />
<glyph unicode="r" horiz-adv-x="394" d="M307 541Q326 541 344 539T379 533L370 480Q354 484 338 486T304 489Q267 489 238 475T188 435T156 373T145 292V0H88V532H136L142 433H145Q159 463 181 487T235 526T307 541Z" />
<glyph unicode="s" horiz-adv-x="469" d="M423 141Q423 93 399 60T329 8T217 -10Q161 -10 119 0T46 24V79Q82 62 126 50T218 38Q297 38 332 65T367 137Q367 167 351 186T302 221T221 253Q172 270 134 287T75 332T54 406Q54 471 106 506T245 542Q293 542 335 533T411
509L390 462Q359 476 321 485T242 494Q179 494 144 472T109 408Q109 377 126 359T175 327T253 297Q301 280 339 262T400 216T423 141Z" />
<glyph unicode="t" horiz-adv-x="340" d="M238 39Q261 39 281 42T315 51V5Q300 -1 278 -5T231 -10Q187 -10 156 6T109 58T92 148V486H13V518L92 537L112 659H149V532H312V486H149V151Q149 96 170 68T238 39Z" />
<glyph unicode="u" horiz-adv-x="596" d="M507 532V0H461L452 91H449Q435 62 410 39T349 3T268 -10Q207 -10 165 11T102 76T81 184V532H138V189Q138 113 172 76T275 39Q334 39 372 62T430 130T450 242V532H507Z" />
<glyph unicode="v" horiz-adv-x="469" d="M204 0L0 532H61L193 179Q201 158 208 136T222 94T233 57H236Q241 74 247 94T261 136T277 179L409 532H469L265 0H204Z" />
<glyph unicode="w" horiz-adv-x="736" d="M406 346Q401 363 396 379T387 409T380 438T373 464H370Q367 452 364 438T356 409T348 378T337 345L225 0H164L14 532H74L163 204Q172 174 178 150T188 105T196 66H199Q202 78 205 92T213 123T222 158T234 196L344 532H402L508
196Q515 172 522 149T534 105T543 67H546Q548 83 552 103T563 149T577 204L664 532H722L577 0H515L406 346Z" />
<glyph unicode="x" horiz-adv-x="504" d="M216 273L31 532H97L251 312L404 532H469L285 273L480 0H414L251 234L87 0H22L216 273Z" />
<glyph unicode="y" horiz-adv-x="469" d="M1 532H61L188 202Q199 172 208 147T224 101T235 61H238Q245 85 257 121T285 200L409 532H470L230 -94Q213 -141 191 -174T139 -224T66 -241Q47 -241 32 -239T3 -232V-184Q15 -188 29 -190T59 -193Q88 -193 108 -182T145
-147T175 -87L209 2L1 532Z" />
<glyph unicode="z" horiz-adv-x="463" d="M422 0H40V38L352 486H62V532H420V492L109 47H422V0Z" />
<glyph unicode="{" horiz-adv-x="359" d="M324 -158Q267 -157 227 -141T165 -92T143 -11V148Q143 186 131 209T93 243T27 254V303Q67 303 92 313T130 347T143 408V568Q143 616 165 648T227 697T324 714V666Q283 665 256 654T214 621T200 561V404Q200 353 178 322T106
281V277Q156 268 178 236T200 153V-6Q200 -42 214 -64T255 -98T324 -109V-158Z" />
<glyph unicode="|" horiz-adv-x="543" d="M246 762H295V-246H246V762Z" />
<glyph unicode="}" horiz-adv-x="359" d="M34 -109Q76 -109 103 -98T144 -64T158 -6V153Q158 204 180 235T252 276V280Q203 289 181 321T158 404V561Q158 598 145 621T104 655T34 666V714Q93 714 133 698T194 649T215 567V409Q215 370 227 347T266 314T331 303V254Q292
254 266 244T228 210T215 149V-11Q215 -59 194 -92T132 -141T34 -158V-109Z" />
<glyph unicode="~" horiz-adv-x="571" d="M276 331Q244 346 221 353T169 360Q140 360 110 345T53 303V357Q77 381 107 394T172 408Q207 408 234 400T299 375Q330 361 353 354T403 346Q431 346 461 360T518 403V350Q496 327 467 313T401 298Q369 298 341 306T276 331Z" />
<glyph unicode="&#xa0;" horiz-adv-x="260" />
<glyph unicode="&#xa1;" horiz-adv-x="246" d="M101 342H142L156 -184H88L101 342ZM167 492Q167 467 156 455T123 443Q102 443 91 455T79 492Q79 516 90 528T123 541Q144 541 155 529T167 492Z" />
<glyph unicode="&#xa2;" horiz-adv-x="571" d="M346 641Q385 641 417 634T477 615L461 566Q433 578 402 584T343 591Q280 591 236 564T170 485T147 362Q147 294 167 244T228 167T332 140Q372 140 406 147T470 168V117Q445 105 415 98T345 89V-10H299V90Q230 97
183 130T112 221T88 362Q88 445 113 503T186 596T299 638V724H346V641Z" />
<glyph unicode="&#xa3;" horiz-adv-x="571" d="M339 723Q390 723 430 713T501 688L481 641Q450 655 416 664T340 674Q273 674 239 637T205 519V373H407V328H205V202Q205 159 195 130T169 82T131 53H527V0H37V49Q72 56 96 74T134 123T148 201V328H47V373H148V525Q148
590 171 634T237 700T339 723Z" />
<glyph unicode="&#xa4;" horiz-adv-x="571" d="M87 354Q87 387 98 418T130 476L58 549L90 580L162 509Q188 531 220 541T285 552Q319 552 350 542T408 509L480 580L511 548L441 476Q461 451 472 419T484 354Q484 320 473 289T441 231L511 159L480 127L408 198Q382
178 351 167T285 156Q252 156 220 167T162 199L90 128L59 159L130 231Q109 257 98 288T87 354ZM132 354Q132 310 152 276T208 221T285 200Q328 200 363 221T419 277T440 354Q440 397 419 432T364 488T286 509Q243 509 208 488T153 432T132 354Z" />
<glyph unicode="&#xa5;" horiz-adv-x="571" d="M286 351L489 714H551L331 331H477V287H314V190H477V146H314V0H258V146H94V190H258V287H94V331H239L20 714H82L286 351Z" />
<glyph unicode="&#xa6;" horiz-adv-x="543" d="M246 762H295V387H246V762ZM246 129H295V-246H246V129Z" />
<glyph unicode="&#xa7;" horiz-adv-x="516" d="M75 395Q75 445 102 475T168 522Q128 540 104 565T79 635Q79 694 128 728T265 762Q316 762 355 754T428 731L409 685Q378 699 342 707T262 716Q197 716 165 696T133 636Q133 610 149 594T195 564T271 535Q319 519
356 501T416 455T438 382Q438 333 414 300T355 247Q391 230 413 204T435 137Q435 72 383 35T231 -3Q177 -3 135 6T62 30V82Q86 71 113 62T171 48T233 43Q313 43 346 69T380 133Q380 160 365 178T318 210T238 241Q190 258 153 276T96 322T75 395ZM125 400Q125 369
141 348T190 312T268 281L309 267Q342 283 364 310T387 376Q387 407 370 428T316 467T220 501Q181 491 153 466T125 400Z" />
<glyph unicode="&#xa8;" horiz-adv-x="578" d="M160 680Q160 699 169 709T195 720Q213 720 222 710T231 680Q231 661 222 650T195 639Q179 639 170 650T160 680ZM346 680Q346 699 355 709T381 720Q399 720 408 710T417 680Q417 661 408 650T381 639Q365 639 356
650T346 680Z" />
<glyph unicode="&#xa9;" horiz-adv-x="832" d="M433 138Q338 138 285 195T232 357Q232 422 257 471T328 548T437 576Q475 576 505 569T562 548L542 506Q518 518 493 524T438 531Q368 531 327 485T285 357Q285 272 324 228T435 183Q464 183 491 188T545 205V161Q521
151 495 145T433 138ZM416 -9Q336 -9 269 19T153 97T77 213T50 357Q50 436 78 503T156 619T272 696T416 723Q494 723 561 695T677 616T755 499T783 357Q783 280 755 213T677 97T561 19T416 -9ZM416 30Q485 30 544 55T647 126T716 230T741 357Q741 424 717 483T649
587T546 658T416 684Q346 684 287 660T184 591T116 487T91 357Q91 290 114 231T181 127T284 56T416 30Z" />
<glyph unicode="&#xaa;" horiz-adv-x="340" d="M173 722Q231 722 259 696T288 616V396H253L245 440Q230 419 204 405T139 391Q108 391 85 401T50 432T37 484Q37 517 53 539T105 572T194 586L244 588V615Q244 652 224 668T172 684Q145 684 121 677T74 658L58 695Q83
707 112 714T173 722ZM197 551Q135 549 109 533T82 484Q82 456 99 443T147 429Q197 429 220 454T244 524V553L197 551Z" />
<glyph unicode="&#xab;" horiz-adv-x="449" d="M33 278L193 472L233 448L94 272L233 96L193 72L33 265V278ZM217 278L378 472L417 448L278 272L417 96L378 72L217 265V278Z" />
<glyph unicode="&#xac;" horiz-adv-x="571" d="M509 377V130H462V329H53V377H509Z" />
<glyph unicode="&#xad;" horiz-adv-x="322" d="M40 244V296H282V244H40Z" />
<glyph unicode="&#xae;" horiz-adv-x="832" d="M289 141V572H412Q484 572 522 542T561 448Q561 400 536 372T475 331L590 141H531L427 318H339V141H289ZM409 360Q453 360 481 382T510 447Q510 490 484 509T409 528H339V360H409ZM416 -9Q336 -9 269 19T153 97T77
213T50 357Q50 436 78 503T156 619T272 696T416 723Q494 723 561 695T677 616T755 499T783 357Q783 280 755 213T677 97T561 19T416 -9ZM416 30Q485 30 544 55T647 126T716 230T741 357Q741 424 717 483T649 587T546 658T416 684Q346 684 287 660T184 591T116 487T91
357Q91 290 114 231T181 127T284 56T416 30Z" />
<glyph unicode="&#xaf;" horiz-adv-x="500" d="M503 760H-3V806H503V760Z" />
<glyph unicode="&#xb0;" horiz-adv-x="428" d="M214 429Q170 429 136 447T83 499T63 577Q63 621 82 654T136 705T214 724Q258 724 292 706T346 654T365 577Q365 533 346 500T293 448T214 429ZM214 471Q264 471 291 500T319 577Q319 625 291 654T214 683Q164 683
137 654T109 577Q109 530 136 501T214 471Z" />
<glyph unicode="&#xb1;" horiz-adv-x="571" d="M53 0V48H518V0H53ZM309 378H518V331H309V119H261V331H53V378H261V591H309V378Z" />
<glyph unicode="&#xb2;" horiz-adv-x="339" d="M307 416H26V454L145 573Q183 611 206 637T241 687T252 736Q252 772 231 792T169 813Q139 813 113 802T60 771L36 804Q64 828 97 841T170 854Q232 854 266 823T301 738Q301 704 287 676T245 619T180 551L88 460H307V416Z" />
<glyph unicode="&#xb3;" horiz-adv-x="339" d="M168 852Q231 852 266 823T301 745Q301 704 280 678T227 643V640Q267 632 290 607T313 539Q313 480 272 445T150 410Q114 410 82 417T22 437V482Q54 468 86 460T150 451Q207 451 235 475T263 540Q263 581 234 600T148
619H86V659H148Q199 659 225 681T252 741Q252 775 229 793T168 811Q134 811 106 801T50 773L27 807Q57 828 91 840T168 852Z" />
<glyph unicode="&#xb4;" horiz-adv-x="265" d="M225 758Q214 742 197 723T160 682T120 642T80 606H40V615Q59 635 81 662T124 717T157 766H225V758Z" />
<glyph unicode="&#xb5;" horiz-adv-x="602" d="M514 532V0H467L458 83H455Q440 56 419 35T365 2T285 -10Q232 -10 198 7T145 53H142Q143 41 143 25T144 -11T144 -51V-240H88V532H144V188Q144 114 179 77T288 39Q351 39 388 63T441 132T457 242V532H514Z" />
<glyph unicode="&#xb6;" horiz-adv-x="655" d="M533 -127H491V720H373V-127H331V314Q316 310 298 308T260 305Q202 305 161 330T97 407T75 533Q75 613 98 663T167 736T275 760H533V-127Z" />
<glyph unicode="&#xb7;" horiz-adv-x="244" d="M79 334Q79 358 90 370T122 383Q144 383 155 371T167 334Q167 309 156 297T122 284Q102 284 91 296T79 334Z" />
<glyph unicode="&#xb8;" horiz-adv-x="209" d="M196 -142Q196 -187 162 -213T66 -240Q49 -240 36 -239T12 -234V-195Q23 -198 37 -199T67 -200Q104 -200 126 -187T148 -143Q148 -114 123 -101T51 -85L95 0H136L107 -59Q133 -62 153 -72T185 -99T196 -142Z" />
<glyph unicode="&#xb9;" horiz-adv-x="339" d="M217 844V416H168V694Q168 712 168 730T169 765T171 798Q157 788 143 779T111 758L60 726L37 762L170 844H217Z" />
<glyph unicode="&#xba;" horiz-adv-x="364" d="M332 557Q332 481 293 435T182 389Q114 389 75 434T35 557Q35 636 75 680T185 724Q232 724 265 703T315 645T332 557ZM80 557Q80 497 105 463T183 428Q237 428 261 463T286 557Q286 615 262 650T184 685Q132 685
106 652T80 557Z" />
<glyph unicode="&#xbb;" horiz-adv-x="449" d="M416 266L255 72L216 96L355 272L216 448L255 472L416 279V266ZM232 266L72 72L33 96L171 272L33 448L72 472L232 279V266Z" />
<glyph unicode="&#xbc;" horiz-adv-x="722" d="M137 0L541 714H592L188 0H137ZM156 564Q156 582 156 600T157 635T159 668Q145 658 131 649T99 628L48 596L25 632L158 714H205V286H156V564ZM595 0V114H396V149L595 431H645V156H713V114H645V0H595ZM447 156H595V284Q595
307 595 331T597 376Q590 363 579 346T556 312L447 156Z" />
<glyph unicode="&#xbd;" horiz-adv-x="758" d="M122 0L526 714H577L173 0H122ZM150 564Q150 578 150 591T151 618T151 644T153 668Q139 658 125 649T93 628L42 596L19 632L152 714H199V286H150V564ZM444 0V38L563 157Q602 195 625 221T660 271T671 320Q671 356
649 376T588 397Q557 397 532 386T479 355L455 388Q483 412 516 425T588 438Q650 438 685 407T720 322Q720 288 706 260T664 203T598 135L506 44H725V0H444Z" />
<glyph unicode="&#xbe;" horiz-adv-x="770" d="M189 0L593 714H644L240 0H189ZM149 280Q113 280 81 287T21 307V352Q53 338 85 330T149 321Q206 321 234 345T262 410Q262 451 233 470T147 489H85V529H147Q198 529 224 551T251 611Q251 645 228 663T167 681Q133
681 105 671T49 643L26 677Q56 698 90 710T167 722Q230 722 265 693T300 615Q300 574 279 548T226 513V510Q266 502 289 477T312 409Q312 350 271 315T149 280ZM643 0V114H444V149L643 431H693V156H761V114H693V0H643ZM495 156H643V284Q643 307 643 331T645 376Q638
363 627 346T604 312L495 156Z" />
<glyph unicode="&#xbf;" horiz-adv-x="424" d="M282 325Q282 282 275 252T250 198T198 148Q161 119 137 96T101 46T89 -18Q89 -80 127 -110T229 -141Q272 -141 308 -131T379 -103L399 -151Q358 -170 317 -181T226 -192Q136 -192 85 -147T33 -19Q33 28 48 61T92
122T158 178Q188 202 204 222T228 268T235 330V345H282V325ZM299 494Q299 469 288 457T256 445Q234 445 223 457T212 494Q212 518 223 530T256 543Q277 543 288 531T299 494Z" />
<glyph unicode="&#xc0;" horiz-adv-x="608" d="M547 0L452 246H156L60 0H0L281 717H334L608 0H547ZM339 556Q335 566 329 583T317 619T306 653Q301 636 296 618T284 584T274 555L175 299H434L339 556ZM265 948Q278 927 298 899T341 844T382 797V788H342Q324 804
303 823T262 864T225 904T197 940V948H265Z" />
<glyph unicode="&#xc1;" horiz-adv-x="608" d="M547 0L452 246H156L60 0H0L281 717H334L608 0H547ZM339 556Q335 566 329 583T317 619T306 653Q301 636 296 618T284 584T274 555L175 299H434L339 556ZM440 940Q429 924 412 905T375 864T335 824T295 788H255V797Q274
817 296 844T339 899T372 948H440V940Z" />
<glyph unicode="&#xc2;" horiz-adv-x="608" d="M547 0L452 246H156L60 0H0L281 717H334L608 0H547ZM339 556Q335 566 329 583T317 619T306 653Q301 636 296 618T284 584T274 555L175 299H434L339 556ZM332 947Q344 926 365 899T409 844T451 797V788H410Q383 810
355 839T303 896Q279 868 252 840T197 788H156V797Q175 817 198 844T242 898T276 947H332Z" />
<glyph unicode="&#xc3;" horiz-adv-x="608" d="M547 0L452 246H156L60 0H0L281 717H334L608 0H547ZM339 556Q335 566 329 583T317 619T306 653Q301 636 296 618T284 584T274 555L175 299H434L339 556ZM131 794Q134 822 141 843T162 878T192 899T231 907Q254 907
273 897T310 874T345 851T380 841Q402 841 418 855T440 908H477Q472 854 446 824T377 794Q354 794 335 804T299 827T264 850T228 860Q206 860 191 846T169 794H131Z" />
<glyph unicode="&#xc4;" horiz-adv-x="608" d="M547 0L452 246H156L60 0H0L281 717H334L608 0H547ZM339 556Q335 566 329 583T317 619T306 653Q301 636 296 618T284 584T274 555L175 299H434L339 556ZM176 862Q176 881 185 891T211 902Q229 902 238 892T247 862Q247
843 238 832T211 821Q195 821 186 832T176 862ZM362 862Q362 881 371 891T397 902Q415 902 424 892T433 862Q433 843 424 832T397 821Q381 821 372 832T362 862Z" />
<glyph unicode="&#xc5;" horiz-adv-x="608" d="M547 0L452 246H156L60 0H0L281 717H334L608 0H547ZM339 556Q335 566 329 583T317 619T306 653Q301 636 296 618T284 584T274 555L175 299H434L339 556ZM305 682Q261 682 231 709T200 785Q200 831 230 859T305 887Q349
887 380 859T411 785Q411 738 381 710T305 682ZM305 719Q335 719 353 737T371 785Q371 814 352 832T305 851Q277 851 258 833T239 785Q239 756 257 738T305 719Z" />
<glyph unicode="&#xc6;" horiz-adv-x="822" d="M786 0H407V246H172L61 0H-1L322 714H786V662H465V401H766V349H465V52H786V0ZM195 298H407V662H357L195 298Z" />
<glyph unicode="&#xc7;" horiz-adv-x="623" d="M404 672Q338 672 286 650T197 586T142 487T123 359Q123 263 153 192T244 81T394 42Q447 42 490 50T572 71V20Q535 6 491 -2T388 -10Q280 -10 208 36T99 165T62 359Q62 439 85 505T152 621T259 697T405 724Q457 724
504 714T592 685L569 634Q531 653 490 662T404 672ZM456 -142Q456 -187 422 -213T326 -240Q309 -240 296 -239T272 -234V-195Q283 -198 297 -199T327 -200Q364 -200 386 -187T408 -143Q408 -114 383 -101T311 -85L355 0H396L367 -59Q393 -62 413 -72T445 -99T456
-142Z" />
<glyph unicode="&#xc8;" horiz-adv-x="553" d="M492 0H100V714H492V662H158V401H473V349H158V52H492V0ZM266 948Q279 927 299 899T342 844T383 797V788H343Q325 804 304 823T263 864T226 904T198 940V948H266Z" />
<glyph unicode="&#xc9;" horiz-adv-x="553" d="M492 0H100V714H492V662H158V401H473V349H158V52H492V0ZM442 940Q431 924 414 905T377 864T337 824T297 788H257V797Q276 817 298 844T341 899T374 948H442V940Z" />
<glyph unicode="&#xca;" horiz-adv-x="553" d="M492 0H100V714H492V662H158V401H473V349H158V52H492V0ZM334 947Q346 926 367 899T411 844T453 797V788H412Q385 810 357 839T305 896Q281 868 254 840T199 788H158V797Q177 817 200 844T244 898T278 947H334Z" />
<glyph unicode="&#xcb;" horiz-adv-x="553" d="M492 0H100V714H492V662H158V401H473V349H158V52H492V0ZM178 862Q178 881 187 891T213 902Q231 902 240 892T249 862Q249 843 240 832T213 821Q197 821 188 832T178 862ZM364 862Q364 881 373 891T399 902Q417 902
426 892T435 862Q435 843 426 832T399 821Q383 821 374 832T364 862Z" />
<glyph unicode="&#xcc;" horiz-adv-x="311" d="M261 0H51V36L127 47V666L51 678V714H261V678L185 666V47L261 36V0ZM117 948Q130 927 150 899T193 844T234 797V788H194Q176 804 155 823T114 864T77 904T49 940V948H117Z" />
<glyph unicode="&#xcd;" horiz-adv-x="311" d="M261 0H51V36L127 47V666L51 678V714H261V678L185 666V47L261 36V0ZM293 940Q282 924 265 905T228 864T188 824T148 788H108V797Q127 817 149 844T192 899T225 948H293V940Z" />
<glyph unicode="&#xce;" horiz-adv-x="311" d="M261 0H51V36L127 47V666L51 678V714H261V678L185 666V47L261 36V0ZM185 947Q197 926 218 899T262 844T304 797V788H263Q236 810 208 839T156 896Q132 868 105 840T50 788H9V797Q28 817 51 844T95 898T129 947H185Z" />
<glyph unicode="&#xcf;" horiz-adv-x="311" d="M261 0H51V36L127 47V666L51 678V714H261V678L185 666V47L261 36V0ZM29 862Q29 881 38 891T64 902Q82 902 91 892T100 862Q100 843 91 832T64 821Q48 821 39 832T29 862ZM215 862Q215 881 224 891T250 902Q268 902
277 892T286 862Q286 843 277 832T250 821Q234 821 225 832T215 862Z" />
<glyph unicode="&#xd0;" horiz-adv-x="711" d="M299 714Q411 714 489 674T608 557T649 364Q649 244 607 163T481 41T276 0H104V329H24V380H104V714H299ZM287 663H162V380H354V329H162V51H272Q431 51 509 129T588 362Q588 463 555 529T455 629T287 663Z" />
<glyph unicode="&#xd1;" horiz-adv-x="729" d="M629 0H567L153 624H150Q152 598 152 570T154 513T155 451V0H100V714H162L575 92H578Q577 113 576 142T575 202T574 261V714H629V0ZM192 794Q195 822 202 843T223 878T253 899T292 907Q315 907 334 897T371 874T406
851T441 841Q463 841 479 855T501 908H538Q533 854 507 824T438 794Q415 794 396 804T360 827T325 850T289 860Q267 860 252 846T230 794H192Z" />
<glyph unicode="&#xd2;" horiz-adv-x="768" d="M705 358Q705 276 685 209T625 93T524 17T384 -10Q303 -10 243 17T142 93T82 209T62 359Q62 468 98 550T207 679T387 725Q490 725 561 681T668 554T705 358ZM123 359Q123 264 151 193T237 82T384 42Q474 42 531 81T616
191T644 358Q644 507 580 590T387 673Q298 673 239 634T152 524T123 359ZM345 948Q358 927 378 899T421 844T462 797V788H422Q404 804 383 823T342 864T305 904T277 940V948H345Z" />
<glyph unicode="&#xd3;" horiz-adv-x="768" d="M705 358Q705 276 685 209T625 93T524 17T384 -10Q303 -10 243 17T142 93T82 209T62 359Q62 468 98 550T207 679T387 725Q490 725 561 681T668 554T705 358ZM123 359Q123 264 151 193T237 82T384 42Q474 42 531 81T616
191T644 358Q644 507 580 590T387 673Q298 673 239 634T152 524T123 359ZM521 940Q510 924 493 905T456 864T416 824T376 788H336V797Q355 817 377 844T420 899T453 948H521V940Z" />
<glyph unicode="&#xd4;" horiz-adv-x="768" d="M705 358Q705 276 685 209T625 93T524 17T384 -10Q303 -10 243 17T142 93T82 209T62 359Q62 468 98 550T207 679T387 725Q490 725 561 681T668 554T705 358ZM123 359Q123 264 151 193T237 82T384 42Q474 42 531 81T616
191T644 358Q644 507 580 590T387 673Q298 673 239 634T152 524T123 359ZM413 947Q425 926 446 899T490 844T532 797V788H491Q464 810 436 839T384 896Q360 868 333 840T278 788H237V797Q256 817 279 844T323 898T357 947H413Z" />
<glyph unicode="&#xd5;" horiz-adv-x="768" d="M705 358Q705 276 685 209T625 93T524 17T384 -10Q303 -10 243 17T142 93T82 209T62 359Q62 468 98 550T207 679T387 725Q490 725 561 681T668 554T705 358ZM123 359Q123 264 151 193T237 82T384 42Q474 42 531 81T616
191T644 358Q644 507 580 590T387 673Q298 673 239 634T152 524T123 359ZM212 794Q215 822 222 843T243 878T273 899T312 907Q335 907 354 897T391 874T426 851T461 841Q483 841 499 855T521 908H558Q553 854 527 824T458 794Q435 794 416 804T380 827T345 850T309
860Q287 860 272 846T250 794H212Z" />
<glyph unicode="&#xd6;" horiz-adv-x="768" d="M705 358Q705 276 685 209T625 93T524 17T384 -10Q303 -10 243 17T142 93T82 209T62 359Q62 468 98 550T207 679T387 725Q490 725 561 681T668 554T705 358ZM123 359Q123 264 151 193T237 82T384 42Q474 42 531 81T616
191T644 358Q644 507 580 590T387 673Q298 673 239 634T152 524T123 359ZM257 862Q257 881 266 891T292 902Q310 902 319 892T328 862Q328 843 319 832T292 821Q276 821 267 832T257 862ZM443 862Q443 881 452 891T478 902Q496 902 505 892T514 862Q514 843 505
832T478 821Q462 821 453 832T443 862Z" />
<glyph unicode="&#xd7;" horiz-adv-x="571" d="M469 571L503 537L319 353L502 170L469 136L285 319L103 136L68 170L251 353L68 536L102 571L285 387L469 571Z" />
<glyph unicode="&#xd8;" horiz-adv-x="768" d="M705 358Q705 276 685 209T625 93T524 17T384 -10Q324 -10 275 5T189 50L132 -28L91 -1L151 82Q107 132 85 202T62 359Q62 468 98 550T207 679T387 725Q444 725 491 711T575 670L628 743L668 715L612 638Q657 591
681 520T705 358ZM644 358Q644 509 578 590L220 95Q251 70 292 56T384 42Q474 42 531 81T616 191T644 358ZM123 359Q123 289 138 231T186 131L543 625Q514 648 475 660T387 673Q298 673 239 634T152 524T123 359Z" />
<glyph unicode="&#xd9;" horiz-adv-x="722" d="M629 252Q629 171 598 112T506 22T359 -10Q230 -10 162 60T93 254V714H151V254Q151 150 205 96T362 42Q430 42 476 66T547 137T572 248V714H629V252ZM322 948Q335 927 355 899T398 844T439 797V788H399Q381 804 360
823T319 864T282 904T254 940V948H322Z" />
<glyph unicode="&#xda;" horiz-adv-x="722" d="M629 252Q629 171 598 112T506 22T359 -10Q230 -10 162 60T93 254V714H151V254Q151 150 205 96T362 42Q430 42 476 66T547 137T572 248V714H629V252ZM498 940Q487 924 470 905T433 864T393 824T353 788H313V797Q332
817 354 844T397 899T430 948H498V940Z" />
<glyph unicode="&#xdb;" horiz-adv-x="722" d="M629 252Q629 171 598 112T506 22T359 -10Q230 -10 162 60T93 254V714H151V254Q151 150 205 96T362 42Q430 42 476 66T547 137T572 248V714H629V252ZM390 947Q402 926 423 899T467 844T509 797V788H468Q441 810 413
839T361 896Q337 868 310 840T255 788H214V797Q233 817 256 844T300 898T334 947H390Z" />
<glyph unicode="&#xdc;" horiz-adv-x="722" d="M629 252Q629 171 598 112T506 22T359 -10Q230 -10 162 60T93 254V714H151V254Q151 150 205 96T362 42Q430 42 476 66T547 137T572 248V714H629V252ZM234 862Q234 881 243 891T269 902Q287 902 296 892T305 862Q305
843 296 832T269 821Q253 821 244 832T234 862ZM420 862Q420 881 429 891T455 902Q473 902 482 892T491 862Q491 843 482 832T455 821Q439 821 430 832T420 862Z" />
<glyph unicode="&#xdd;" horiz-adv-x="536" d="M268 332L472 714H536L298 276V0H240V272L0 714H64L268 332ZM405 940Q394 924 377 905T340 864T300 824T260 788H220V797Q239 817 261 844T304 899T337 948H405V940Z" />
<glyph unicode="&#xde;" horiz-adv-x="589" d="M536 382Q536 332 520 292T471 224T386 180T262 164H158V0H100V714H158V586H282Q414 586 475 535T536 382ZM256 215Q327 215 376 230T450 282T476 380Q476 461 429 498T275 535H158V215H256Z" />
<glyph unicode="&#xdf;" horiz-adv-x="593" d="M481 627Q481 591 467 567T433 525T391 492T356 459T342 416Q342 396 351 381T380 351T433 313Q466 291 491 269T530 217T545 144Q545 96 524 62T464 9T369 -10Q322 -10 289 -1T229 21V74Q249 64 271 56T317 43T367
38Q429 38 458 66T488 141Q488 172 478 194T447 235T394 275Q359 299 335 319T299 361T286 414Q286 447 300 469T334 507T375 538T409 574T423 624Q423 669 389 692T294 716Q248 716 215 701T163 655T144 574V0H87V574Q87 640 112 682T185 744T294 765Q352 765
394 749T458 702T481 627Z" />
<glyph unicode="&#xe0;" horiz-adv-x="536" d="M276 541Q366 541 410 498T454 358V0H411L401 90H398Q379 60 355 38T296 3T212 -10Q161 -10 124 7T67 58T47 139Q47 219 112 260T301 307L398 312V349Q398 428 367 460T274 493Q233 493 195 483T119 453L101 499Q139
517 183 529T276 541ZM308 265Q207 260 157 230T107 139Q107 90 137 64T222 38Q306 38 351 85T398 217V269L308 265ZM230 766Q243 745 263 717T306 662T347 615V606H307Q289 622 268 641T227 682T190 722T162 758V766H230Z" />
<glyph unicode="&#xe1;" horiz-adv-x="536" d="M276 541Q366 541 410 498T454 358V0H411L401 90H398Q379 60 355 38T296 3T212 -10Q161 -10 124 7T67 58T47 139Q47 219 112 260T301 307L398 312V349Q398 428 367 460T274 493Q233 493 195 483T119 453L101 499Q139
517 183 529T276 541ZM308 265Q207 260 157 230T107 139Q107 90 137 64T222 38Q306 38 351 85T398 217V269L308 265ZM405 758Q394 742 377 723T340 682T300 642T260 606H220V615Q239 635 261 662T304 717T337 766H405V758Z" />
<glyph unicode="&#xe2;" horiz-adv-x="536" d="M276 541Q366 541 410 498T454 358V0H411L401 90H398Q379 60 355 38T296 3T212 -10Q161 -10 124 7T67 58T47 139Q47 219 112 260T301 307L398 312V349Q398 428 367 460T274 493Q233 493 195 483T119 453L101 499Q139
517 183 529T276 541ZM308 265Q207 260 157 230T107 139Q107 90 137 64T222 38Q306 38 351 85T398 217V269L308 265ZM297 765Q309 744 330 717T374 662T416 615V606H375Q348 628 320 657T268 714Q244 686 217 658T162 606H121V615Q140 635 163 662T207 716T241
765H297Z" />
<glyph unicode="&#xe3;" horiz-adv-x="536" d="M276 541Q366 541 410 498T454 358V0H411L401 90H398Q379 60 355 38T296 3T212 -10Q161 -10 124 7T67 58T47 139Q47 219 112 260T301 307L398 312V349Q398 428 367 460T274 493Q233 493 195 483T119 453L101 499Q139
517 183 529T276 541ZM308 265Q207 260 157 230T107 139Q107 90 137 64T222 38Q306 38 351 85T398 217V269L308 265ZM96 612Q99 640 106 661T127 696T157 717T196 725Q219 725 238 715T275 692T310 669T345 659Q367 659 383 673T405 726H442Q437 672 411 642T342
612Q319 612 300 622T264 645T229 668T193 678Q171 678 156 664T134 612H96Z" />
<glyph unicode="&#xe4;" horiz-adv-x="536" d="M276 541Q366 541 410 498T454 358V0H411L401 90H398Q379 60 355 38T296 3T212 -10Q161 -10 124 7T67 58T47 139Q47 219 112 260T301 307L398 312V349Q398 428 367 460T274 493Q233 493 195 483T119 453L101 499Q139
517 183 529T276 541ZM308 265Q207 260 157 230T107 139Q107 90 137 64T222 38Q306 38 351 85T398 217V269L308 265ZM397 680Q397 699 406 709T432 720Q450 720 459 710T468 680Q468 661 459 650T432 639Q416 639 407 650T397 680ZM583 680Q583 699 592 709T618
720Q636 720 645 710T654 680Q654 661 645 650T618 639Q602 639 593 650T583 680Z" />
<glyph unicode="&#xe5;" horiz-adv-x="536" d="M276 541Q366 541 410 498T454 358V0H411L401 90H398Q379 60 355 38T296 3T212 -10Q161 -10 124 7T67 58T47 139Q47 219 112 260T301 307L398 312V349Q398 428 367 460T274 493Q233 493 195 483T119 453L101 499Q139
517 183 529T276 541ZM308 265Q207 260 157 230T107 139Q107 90 137 64T222 38Q306 38 351 85T398 217V269L308 265ZM268 609Q224 609 194 636T163 712Q163 758 193 786T268 814Q312 814 343 786T374 712Q374 665 344 637T268 609ZM268 646Q298 646 316 664T334
712Q334 741 315 759T268 778Q240 778 221 760T202 712Q202 683 220 665T268 646Z" />
<glyph unicode="&#xe6;" horiz-adv-x="857" d="M604 542Q668 542 712 511T780 425T801 299V259H444Q445 151 491 96T619 40Q666 40 701 48T779 76V24Q740 7 702 -1T618 -10Q567 -10 527 6T459 53T414 124Q396 84 370 54T306 7T213 -10Q162 -10 125 7T68 58T47
139Q47 193 75 228T159 284T293 307L386 312V350Q386 428 355 460T265 493Q226 493 188 483T112 453L94 499Q132 518 177 529T268 541Q334 541 373 513T427 422Q451 476 495 509T604 542ZM301 265Q204 260 156 230T107 139Q107 90 137 64T220 38Q272 38 309 59T365
121T385 217V269L301 265ZM603 494Q538 494 496 446T446 306H741Q742 362 727 404T681 470T603 494Z" />
<glyph unicode="&#xe7;" horiz-adv-x="476" d="M301 -10Q224 -10 169 22T86 116T57 263Q57 353 89 415T179 510T313 542Q351 542 385 535T445 516L429 467Q402 478 371 484T312 491Q249 491 206 464T139 385T116 264Q116 198 136 148T196 69T301 41Q341 41 375
49T438 69V18Q412 6 379 -2T301 -10ZM370 -142Q370 -187 336 -213T240 -240Q223 -240 210 -239T186 -234V-195Q197 -198 211 -199T241 -200Q278 -200 300 -187T322 -143Q322 -114 297 -101T225 -85L269 0H310L281 -59Q307 -62 327 -72T359 -99T370 -142Z" />
<glyph unicode="&#xe8;" horiz-adv-x="552" d="M290 542Q358 542 404 511T473 424T496 298V259H116Q117 153 166 97T307 40Q356 40 393 48T474 76V24Q435 7 396 -1T305 -10Q225 -10 170 23T86 117T57 262Q57 343 84 406T164 506T290 542ZM289 494Q216 494 171
446T118 306H437Q437 362 421 404T373 470T289 494ZM239 766Q252 745 272 717T315 662T356 615V606H316Q298 622 277 641T236 682T199 722T171 758V766H239Z" />
<glyph unicode="&#xe9;" horiz-adv-x="552" d="M290 542Q358 542 404 511T473 424T496 298V259H116Q117 153 166 97T307 40Q356 40 393 48T474 76V24Q435 7 396 -1T305 -10Q225 -10 170 23T86 117T57 262Q57 343 84 406T164 506T290 542ZM289 494Q216 494 171
446T118 306H437Q437 362 421 404T373 470T289 494ZM414 758Q403 742 386 723T349 682T309 642T269 606H229V615Q248 635 270 662T313 717T346 766H414V758Z" />
<glyph unicode="&#xea;" horiz-adv-x="552" d="M290 542Q358 542 404 511T473 424T496 298V259H116Q117 153 166 97T307 40Q356 40 393 48T474 76V24Q435 7 396 -1T305 -10Q225 -10 170 23T86 117T57 262Q57 343 84 406T164 506T290 542ZM289 494Q216 494 171
446T118 306H437Q437 362 421 404T373 470T289 494ZM306 765Q318 744 339 717T383 662T425 615V606H384Q357 628 329 657T277 714Q253 686 226 658T171 606H130V615Q149 635 172 662T216 716T250 765H306Z" />
<glyph unicode="&#xeb;" horiz-adv-x="552" d="M290 542Q358 542 404 511T473 424T496 298V259H116Q117 153 166 97T307 40Q356 40 393 48T474 76V24Q435 7 396 -1T305 -10Q225 -10 170 23T86 117T57 262Q57 343 84 406T164 506T290 542ZM289 494Q216 494 171
446T118 306H437Q437 362 421 404T373 470T289 494ZM406 680Q406 699 415 709T441 720Q459 720 468 710T477 680Q477 661 468 650T441 639Q425 639 416 650T406 680ZM592 680Q592 699 601 709T627 720Q645 720 654 710T663 680Q663 661 654 650T627 639Q611 639
602 650T592 680Z" />
<glyph unicode="&#xec;" horiz-adv-x="233" d="M145 0H88V532H145V0ZM334 766Q347 745 367 717T410 662T451 615V606H411Q393 622 372 641T331 682T294 722T266 758V766H334Z" />
<glyph unicode="&#xed;" horiz-adv-x="233" d="M145 0H88V532H145V0ZM253 758Q242 742 225 723T188 682T148 642T108 606H68V615Q87 635 109 662T152 717T185 766H253V758Z" />
<glyph unicode="&#xee;" horiz-adv-x="233" d="M145 0H88V532H145V0ZM401 765Q413 744 434 717T478 662T520 615V606H479Q452 628 424 657T372 714Q348 686 321 658T266 606H225V615Q244 635 267 662T311 716T345 765H401Z" />
<glyph unicode="&#xef;" horiz-adv-x="233" d="M145 0H88V532H145V0ZM-11 680Q-11 699 -2 709T24 720Q42 720 51 710T60 680Q60 661 51 650T24 639Q8 639 -1 650T-11 680ZM175 680Q175 699 184 709T210 720Q228 720 237 710T246 680Q246 661 237 650T210 639Q194
639 185 650T175 680Z" />
<glyph unicode="&#xf0;" horiz-adv-x="580" d="M210 761Q245 745 275 727T332 689L444 756L469 719L368 659Q417 612 451 552T504 423T523 274Q523 188 496 124T417 25T288 -10Q217 -10 165 19T85 102T56 228Q56 303 85 357T165 440T285 469Q326 469 357 461T411
439T451 403L454 404Q439 469 405 528T322 632L192 556L167 593L284 662Q263 678 238 693T186 721L210 761ZM291 421Q236 421 197 399T136 333T114 227Q114 169 134 127T194 62T289 39Q376 39 420 97T465 268Q465 295 456 322T427 371T374 407T291 421Z" />
<glyph unicode="&#xf1;" horiz-adv-x="596" d="M326 542Q417 542 465 496T513 348V0H457V344Q457 421 422 457T320 493Q232 493 189 442T145 290V0H88V532H134L142 440H146Q161 470 186 493T246 529T326 542ZM126 612Q129 640 136 661T157 696T187 717T226 725Q249
725 268 715T305 692T340 669T375 659Q397 659 413 673T435 726H472Q467 672 441 642T372 612Q349 612 330 622T294 645T259 668T223 678Q201 678 186 664T164 612H126Z" />
<glyph unicode="&#xf2;" horiz-adv-x="590" d="M533 267Q533 204 518 154T472 67T397 10T294 -10Q239 -10 195 9T121 65T74 153T57 267Q57 353 86 414T169 509T298 542Q375 542 427 508T506 412T533 267ZM116 267Q116 199 135 148T194 68T295 39Q357 39 396 67T455
147T474 267Q474 333 456 384T399 464T297 493Q207 493 162 433T116 267ZM257 766Q270 745 290 717T333 662T374 615V606H334Q316 622 295 641T254 682T217 722T189 758V766H257Z" />
<glyph unicode="&#xf3;" horiz-adv-x="590" d="M533 267Q533 204 518 154T472 67T397 10T294 -10Q239 -10 195 9T121 65T74 153T57 267Q57 353 86 414T169 509T298 542Q375 542 427 508T506 412T533 267ZM116 267Q116 199 135 148T194 68T295 39Q357 39 396 67T455
147T474 267Q474 333 456 384T399 464T297 493Q207 493 162 433T116 267ZM432 758Q421 742 404 723T367 682T327 642T287 606H247V615Q266 635 288 662T331 717T364 766H432V758Z" />
<glyph unicode="&#xf4;" horiz-adv-x="590" d="M533 267Q533 204 518 154T472 67T397 10T294 -10Q239 -10 195 9T121 65T74 153T57 267Q57 353 86 414T169 509T298 542Q375 542 427 508T506 412T533 267ZM116 267Q116 199 135 148T194 68T295 39Q357 39 396 67T455
147T474 267Q474 333 456 384T399 464T297 493Q207 493 162 433T116 267ZM324 765Q336 744 357 717T401 662T443 615V606H402Q375 628 347 657T295 714Q271 686 244 658T189 606H148V615Q167 635 190 662T234 716T268 765H324Z" />
<glyph unicode="&#xf5;" horiz-adv-x="590" d="M533 267Q533 204 518 154T472 67T397 10T294 -10Q239 -10 195 9T121 65T74 153T57 267Q57 353 86 414T169 509T298 542Q375 542 427 508T506 412T533 267ZM116 267Q116 199 135 148T194 68T295 39Q357 39 396 67T455
147T474 267Q474 333 456 384T399 464T297 493Q207 493 162 433T116 267ZM123 612Q126 640 133 661T154 696T184 717T223 725Q246 725 265 715T302 692T337 669T372 659Q394 659 410 673T432 726H469Q464 672 438 642T369 612Q346 612 327 622T291 645T256 668T220
678Q198 678 183 664T161 612H123Z" />
<glyph unicode="&#xf6;" horiz-adv-x="590" d="M533 267Q533 204 518 154T472 67T397 10T294 -10Q239 -10 195 9T121 65T74 153T57 267Q57 353 86 414T169 509T298 542Q375 542 427 508T506 412T533 267ZM116 267Q116 199 135 148T194 68T295 39Q357 39 396 67T455
147T474 267Q474 333 456 384T399 464T297 493Q207 493 162 433T116 267ZM168 680Q168 699 177 709T203 720Q221 720 230 710T239 680Q239 661 230 650T203 639Q187 639 178 650T168 680ZM354 680Q354 699 363 709T389 720Q407 720 416 710T425 680Q425 661 416
650T389 639Q373 639 364 650T354 680Z" />
<glyph unicode="&#xf7;" horiz-adv-x="571" d="M53 329V377H518V329H53ZM285 133Q266 133 255 144T244 179Q244 202 255 213T285 224Q305 224 315 213T326 179Q326 156 316 145T285 133ZM285 481Q266 481 255 493T244 527Q244 550 255 561T285 573Q305 573 315
562T326 527Q326 505 316 493T285 481Z" />
<glyph unicode="&#xf8;" horiz-adv-x="590" d="M533 267Q533 184 506 122T425 25T294 -10Q249 -10 214 3T150 39L97 -30L59 -2L116 71Q87 108 72 157T57 267Q57 396 121 469T298 542Q341 542 376 530T438 497L487 561L526 534L473 465Q502 429 517 379T533 267ZM116
267Q116 222 124 185T149 118L407 455Q387 473 360 483T297 493Q207 493 162 433T116 267ZM474 267Q474 312 466 350T439 418L181 80Q202 61 230 50T295 39Q357 39 396 67T455 147T474 267Z" />
<glyph unicode="&#xf9;" horiz-adv-x="596" d="M507 532V0H461L452 91H449Q435 62 410 39T349 3T268 -10Q207 -10 165 11T102 76T81 184V532H138V189Q138 113 172 76T275 39Q334 39 372 62T430 130T450 242V532H507ZM259 766Q272 745 292 717T335 662T376 615V606H336Q318
622 297 641T256 682T219 722T191 758V766H259Z" />
<glyph unicode="&#xfa;" horiz-adv-x="596" d="M507 532V0H461L452 91H449Q435 62 410 39T349 3T268 -10Q207 -10 165 11T102 76T81 184V532H138V189Q138 113 172 76T275 39Q334 39 372 62T430 130T450 242V532H507ZM435 758Q424 742 407 723T370 682T330 642T290
606H250V615Q269 635 291 662T334 717T367 766H435V758Z" />
<glyph unicode="&#xfb;" horiz-adv-x="596" d="M507 532V0H461L452 91H449Q435 62 410 39T349 3T268 -10Q207 -10 165 11T102 76T81 184V532H138V189Q138 113 172 76T275 39Q334 39 372 62T430 130T450 242V532H507ZM327 765Q339 744 360 717T404 662T446 615V606H405Q378
628 350 657T298 714Q274 686 247 658T192 606H151V615Q170 635 193 662T237 716T271 765H327Z" />
<glyph unicode="&#xfc;" horiz-adv-x="596" d="M507 532V0H461L452 91H449Q435 62 410 39T349 3T268 -10Q207 -10 165 11T102 76T81 184V532H138V189Q138 113 172 76T275 39Q334 39 372 62T430 130T450 242V532H507ZM171 680Q171 699 180 709T206 720Q224 720
233 710T242 680Q242 661 233 650T206 639Q190 639 181 650T171 680ZM357 680Q357 699 366 709T392 720Q410 720 419 710T428 680Q428 661 419 650T392 639Q376 639 367 650T357 680Z" />
<glyph unicode="&#xfd;" horiz-adv-x="469" d="M1 532H61L188 202Q199 172 208 147T224 101T235 61H238Q245 85 257 121T285 200L409 532H470L230 -94Q213 -141 191 -174T139 -224T66 -241Q47 -241 32 -239T3 -232V-184Q15 -188 29 -190T59 -193Q88 -193 108 -182T145
-147T175 -87L209 2L1 532ZM371 758Q360 742 343 723T306 682T266 642T226 606H186V615Q205 635 227 662T270 717T303 766H371V758Z" />
<glyph unicode="&#xfe;" horiz-adv-x="599" d="M543 269Q543 179 516 117T440 22T322 -10Q275 -10 240 4T182 41T145 92H141Q142 78 143 59T144 20T145 -15V-236H88V760H145V531Q145 512 145 483T143 435H146Q159 464 183 488T242 527T327 542Q429 542 486 473T543
269ZM484 270Q484 382 443 437T319 493Q230 493 189 437T146 277V266Q146 153 187 96T315 39Q370 39 407 65T464 143T484 270Z" />
<glyph unicode="&#xff;" horiz-adv-x="469" d="M1 532H61L188 202Q199 172 208 147T224 101T235 61H238Q245 85 257 121T285 200L409 532H470L230 -94Q213 -141 191 -174T139 -224T66 -241Q47 -241 32 -239T3 -232V-184Q15 -188 29 -190T59 -193Q88 -193 108 -182T145
-147T175 -87L209 2L1 532ZM363 680Q363 699 372 709T398 720Q416 720 425 710T434 680Q434 661 425 650T398 639Q382 639 373 650T363 680ZM549 680Q549 699 558 709T584 720Q602 720 611 710T620 680Q620 661 611 650T584 639Q568 639 559 650T549 680Z" />
<glyph unicode="&#x2013;" horiz-adv-x="500" d="M40 244V296H460V244H40Z" />
<glyph unicode="&#x2014;" horiz-adv-x="1000" d="M40 244V296H960V244H40Z" />
<glyph unicode="&#x2018;" horiz-adv-x="151" d="M17 479Q25 517 37 558T65 639T96 714H137Q125 678 114 635T94 548T81 469H23L17 479Z" />
<glyph unicode="&#x2019;" horiz-adv-x="151" d="M134 704Q127 666 115 625T87 545T55 469H14Q24 496 32 528T48 592T61 656T71 714H128L134 704Z" />
<glyph unicode="&#x201a;" horiz-adv-x="226" d="M153 106Q146 68 134 27T106 -53T74 -129H33Q43 -102 51 -70T67 -6T80 58T90 116H147L153 106Z" />
<glyph unicode="&#x201c;" horiz-adv-x="312" d="M298 714Q286 678 275 634T255 548T242 469H184L178 479Q185 517 197 558T225 639T257 714H298ZM137 714Q125 678 114 634T94 548T80 469H23L17 479Q25 517 37 558T65 639T96 714H137Z" />
<glyph unicode="&#x201d;" horiz-adv-x="312" d="M295 704Q288 666 276 625T248 545T216 469H175Q188 506 199 549T219 636T232 714H289L295 704ZM134 704Q126 666 114 625T86 545T55 469H14Q24 496 32 528T48 592T61 656T70 714H127L134 704Z" />
<glyph unicode="&#x201e;" horiz-adv-x="383" d="M314 106Q307 68 295 27T267 -53T235 -129H194Q207 -92 218 -49T238 38T251 116H308L314 106ZM153 106Q145 68 133 27T105 -53T74 -129H33Q43 -102 51 -70T67 -6T80 58T89 116H146L153 106Z" />
<glyph unicode="&#x2022;" horiz-adv-x="376" d="M106 365Q106 398 116 419T145 450T188 460Q213 460 231 450T260 418T271 365Q271 335 261 314T232 281T188 270Q164 270 145 281T116 313T106 365Z" />
<glyph unicode="&#x2039;" horiz-adv-x="265" d="M33 278L193 472L233 448L94 272L233 96L193 72L33 265V278Z" />
<glyph unicode="&#x203a;" horiz-adv-x="265" d="M72 472L232 279V266L72 72L33 96L171 272L33 448L72 472Z" />
</font>
</defs>
</svg>
