<?xml version="1.0" standalone="no"?>
<!DOCTYPE svg PUBLIC "-//W3C//DTD SVG 1.1//EN" "http://www.w3.org/Graphics/SVG/1.1/DTD/svg11.dtd">
<svg xmlns="http://www.w3.org/2000/svg">
<defs >
<font id="NotoSans" horiz-adv-x="552" ><font-face
    font-family="Noto Sans Light"
    units-per-em="1000"
    panose-1="2 11 5 2 4 5 4 9 2 4"
    ascent="1069"
    descent="-293"
    alphabetic="0" />
<glyph unicode=" " horiz-adv-x="260" />
<glyph unicode="!" horiz-adv-x="236" d="M77 188L180 714H247L125 188H77ZM64 -11Q47 -11 37 -1T26 27Q26 50 39 69T79 88Q96 88 105 78T115 50Q115 29 103 9T64 -11Z" />
<glyph unicode="&quot;" horiz-adv-x="351" d="M265 456L308 714H370L303 456H265ZM110 456L153 714H215L148 456H110Z" />
<glyph unicode="#" horiz-adv-x="630" d="M102 0L164 218H33L37 263H177L232 450H93L97 494H244L307 714H356L293 494H458L522 714H568L505 494H639L635 450H492L439 263H580L576 218H427L363 0H314L379 218H213L149 0H102ZM225 263H392L444 450H279L225 263Z" />
<glyph unicode="$" horiz-adv-x="551" d="M203 50Q156 51 114 60T43 83V137Q77 120 121 110T213 99L266 345Q224 361 193 380T145 428T128 499Q128 555 156 592T231 650T335 674L353 758H397L380 674Q417 671 452 663T519 638L497 591Q468 606 436 614T370 625L317
381Q362 363 393 345T442 300T459 232Q459 176 430 138T353 78T247 51L223 -58H179L203 50ZM258 100Q297 104 330 119T383 162T404 227Q404 253 393 271T360 302T306 329L258 100ZM325 625Q284 623 252 608T201 566T182 501Q182 473 194 454T227 422T276 396L325
625Z" />
<glyph unicode="%" horiz-adv-x="781" d="M117 0L645 714H699L171 0H117ZM192 276Q140 276 112 311T83 415Q83 446 89 486T108 568T142 645T194 702T269 724Q323 724 350 691T378 591Q378 562 373 521T354 438T319 359T266 299T192 276ZM196 322Q226 322 248 342T285
393T310 461T324 531T329 587Q329 635 313 657T266 679Q236 679 214 660T177 611T152 546T138 476T133 416Q133 368 149 345T196 322ZM545 -11Q493 -11 465 24T436 127Q436 159 442 200T461 282T495 359T548 415T622 437Q676 437 704 404T732 305Q732 275 726 235T707
151T672 72T619 12T545 -11ZM549 35Q579 35 601 55T638 106T663 174T677 244T682 300Q682 348 666 370T619 392Q589 392 567 373T530 324T505 259T491 189T486 129Q486 81 502 58T549 35Z" />
<glyph unicode="&amp;" horiz-adv-x="678" d="M220 -10Q141 -10 91 33T40 157Q40 217 65 259T137 334T247 396Q221 433 205 470T189 548Q189 599 211 639T275 702T374 725Q418 725 451 708T502 661T521 590Q521 536 494 500T422 437T320 382L474 167Q509 200 537
243T585 333H643Q625 292 604 256T557 188T503 127L595 0H528L464 92Q413 48 357 19T220 -10ZM230 39Q274 39 309 51T375 83T436 130L272 360Q223 336 183 310T120 249T97 161Q97 123 114 96T162 54T230 39ZM295 419Q322 432 352 447T407 481T449 526T465 586Q465
627 439 652T370 677Q334 677 306 662T261 618T244 548Q244 515 257 484T295 419Z" />
<glyph unicode="&apos;" horiz-adv-x="196" d="M110 456L153 714H215L148 456H110Z" />
<glyph unicode="(" horiz-adv-x="266" d="M105 -158Q83 -118 68 -74T44 21T36 126Q36 216 53 298T103 454T181 593T282 714H339Q283 656 238 589T159 447T109 292T91 126Q91 72 98 22T119 -72T153 -158H105Z" />
<glyph unicode=")" horiz-adv-x="266" d="M-70 -158Q-13 -100 32 -33T110 109T160 264T178 430Q178 485 171 534T151 629T116 714H165Q187 675 202 630T225 535T233 430Q233 340 216 258T166 102T89 -37T-13 -158H-70Z" />
<glyph unicode="*" horiz-adv-x="541" d="M384 319L318 512L182 359L142 399L295 534L115 609L136 661L313 562L342 760L399 749L345 555L549 574L547 519L352 523L439 338L384 319Z" />
<glyph unicode="+" horiz-adv-x="571" d="M329 377H538V329H329V117H281V329H73V377H281V589H329V377Z" />
<glyph unicode="," horiz-adv-x="220" d="M-44 -129Q-22 -84 -4 -42T30 40T58 116H120L122 105Q107 69 88 28T46 -53T1 -129H-44Z" />
<glyph unicode="-" horiz-adv-x="313" d="M32 243L44 296H277L266 243H32Z" />
<glyph unicode="." horiz-adv-x="233" d="M64 -11Q46 -11 36 -1T26 26Q26 50 39 69T80 88Q97 88 106 78T115 50Q115 28 103 9T64 -11Z" />
<glyph unicode="/" horiz-adv-x="331" d="M-44 0L357 714H417L16 0H-44Z" />
<glyph unicode="0" horiz-adv-x="551" d="M236 -10Q154 -10 108 48T62 218Q62 270 69 327T91 442T129 550T185 640T261 702T357 725Q401 725 434 711T488 668T520 600T531 509Q531 448 524 386T500 266T460 158T403 71T329 12T236 -10ZM242 40Q280 40 312 60T369
115T414 195T447 293T466 401T473 509Q473 588 444 631T354 675Q314 675 282 655T223 600T177 519T145 422T126 319T120 219Q120 130 151 85T242 40Z" />
<glyph unicode="1" horiz-adv-x="551" d="M323 503Q329 533 335 560T347 610T358 650Q344 637 329 626T294 601L182 529L155 572L375 714H426L274 0H216L323 503Z" />
<glyph unicode="2" horiz-adv-x="551" d="M7 0L17 49L262 271Q304 309 339 343T402 411T444 483T459 563Q459 614 428 644T341 674Q313 674 286 667T232 645T178 611L150 651Q196 687 245 705T346 724Q400 724 438 705T497 651T518 570Q518 507 493 455T418 351T300
238L93 55V53H443L433 0H7Z" />
<glyph unicode="3" horiz-adv-x="551" d="M210 -10Q151 -10 105 1T22 31V88Q56 69 106 55T211 40Q258 40 295 52T358 86T397 139T411 208Q411 254 391 284T335 330T247 346H175L185 395H257Q296 395 333 405T401 437T449 490T467 565Q467 616 434 645T348 675Q298
675 254 658T164 611L137 652Q182 684 235 704T353 724Q406 724 445 705T504 651T525 570Q525 516 502 475T437 407T342 370V367Q400 357 435 316T471 210Q471 165 454 125T404 55T323 7T210 -10Z" />
<glyph unicode="4" horiz-adv-x="551" d="M309 0L347 178H11L20 227L451 716H517L414 230H533L521 178H403L365 0H309ZM84 230H358L409 468Q417 507 425 540T441 602T455 655H452Q441 640 429 625T405 593T378 562L84 230Z" />
<glyph unicode="5" horiz-adv-x="551" d="M203 -10Q171 -10 141 -5T84 9T38 31V88Q70 67 114 54T204 40Q255 40 295 54T363 94T406 157T422 242Q422 308 383 346T273 385Q236 385 207 380T143 364L117 386L214 714H537L526 662H253L180 418Q201 423 227 427T289
432Q347 432 390 410T457 346T481 248Q481 193 463 146T410 64T323 10T203 -10Z" />
<glyph unicode="6" horiz-adv-x="551" d="M252 -10Q191 -10 149 17T87 93T66 209Q66 261 76 320T107 437T156 546T225 636Q255 666 290 685T367 715T451 725Q478 725 502 722T545 713L533 662Q517 668 495 671T446 675Q378 675 318 643T212 538T137 344H140Q159
371 187 393T251 430T331 444Q407 444 451 397T496 268Q496 213 479 163T429 74T352 13T252 -10ZM256 40Q299 40 332 59T390 110T426 182T439 264Q439 328 407 362T315 396Q268 396 229 376T165 327T132 269Q129 260 127 249T124 225T123 200Q123 171 129 143T151
91T191 54T256 40Z" />
<glyph unicode="7" horiz-adv-x="551" d="M98 0L489 663H118L128 714H562L554 671L161 0H98Z" />
<glyph unicode="8" horiz-adv-x="551" d="M242 -10Q180 -10 137 13T70 75T46 164Q46 222 72 262T146 331T254 381Q227 400 205 421T169 472T155 540Q155 597 182 638T256 702T361 725Q419 725 458 704T517 649T537 574Q537 521 512 484T446 420T355 373Q391 352
419 328T464 272T481 192Q481 133 452 88T369 16T242 -10ZM247 39Q299 39 338 58T400 111T423 191Q423 230 408 258T366 308T300 351Q247 334 203 312T132 256T105 166Q105 107 145 73T247 39ZM311 400Q362 419 399 442T458 496T479 569Q479 619 445 647T357 675Q316
675 283 660T231 614T212 540Q212 490 239 458T311 400Z" />
<glyph unicode="9" horiz-adv-x="551" d="M165 -10Q133 -10 102 -6T47 7V61Q71 53 101 47T166 41Q215 41 257 59T336 117T401 217T450 365H447Q430 340 404 319T342 284T264 270Q211 270 173 292T114 354T94 449Q94 506 112 556T162 644T240 703T339 724Q400 724
441 697T502 622T523 506Q523 453 512 393T481 273T432 162T369 75Q347 53 323 37T273 10T220 -5T165 -10ZM274 318Q319 318 356 335T419 382T456 445Q461 460 463 477T466 514Q466 558 453 594T412 653T337 675Q293 675 259 657T200 607T164 535T151 451Q151 389
183 354T274 318Z" />
<glyph unicode=":" horiz-adv-x="233" d="M154 443Q137 443 127 452T117 479Q117 495 122 509T140 532T170 541Q187 541 196 531T206 504Q206 482 193 463T154 443ZM64 -11Q46 -11 36 -1T26 26Q26 50 39 69T80 88Q97 88 106 78T115 50Q115 28 103 9T64 -11Z" />
<glyph unicode=";" horiz-adv-x="233" d="M-47 -129Q-26 -84 -8 -42T27 40T55 116H117L119 105Q104 69 85 28T43 -53T-2 -129H-47ZM154 443Q136 443 126 452T116 479Q116 495 122 509T140 532T170 541Q187 541 196 531T205 504Q205 482 193 463T154 443Z" />
<glyph unicode="&lt;" horiz-adv-x="571" d="M538 127L73 338V372L538 597V545L138 357L538 179V127Z" />
<glyph unicode="=" horiz-adv-x="571" d="M76 430V477H535V430H76ZM76 228V276H535V228H76Z" />
<glyph unicode="&gt;" horiz-adv-x="571" d="M73 179L473 357L73 545V597L538 372V338L73 127V179Z" />
<glyph unicode="?" horiz-adv-x="417" d="M124 188Q133 238 148 271T189 330T251 384Q284 410 313 434T361 488T380 563Q380 614 350 644T267 674Q234 674 200 664T129 637L108 682Q151 703 192 713T272 724Q348 724 393 683T438 569Q438 520 420 484T369 416T291
353Q256 327 233 306T195 258T172 188H124ZM117 -11Q99 -11 89 -1T79 26Q79 50 92 69T133 88Q150 88 159 78T168 50Q168 28 156 9T117 -11Z" />
<glyph unicode="@" horiz-adv-x="841" d="M380 -90Q311 -90 252 -69T148 -5T79 100T54 244Q54 315 74 383T132 510T227 614T357 684T520 710Q617 710 682 671T781 566T815 414Q815 363 805 317T776 232T732 165T675 122T607 107Q557 107 536 133T513 202H510Q485
159 448 133T360 107Q308 107 275 141T242 239Q242 287 255 328T291 404T345 462T414 499T491 512Q532 512 563 505T620 486L578 326Q567 288 562 262T556 217Q556 185 569 168T610 151Q636 151 659 164T701 203T735 260T757 331T765 411Q765 484 738 541T655 631T512
664Q436 664 373 643T260 583T176 492T124 377T106 247Q106 152 141 87T240 -11T386 -44Q437 -44 489 -34T587 -6V-51Q539 -70 487 -80T380 -90ZM370 151Q426 151 464 196T525 321L561 455Q547 461 528 465T485 469Q446 469 412 452T351 405T309 334T294 243Q294
196 314 174T370 151Z" />
<glyph unicode="A" horiz-adv-x="555" d="M-53 0L350 715H409L506 0H449L415 247H148L11 0H-53ZM176 299H409L379 523Q376 552 373 586T368 650H365Q352 620 335 587T301 521L176 299Z" />
<glyph unicode="B" horiz-adv-x="599" d="M46 0L197 714H380Q448 714 493 697T562 645T585 561Q585 510 565 471T507 408T419 374V371Q473 358 504 321T536 223Q536 148 499 99T399 25T255 0H46ZM262 51Q324 51 372 69T447 126T475 223Q475 285 435 317T314 350H178L114
51H262ZM328 399Q385 399 429 416T499 467T525 555Q525 608 488 635T371 663H244L188 399H328Z" />
<glyph unicode="C" horiz-adv-x="591" d="M326 -10Q249 -10 193 24T108 120T78 266Q78 339 95 407T145 532T225 633T333 700T465 724Q514 724 555 715T633 686L609 636Q578 654 542 663T465 672Q404 672 354 651T263 593T196 505T154 394T139 268Q139 163 191
103T335 42Q381 42 422 50T500 71V21Q464 7 423 -1T326 -10Z" />
<glyph unicode="D" horiz-adv-x="672" d="M46 0L197 714H354Q487 714 562 644T637 427Q637 357 620 294T568 177T482 84T361 22T207 0H46ZM210 51Q282 51 340 70T442 124T516 206T561 309T576 428Q576 551 514 607T343 663H244L114 51H210Z" />
<glyph unicode="E" horiz-adv-x="525" d="M46 0L197 714H557L546 662H244L188 401H472L462 349H178L114 52H417L406 0H46Z" />
<glyph unicode="F" horiz-adv-x="482" d="M46 0L197 714H557L547 662H244L182 368H467L455 316H170L104 0H46Z" />
<glyph unicode="G" horiz-adv-x="684" d="M338 -10Q215 -10 147 63T78 263Q78 344 97 414T150 542T233 640T338 702T461 724Q521 724 570 713T664 682L642 631Q602 649 557 660T460 672Q393 672 335 643T233 560T164 432T139 266Q139 196 163 146T233 69T343 42Q389
42 431 50T503 70L555 312H385L396 363H624L553 32Q505 12 451 1T338 -10Z" />
<glyph unicode="H" horiz-adv-x="681" d="M46 0L197 714H255L189 400H556L623 714H680L529 0H472L545 348H178L104 0H46Z" />
<glyph unicode="I" horiz-adv-x="302" d="M-6 0L1 35L77 46L209 668L138 679L145 714H349L342 679L266 668L134 46L205 35L198 0H-6Z" />
<glyph unicode="J" horiz-adv-x="252" d="M-84 -182Q-107 -182 -128 -178T-163 -169L-161 -118Q-144 -123 -124 -126T-84 -129Q-48 -129 -22 -115T21 -71T47 0L199 714H257L104 -7Q92 -67 67 -106T4 -163T-84 -182Z" />
<glyph unicode="K" horiz-adv-x="553" d="M46 0L197 714H255L176 346L236 405L568 714H640L312 407L497 0H433L268 371L164 288L104 0H46Z" />
<glyph unicode="L" horiz-adv-x="485" d="M46 0L197 714H255L114 53H416L405 0H46Z" />
<glyph unicode="M" horiz-adv-x="824" d="M45 0L196 714H278L372 89H375L733 714H823L673 0H615L724 513Q730 540 735 565T746 612T757 653H755L379 0H334L236 653H233Q230 635 227 612T219 563T209 513L101 0H45Z" />
<glyph unicode="N" horiz-adv-x="691" d="M45 0L196 714H253L504 89H507Q511 114 516 144T528 206T540 266L635 714H691L540 0H482L231 626H228Q225 607 222 586T214 541T205 493T195 445L101 0H45Z" />
<glyph unicode="O" horiz-adv-x="719" d="M336 -10Q247 -10 190 26T106 126T78 272Q78 330 88 386T118 492T168 585T237 659T326 708T432 725Q549 725 616 654T683 445Q683 395 675 342T649 238T604 143T538 64T449 10T336 -10ZM338 42Q387 42 427 59T499 107T554
176T592 261T614 354T622 446Q622 552 573 612T428 673Q379 673 338 657T265 612T210 545T170 462T147 369T139 273Q139 203 161 152T227 71T338 42Z" />
<glyph unicode="P" horiz-adv-x="563" d="M46 0L197 714H355Q426 714 472 693T540 631T563 533Q563 478 545 434T489 357T397 309T268 292H165L104 0H46ZM277 342Q352 342 402 364T478 429T504 531Q504 601 464 632T346 663H244L176 342H277Z" />
<glyph unicode="Q" horiz-adv-x="719" d="M343 -9Q341 -10 338 -10T331 -10Q246 -9 190 26T106 125T78 272Q78 330 88 386T118 492T168 585T237 659T326 708T432 725Q549 725 616 654T683 445Q683 392 674 335T643 223T589 122T511 43T404 -1L528 -170H453L343
-9ZM338 42Q388 42 428 59T500 107T555 176T593 261T615 354T622 446Q622 552 573 612T428 673Q379 673 338 657T265 612T210 545T170 462T147 369T139 273Q139 203 161 152T227 71T338 42Z" />
<glyph unicode="R" horiz-adv-x="568" d="M46 0L197 714H349Q456 714 510 671T564 541Q564 484 544 440T482 365T375 320L492 0H429L321 308H169L104 0H46ZM294 358Q343 358 381 369T447 403T489 460T504 538Q504 604 464 633T342 663H244L179 358H294Z" />
<glyph unicode="S" horiz-adv-x="502" d="M192 -10Q134 -10 94 -1T19 23V82Q52 65 94 54T192 42Q226 42 259 50T319 76T363 123T380 192Q380 229 365 255T319 302T244 347Q208 367 178 390T130 446T111 524Q111 576 130 613T183 675T257 712T342 724Q397 724 437
714T514 685L492 634Q459 651 423 661T342 672Q312 672 282 664T227 639T187 594T172 528Q172 492 187 468T227 426T286 390Q330 365 365 340T420 281T441 196Q441 142 421 103T365 40T286 3T192 -10Z" />
<glyph unicode="T" horiz-adv-x="493" d="M162 0L302 662H92L103 714H583L572 662H361L221 0H162Z" />
<glyph unicode="U" horiz-adv-x="685" d="M300 -10Q231 -10 183 12T109 79T84 186Q84 203 86 224T94 269L189 714H247L152 267Q147 246 145 225T142 187Q142 118 184 80T303 42Q367 42 413 65T489 136T534 254L633 714H691L592 248Q574 163 536 106T440 19T300 -10Z" />
<glyph unicode="V" horiz-adv-x="544" d="M183 0L99 714H156L214 204Q217 182 219 159T222 112T224 69H226Q239 99 255 131T293 204L563 714H627L242 0H183Z" />
<glyph unicode="W" horiz-adv-x="841" d="M149 0L116 714H172L193 225Q195 190 194 153T192 81H195Q208 115 223 152T259 231L488 714H546L574 232Q576 207 576 180T577 127T578 79H581Q589 101 597 124T616 173T638 224L856 714H917L592 0H536L506 520Q505 540
505 560T504 599T503 637H500Q491 610 481 586T455 529L206 0H149Z" />
<glyph unicode="X" horiz-adv-x="508" d="M-55 0L245 375L114 714H173L284 416L522 714H587L310 372L452 0H392L270 330L10 0H-55Z" />
<glyph unicode="Y" horiz-adv-x="497" d="M162 0L220 270L94 714H152L258 329L524 714H590L277 270L221 0H162Z" />
<glyph unicode="Z" horiz-adv-x="535" d="M-9 0L0 44L489 662H145L156 714H572L564 670L75 53H443L433 0H-9Z" />
<glyph unicode="[" horiz-adv-x="297" d="M-9 -158L177 714H370L359 665H221L57 -108H196L184 -158H-9Z" />
<glyph unicode="\" horiz-adv-x="331" d="M221 0L103 714H155L273 0H221Z" />
<glyph unicode="]" horiz-adv-x="297" d="M-72 -158L-61 -108H76L240 665H102L113 714H306L120 -158H-72Z" />
<glyph unicode="^" horiz-adv-x="561" d="M44 273L306 719H343L519 273H468L323 656L99 273H44Z" />
<glyph unicode="_" horiz-adv-x="383" d="M-88 -146L-78 -99H306L296 -146H-88Z" />
<glyph unicode="`" horiz-adv-x="252" d="M250 606Q233 625 213 652T174 708T147 756V766H208Q217 742 230 715T258 663T285 618V606H250Z" />
<glyph unicode="a" horiz-adv-x="558" d="M195 -10Q150 -10 118 12T68 76T50 176Q50 230 61 283T95 383T150 465T224 521T315 542Q356 542 384 526T428 483T453 430H457L486 532H531L418 0H372L392 119H389Q369 90 340 60T275 10T195 -10ZM211 39Q253 39 294 69T369
150T417 265Q424 295 426 318T429 362Q429 422 400 457T319 493Q280 493 248 475T189 426T145 355T118 268T108 175Q108 110 134 75T211 39Z" />
<glyph unicode="b" horiz-adv-x="574" d="M254 -10Q211 -10 181 6T134 48T108 102H104L75 0H30L191 760H248L206 562Q201 535 194 506T180 452T170 413H173Q194 445 223 474T289 523T370 542Q416 542 450 520T503 457T522 357Q522 303 511 251T478 151T424 68T349
11T254 -10ZM251 39Q292 39 325 57T384 106T428 179T454 265T463 357Q463 422 435 457T354 493Q325 493 297 481T244 446T198 393T162 326T139 251T131 171Q131 108 163 74T251 39Z" />
<glyph unicode="c" horiz-adv-x="453" d="M247 -10Q187 -10 143 14T76 84T52 192Q52 249 64 300T99 396T157 473T235 524T332 542Q366 542 400 536T460 517L443 468Q421 479 392 486T332 493Q282 493 241 470T171 405T126 310T110 194Q110 149 126 114T174 59T252
39Q288 39 318 48T380 71V21Q354 8 321 -1T247 -10Z" />
<glyph unicode="d" horiz-adv-x="574" d="M197 -10Q150 -10 117 12T67 75T50 176Q50 230 61 282T94 381T148 464T223 521T318 542Q361 542 390 526T438 484T463 430H467Q470 453 473 475T481 519T491 564L532 760H589L428 0H381L400 120H397Q375 88 345 58T279
9T197 -10ZM213 39Q240 39 267 51T320 84T367 136T405 201T431 277T440 361Q440 424 409 458T320 493Q280 493 247 475T188 426T144 353T117 267T108 175Q108 109 134 74T213 39Z" />
<glyph unicode="e" horiz-adv-x="495" d="M244 -10Q190 -10 147 12T80 80T55 193Q55 261 74 323T130 435T216 513T325 542Q391 542 427 510T464 423Q464 379 442 346T378 290T277 256T142 244H116Q115 234 114 221T113 195Q113 121 150 80T255 39Q295 39 329 50T395
76V26Q365 11 328 1T244 -10ZM152 292Q224 292 282 305T373 346T407 419Q407 451 386 472T320 493Q280 493 241 470T171 401T125 292H152Z" />
<glyph unicode="f" horiz-adv-x="291" d="M-59 -240Q-75 -240 -92 -237T-122 -230V-180Q-108 -184 -93 -187T-63 -191Q-28 -191 -7 -164T25 -84L146 486H53L58 516L156 534L170 598Q180 642 194 674T229 726T278 755T343 765Q367 765 390 761T428 749L413 703Q398
709 381 713T345 717Q295 717 268 690T226 596L212 532H330L321 486H203L81 -91Q70 -140 52 -173T7 -223T-59 -240Z" />
<glyph unicode="g" horiz-adv-x="574" d="M179 -240Q133 -240 94 -230T26 -206V-151Q45 -161 70 -170T123 -185T178 -191Q257 -191 302 -150T365 -30L374 9Q379 35 387 66T401 122H398Q376 89 346 59T279 10T198 -10Q151 -10 118 12T67 76T50 176Q50 229 61 282T94
381T148 464T223 521T318 542Q361 542 390 526T438 485T464 430H467L497 532H541L421 -29Q407 -99 376 -145T297 -216T179 -240ZM214 39Q241 39 267 51T319 85T367 136T405 202T430 278T440 361Q440 424 410 458T321 493Q281 493 248 475T188 426T144 353T117 267T108
175Q108 110 134 75T214 39Z" />
<glyph unicode="h" horiz-adv-x="566" d="M30 0L191 760H248L205 560Q200 536 194 511T182 461T170 413H173Q192 441 220 471T287 521T373 542Q416 542 446 527T492 482T508 408Q508 392 506 373T499 334L428 0H371L443 341Q447 361 449 376T451 403Q451 448 428
470T359 493Q315 493 271 464T192 382T141 253L87 0H30Z" />
<glyph unicode="i" horiz-adv-x="233" d="M30 0L143 532H200L87 0H30ZM201 642Q185 642 176 651T166 677Q166 690 171 702T186 721T210 729Q228 729 236 720T244 695Q244 673 232 658T201 642Z" />
<glyph unicode="j" horiz-adv-x="233" d="M-75 -240Q-91 -240 -107 -237T-134 -230V-180Q-122 -185 -107 -188T-77 -191Q-53 -191 -36 -180T-7 -146T11 -92L143 532H200L66 -98Q57 -143 40 -175T-5 -223T-75 -240ZM201 642Q186 642 176 651T166 677Q166 690 171
702T186 721T210 729Q228 729 236 720T244 695Q244 673 231 658T201 642Z" />
<glyph unicode="k" horiz-adv-x="467" d="M30 0L191 760H248L176 421Q162 357 151 314T132 241H133L433 532H501L264 302L411 0H348L221 266L125 183L87 0H30Z" />
<glyph unicode="l" horiz-adv-x="233" d="M30 0L191 760H248L87 0H30Z" />
<glyph unicode="m" horiz-adv-x="859" d="M30 0L143 532H190L170 413H174Q191 442 216 471T278 521T359 542Q421 542 449 506T479 408H481Q499 440 527 470T591 521T674 542Q734 542 767 509T801 411Q801 392 799 373T791 334L721 0H663L736 341Q740 361 742 376T744
405Q744 448 722 470T658 493Q627 493 596 476T538 428T490 354T458 259L403 0H346L417 333Q422 355 424 373T426 405Q426 446 405 469T343 493Q312 493 281 476T223 428T174 353T141 253L87 0H30Z" />
<glyph unicode="n" horiz-adv-x="566" d="M28 0L142 534H192L172 415H174Q192 443 220 473T286 523T373 544Q417 544 447 529T494 484T510 411Q510 393 507 372T500 334L429 0H369L441 341Q446 361 448 376T450 405Q450 449 427 470T359 491Q315 491 271 463T193
381T142 253L88 0H28Z" />
<glyph unicode="o" horiz-adv-x="564" d="M243 -9Q181 -9 139 16T74 88T52 195Q52 251 64 302T99 397T156 473T231 523T324 541Q385 541 427 516T491 444T513 337Q513 284 502 234T468 139T414 62T338 10T243 -9ZM247 40Q284 40 316 54T373 95T417 159T445 243T455
343Q455 383 441 417T398 471T323 492Q286 492 253 478T194 437T149 373T120 291T110 194Q110 122 145 81T247 40Z" />
<glyph unicode="p" horiz-adv-x="574" d="M-19 -236L143 532H190L170 413H173Q195 445 224 474T290 523T371 542Q417 542 450 520T503 457T522 356Q522 302 511 250T478 151T424 68T349 11T254 -10Q211 -10 182 6T134 48T108 102H104Q101 77 96 45T85 -12L37 -236H-19ZM251
39Q292 39 325 57T384 106T428 179T454 265T463 357Q463 422 435 457T354 493Q326 493 299 481T246 446T200 394T164 328T140 252T131 171Q131 108 163 74T251 39Z" />
<glyph unicode="q" horiz-adv-x="574" d="M368 -13Q372 4 377 27T389 76T401 122H398Q378 91 348 61T280 10T198 -10Q151 -10 118 12T68 75T50 176Q50 229 61 282T94 381T148 464T223 521T319 542Q362 542 391 526T438 484T463 430H467L497 532H541L378 -236H321L368
-13ZM214 39Q242 39 269 51T321 86T368 138T406 205T431 280T440 361Q440 422 409 457T321 493Q281 493 248 475T188 426T144 353T117 267T108 175Q108 110 134 75T214 39Z" />
<glyph unicode="r" horiz-adv-x="384" d="M30 0L143 532H190L171 413H174Q193 442 218 471T278 521T354 541Q369 541 384 540T412 534L400 482Q388 485 376 487T348 489Q312 489 279 470T218 418T171 343T141 256L87 0H30Z" />
<glyph unicode="s" horiz-adv-x="428" d="M160 -10Q109 -10 72 1T9 26V81Q37 65 76 52T159 39Q206 39 236 52T281 88T296 141Q296 168 284 186T249 220T194 252Q158 272 132 291T90 336T74 397Q74 444 97 476T160 525T252 542Q300 542 339 532T406 509L387 461Q362
474 328 483T252 493Q199 493 166 470T132 400Q132 377 143 360T176 328T231 295Q264 277 292 258T337 212T354 146Q354 99 332 64T267 10T160 -10Z" />
<glyph unicode="t" horiz-adv-x="321" d="M166 -10Q114 -10 84 15T54 95Q54 109 56 125T62 159L131 486H51L58 517L141 538L189 659H226L198 532H347L337 486H189L120 160Q116 146 114 130T112 101Q112 73 126 56T173 39Q194 39 211 42T247 52V6Q233 0 212 -5T166 -10Z" />
<glyph unicode="u" horiz-adv-x="566" d="M190 -10Q148 -10 118 5T71 49T55 122Q55 140 58 159T65 198L136 532H193L121 191Q117 172 115 157T113 128Q113 84 136 62T204 39Q249 39 293 68T372 151T423 280L477 532H533L420 0H373L393 119H389Q372 92 344 62T277
11T190 -10Z" />
<glyph unicode="v" horiz-adv-x="439" d="M121 0L49 532H106L151 188Q154 165 156 139T160 90T163 52H165Q175 72 186 96T210 144T234 190L426 532H487L189 0H121Z" />
<glyph unicode="w" horiz-adv-x="687" d="M83 0L56 532H112L127 203Q129 157 129 122T127 60H130Q137 78 146 99T166 145T190 195L357 532H415L443 203Q445 165 446 128T448 60H451Q458 81 467 104T488 155T514 215L661 532H721L472 0H407L380 340Q378 362 377
381T376 422T375 467H373Q364 446 356 428T339 389T318 345L147 0H83Z" />
<glyph unicode="x" horiz-adv-x="469" d="M-35 0L201 275L83 532H142L238 315L423 532H490L263 272L390 0H331L225 231L32 0H-35Z" />
<glyph unicode="y" horiz-adv-x="439" d="M-41 -241Q-62 -241 -76 -239T-104 -231V-183Q-91 -187 -76 -190T-42 -193Q-4 -193 25 -167T84 -86L134 0L49 532H106L153 222Q158 190 161 159T167 100T170 55H172Q180 70 191 95T218 150T247 205L426 532H487L136 -102Q111
-147 86 -178T30 -225T-41 -241Z" />
<glyph unicode="z" horiz-adv-x="441" d="M-14 0L-7 39L361 487H104L114 532H438L429 489L63 46H347L338 0H-14Z" />
<glyph unicode="{" horiz-adv-x="339" d="M208 -158Q139 -158 105 -133T71 -53Q71 -40 73 -26T79 5L109 142Q112 156 114 168T116 190Q116 225 92 241T19 257L30 306Q90 306 122 330T165 411L200 576Q211 626 233 656T291 700T379 714H391L381 665Q328 665 297
644T253 569L218 406Q207 355 181 322T105 280V278Q138 268 153 245T169 188Q169 177 167 163T161 133L132 -1Q129 -14 128 -25T126 -46Q126 -84 149 -96T219 -109V-158H208Z" />
<glyph unicode="|" horiz-adv-x="543" d="M271 -241V760H320V-241H271Z" />
<glyph unicode="}" horiz-adv-x="339" d="M-41 -109Q-4 -109 23 -100T67 -70T92 -13L127 150Q138 201 164 234T240 276V278Q207 288 192 310T177 367Q177 380 179 394T184 422L214 557Q217 570 218 581T220 602Q220 640 196 652T121 665L129 714H136Q183 714 213
703T259 669T274 609Q274 596 272 582T266 551L236 414Q233 400 231 388T229 366Q229 331 253 315T325 299L315 250Q255 250 224 226T180 145L145 -20Q134 -71 111 -101T52 -145T-37 -158H-43L-41 -109Z" />
<glyph unicode="~" horiz-adv-x="571" d="M296 331Q264 346 241 353T189 360Q160 360 130 345T73 303V357Q97 381 127 394T192 408Q227 408 254 400T319 375Q350 361 373 354T423 346Q451 346 481 360T538 403V350Q516 327 487 313T421 298Q389 298 361 306T296 331Z" />
<glyph unicode="&#xa0;" horiz-adv-x="260" />
<glyph unicode="&#xa1;" horiz-adv-x="236" d="M-7 -182L119 343H160L60 -182H-7ZM162 443Q144 443 135 453T125 480Q125 503 138 522T178 541Q195 541 204 532T214 503Q214 482 202 463T162 443Z" />
<glyph unicode="&#xa2;" horiz-adv-x="551" d="M251 94Q184 108 146 159T107 289Q107 343 118 393T151 486T204 561T274 614T361 640L378 724H422L404 640Q434 639 462 633T514 616L498 567Q475 578 446 585T386 592Q337 592 297 568T227 503T182 407T166 290Q166
222 202 180T305 138Q339 138 371 146T434 169V120Q401 103 367 97T294 89L274 -10H229L251 94Z" />
<glyph unicode="&#xa3;" horiz-adv-x="551" d="M1 49Q35 56 62 74T109 123T139 201L165 326H66L75 371H175L209 534Q224 600 252 642T322 703T418 723Q465 723 503 712T568 686L545 640Q521 652 489 663T417 674Q360 674 321 640T264 525L232 371H415L406 326H222L195
199Q181 134 156 102T96 53H462L451 0H-8L1 49Z" />
<glyph unicode="&#xa4;" horiz-adv-x="561" d="M418 203Q393 183 362 172T298 161Q266 161 235 172T179 203L109 133L78 165L148 235Q127 260 117 290T106 354Q106 386 116 417T148 473L78 543L109 575L179 505Q205 525 235 536T298 547Q331 547 362 536T418 505L488
575L519 543L449 473Q469 448 480 417T491 354Q491 321 481 291T449 234L519 164L488 133L418 203ZM298 206Q340 206 373 226T427 279T448 354Q448 396 428 429T374 483T299 503Q258 503 224 483T171 429T151 354Q151 313 170 279T223 226T298 206Z" />
<glyph unicode="&#xa5;" horiz-adv-x="551" d="M188 0L219 145H65L75 191H229L248 285H95L105 331H238L118 714H174L284 345L550 714H614L332 331H466L456 285H302L282 191H436L427 145H273L242 0H188Z" />
<glyph unicode="&#xa6;" horiz-adv-x="543" d="M271 387V760H320V387H271ZM271 -240V133H320V-240H271Z" />
<glyph unicode="&#xa7;" horiz-adv-x="492" d="M175 -3Q126 -3 89 7T28 29V81Q56 66 96 55T175 43Q246 43 285 68T325 142Q325 165 313 180T276 209T218 238Q185 253 157 271T111 316T94 381Q94 422 113 450T161 496T221 525Q193 540 173 564T152 626Q152 670
176 700T243 746T336 762Q379 762 419 753T488 731L469 687Q439 700 404 708T336 717Q307 717 277 709T227 681T207 627Q207 596 234 577T312 534Q344 520 373 503T420 461T438 397Q438 361 422 331T380 278T324 239Q348 224 364 203T380 147Q380 101 356 67T286
15T175 -3ZM288 261Q326 281 355 313T385 390Q385 417 372 434T331 467T261 501Q234 494 208 481T164 444T146 386Q146 357 161 337T208 300T288 261Z" />
<glyph unicode="&#xa8;" horiz-adv-x="565" d="M451 639Q437 639 429 647T420 671Q420 689 430 704T461 720Q477 720 484 712T491 689Q491 669 480 654T451 639ZM273 639Q259 639 251 647T242 671Q242 689 252 704T283 720Q294 720 300 716T310 705T313 689Q313
669 302 654T273 639Z" />
<glyph unicode="&#xa9;" horiz-adv-x="832" d="M416 -9Q336 -9 269 19T153 97T77 213T50 357Q50 436 78 503T156 619T272 696T416 723Q494 723 561 695T677 616T755 499T783 357Q783 280 755 213T677 97T561 19T416 -9ZM433 138Q338 138 285 195T232 357Q232 422
257 471T328 548T437 576Q475 576 505 569T562 548L542 506Q518 518 493 524T438 531Q368 531 327 485T285 357Q285 272 324 228T435 183Q464 183 491 188T545 205V161Q521 151 495 145T433 138ZM416 30Q485 30 544 55T647 126T716 230T741 357Q741 424 717 483T649
587T546 658T416 684Q346 684 287 660T184 591T116 487T91 357Q91 290 114 231T181 127T284 56T416 30Z" />
<glyph unicode="&#xaa;" horiz-adv-x="331" d="M177 391Q152 391 131 403T98 440T86 500Q86 544 97 584T130 655T181 704T245 722Q279 722 297 706T323 666H326L343 716H376L309 396H275L285 460H283Q264 431 238 411T177 391ZM187 430Q208 430 226 441T260 471T285
513T301 562T307 609Q307 641 292 662T245 684Q222 684 201 670T164 631T138 573T129 503Q129 468 144 449T187 430Z" />
<glyph unicode="&#xab;" horiz-adv-x="424" d="M140 71L31 272L33 285L221 472L250 443L92 272L179 89L140 71ZM315 71L210 262L212 275L394 469L425 443L271 263L355 89L315 71Z" />
<glyph unicode="&#xac;" horiz-adv-x="571" d="M529 377V130H482V329H73V377H529Z" />
<glyph unicode="&#xad;" horiz-adv-x="308" d="M32 243L44 296H277L266 243H32Z" />
<glyph unicode="&#xae;" horiz-adv-x="832" d="M289 141V572H412Q484 572 522 542T561 448Q561 400 536 372T475 331L590 141H531L427 318H339V141H289ZM409 360Q453 360 481 382T510 447Q510 490 484 509T409 528H339V360H409ZM416 -9Q336 -9 269 19T153 97T77
213T50 357Q50 436 78 503T156 619T272 696T416 723Q494 723 561 695T677 616T755 499T783 357Q783 280 755 213T677 97T561 19T416 -9ZM416 30Q485 30 544 55T647 126T716 230T741 357Q741 424 717 483T649 587T546 658T416 684Q346 684 287 660T184 591T116 487T91
357Q91 290 114 231T181 127T284 56T416 30Z" />
<glyph unicode="&#xaf;" horiz-adv-x="437" d="M101 760L112 806H507L495 760H101Z" />
<glyph unicode="&#xb0;" horiz-adv-x="428" d="M214 429Q170 429 136 447T83 499T63 577Q63 621 82 654T136 705T214 724Q258 724 292 706T346 654T365 577Q365 533 346 500T293 448T214 429ZM214 471Q264 471 291 500T319 577Q319 625 291 654T214 683Q164 683
137 654T109 577Q109 530 136 501T214 471Z" />
<glyph unicode="&#xb1;" horiz-adv-x="571" d="M73 0V48H538V0H73ZM329 378H538V331H329V119H281V331H73V378H281V591H329V378Z" />
<glyph unicode="&#xb2;" horiz-adv-x="333" d="M61 416L69 454L205 570Q250 608 279 637T324 693T339 750Q339 779 322 796T272 813Q245 813 220 803T166 773L145 806Q175 830 208 842T279 854Q316 854 340 841T376 805T388 756Q388 719 372 688T324 624T245 553L133
459H343L334 416H61Z" />
<glyph unicode="&#xb3;" horiz-adv-x="333" d="M184 411Q151 411 122 418T70 437V483Q96 469 125 461T185 452Q241 452 273 477T306 550Q306 584 282 602T210 620H164L172 660H219Q253 660 279 670T322 699T338 748Q338 778 320 795T268 811Q237 811 211 802T159
776L140 811Q167 829 201 841T275 853Q311 853 335 841T373 807T386 756Q386 708 358 680T287 641V638Q318 630 336 606T354 549Q354 505 334 474T275 427T184 411Z" />
<glyph unicode="&#xb4;" horiz-adv-x="241" d="M115 616Q135 635 158 662T204 717T240 766H305V758Q294 743 276 723T237 682T194 642T153 606H115V616Z" />
<glyph unicode="&#xb5;" horiz-adv-x="569" d="M-22 -236L141 532H198L126 193Q121 168 119 152T117 125Q117 87 140 63T208 39Q250 39 294 65T374 145T429 284L482 532H538L425 0H378L398 119H394Q376 89 348 59T283 10T196 -10Q154 -10 130 8T94 55H91Q89 38
85 14T76 -37T66 -86L34 -236H-22Z" />
<glyph unicode="&#xb6;" horiz-adv-x="655" d="M366 314Q351 310 334 308T295 305Q251 305 217 319T159 362T123 433T110 533Q110 593 123 636T162 706T225 747T310 760H568V-127H526V709H408V-127H366V314Z" />
<glyph unicode="&#xb7;" horiz-adv-x="233" d="M126 284Q108 284 98 294T88 321Q88 345 101 364T142 383Q159 383 168 373T177 345Q177 323 165 304T126 284Z" />
<glyph unicode="&#xb8;" horiz-adv-x="199" d="M-35 -240Q-50 -240 -62 -239T-85 -234V-196Q-74 -199 -63 -200T-40 -201Q-16 -201 4 -195T36 -174T49 -136Q49 -112 30 -100T-27 -86L21 0H62L30 -61Q58 -66 78 -84T99 -136Q99 -167 82 -190T34 -227T-35 -240Z" />
<glyph unicode="&#xb9;" horiz-adv-x="333" d="M247 681Q253 708 261 739T276 795Q263 787 249 777T216 756L165 727L146 761L290 844H331L240 416H191L247 681Z" />
<glyph unicode="&#xba;" horiz-adv-x="346" d="M206 389Q154 389 122 423T90 516Q90 558 102 595T135 662T188 707T257 724Q316 724 344 689T372 599Q372 558 361 520T329 453T277 406T206 389ZM209 428Q237 428 259 441T297 478T321 532T329 596Q329 638 310
661T255 685Q228 685 206 672T167 636T142 583T133 517Q133 475 153 452T209 428Z" />
<glyph unicode="&#xbb;" horiz-adv-x="424" d="M206 71L177 100L334 270L247 454L287 472L395 270L394 257L206 71ZM32 74L1 100L156 278L72 454L111 472L216 280L215 266L32 74Z" />
<glyph unicode="&#xbc;" horiz-adv-x="702" d="M81 0L611 714H668L137 0H81ZM217 552Q223 579 231 610T246 666Q233 658 219 648T186 627L135 598L116 632L260 715H301L210 287H161L217 552ZM522 1L545 108H358L367 148L613 432H661L601 150H665L656 108H592L569
1H522ZM419 150H554L577 256Q583 284 589 314T602 368Q597 359 586 345T561 314T536 285L419 150Z" />
<glyph unicode="&#xbd;" horiz-adv-x="759" d="M78 0L608 714H665L134 0H78ZM217 552Q223 579 231 610T246 666Q233 658 219 648T186 627L135 598L116 632L260 715H301L210 287H161L217 552ZM404 1L412 39L548 155Q593 193 622 222T667 278T682 335Q682 364 665
381T615 398Q588 398 563 388T509 358L488 391Q518 415 551 427T622 439Q659 439 683 426T719 390T731 341Q731 304 715 273T667 209T588 138L476 44H686L677 1H404Z" />
<glyph unicode="&#xbe;" horiz-adv-x="740" d="M152 280Q119 280 90 287T38 306V352Q64 338 93 330T153 321Q209 321 241 346T274 419Q274 453 250 471T178 489H132L140 529H187Q221 529 247 539T290 568T306 617Q306 647 288 664T236 680Q205 680 179 671T127
645L108 680Q135 698 169 710T243 722Q279 722 303 710T341 676T354 625Q354 577 326 549T255 510V507Q286 499 304 475T322 418Q322 374 302 343T243 296T152 280ZM131 0L661 714H718L187 0H131ZM561 1L584 108H397L406 148L652 432H700L640 150H704L695 108H631L608
1H561ZM458 150H593L616 256Q622 284 628 314T641 368Q636 359 625 345T600 314T575 285L458 150Z" />
<glyph unicode="&#xbf;" horiz-adv-x="417" d="M301 344Q293 294 277 261T236 203T174 148Q141 123 112 99T64 44T45 -31Q45 -82 75 -112T158 -142Q191 -142 226 -132T296 -105L317 -150Q275 -171 234 -181T153 -192Q77 -192 32 -151T-13 -37Q-13 12 5 48T57 116T134
179Q169 205 192 226T230 275T253 344H301ZM308 543Q326 543 336 534T346 506Q346 483 333 464T292 444Q275 444 266 454T257 482Q257 504 270 523T308 543Z" />
<glyph unicode="&#xc0;" horiz-adv-x="555" d="M-53 0L350 715H409L506 0H449L415 247H148L11 0H-53ZM176 299H409L379 523Q376 552 373 586T368 650H365Q352 620 335 587T301 521L176 299ZM399 788Q382 807 362 834T323 890T296 938V948H357Q366 924 379 897T407
845T434 800V788H399Z" />
<glyph unicode="&#xc1;" horiz-adv-x="555" d="M-53 0L350 715H409L506 0H449L415 247H148L11 0H-53ZM176 299H409L379 523Q376 552 373 586T368 650H365Q352 620 335 587T301 521L176 299ZM351 798Q371 817 394 844T440 899T476 948H541V940Q530 925 512 905T473
864T430 824T389 788H351V798Z" />
<glyph unicode="&#xc2;" horiz-adv-x="555" d="M-53 0L350 715H409L506 0H449L415 247H148L11 0H-53ZM176 299H409L379 523Q376 552 373 586T368 650H365Q352 620 335 587T301 521L176 299ZM248 798Q267 816 294 842T347 897T388 947H442Q450 924 464 897T493
844T522 798L521 788H485Q472 803 459 821T433 858T409 896Q381 869 349 840T288 788H247L248 798Z" />
<glyph unicode="&#xc3;" horiz-adv-x="555" d="M-53 0L350 715H409L506 0H449L415 247H148L11 0H-53ZM176 299H409L379 523Q376 552 373 586T368 650H365Q352 620 335 587T301 521L176 299ZM230 794Q239 832 253 857T287 894T336 907Q359 907 377 898T412 875T444
853T474 843Q496 843 511 856T539 908H579Q569 872 555 846T520 807T470 794Q449 794 432 804T398 826T366 849T332 859Q311 859 296 845T269 794H230Z" />
<glyph unicode="&#xc4;" horiz-adv-x="555" d="M-53 0L350 715H409L506 0H449L415 247H148L11 0H-53ZM176 299H409L379 523Q376 552 373 586T368 650H365Q352 620 335 587T301 521L176 299ZM485 821Q471 821 463 829T454 853Q454 871 464 886T495 902Q511 902
518 894T525 871Q525 851 514 836T485 821ZM307 821Q293 821 285 829T276 853Q276 871 286 886T317 902Q328 902 334 898T344 887T347 871Q347 851 336 836T307 821Z" />
<glyph unicode="&#xc5;" horiz-adv-x="555" d="M-53 0L350 715H409L506 0H449L415 247H148L11 0H-53ZM176 299H409L379 523Q376 552 373 586T368 650H365Q352 620 335 587T301 521L176 299ZM394 740Q350 740 320 767T289 842Q289 889 320 916T394 944Q438 944
468 916T498 843Q498 795 468 768T394 740ZM394 777Q423 777 441 795T460 842Q460 871 441 889T394 908Q366 908 347 890T328 842Q328 814 346 796T394 777Z" />
<glyph unicode="&#xc6;" horiz-adv-x="804" d="M-54 0L395 714H841L830 662H523L467 401H756L746 349H457L394 52H701L690 0H324L376 246H165L13 0H-54ZM198 299H387L464 662H424L198 299Z" />
<glyph unicode="&#xc7;" horiz-adv-x="591" d="M326 -10Q249 -10 193 24T108 120T78 266Q78 339 95 407T145 532T225 633T333 700T465 724Q514 724 555 715T633 686L609 636Q578 654 542 663T465 672Q404 672 354 651T263 593T196 505T154 394T139 268Q139 163
191 103T335 42Q381 42 422 50T500 71V21Q464 7 423 -1T326 -10ZM233 -240Q218 -240 206 -239T183 -234V-196Q194 -199 205 -200T228 -201Q252 -201 272 -195T304 -174T317 -136Q317 -112 298 -100T241 -86L289 0H330L298 -61Q326 -66 346 -84T367 -136Q367 -167
350 -190T302 -227T233 -240Z" />
<glyph unicode="&#xc8;" horiz-adv-x="525" d="M46 0L197 714H557L546 662H244L188 401H472L462 349H178L114 52H417L406 0H46ZM398 788Q381 807 361 834T322 890T295 938V948H356Q365 924 378 897T406 845T433 800V788H398Z" />
<glyph unicode="&#xc9;" horiz-adv-x="525" d="M46 0L197 714H557L546 662H244L188 401H472L462 349H178L114 52H417L406 0H46ZM346 798Q366 817 389 844T435 899T471 948H536V940Q525 925 507 905T468 864T425 824T384 788H346V798Z" />
<glyph unicode="&#xca;" horiz-adv-x="525" d="M46 0L197 714H557L546 662H244L188 401H472L462 349H178L114 52H417L406 0H46ZM250 798Q269 816 296 842T349 897T390 947H444Q452 924 466 897T495 844T524 798L523 788H487Q474 803 461 821T435 858T411 896Q383
869 351 840T290 788H249L250 798Z" />
<glyph unicode="&#xcb;" horiz-adv-x="525" d="M46 0L197 714H557L546 662H244L188 401H472L462 349H178L114 52H417L406 0H46ZM490 821Q476 821 468 829T459 853Q459 871 469 886T500 902Q516 902 523 894T530 871Q530 851 519 836T490 821ZM312 821Q298 821
290 829T281 853Q281 871 291 886T322 902Q333 902 339 898T349 887T352 871Q352 851 341 836T312 821Z" />
<glyph unicode="&#xcc;" horiz-adv-x="302" d="M-6 0L1 35L77 46L209 668L138 679L145 714H349L342 679L266 668L134 46L205 35L198 0H-6ZM273 788Q256 807 236 834T197 890T170 938V948H231Q240 924 253 897T281 845T308 800V788H273Z" />
<glyph unicode="&#xcd;" horiz-adv-x="302" d="M-6 0L1 35L77 46L209 668L138 679L145 714H349L342 679L266 668L134 46L205 35L198 0H-6ZM220 798Q240 817 263 844T309 899T345 948H410V940Q399 925 381 905T342 864T299 824T258 788H220V798Z" />
<glyph unicode="&#xce;" horiz-adv-x="302" d="M-6 0L1 35L77 46L209 668L138 679L145 714H349L342 679L266 668L134 46L205 35L198 0H-6ZM117 798Q136 816 163 842T216 897T257 947H311Q319 924 333 897T362 844T391 798L390 788H354Q341 803 328 821T302 858T278
896Q250 869 218 840T157 788H116L117 798Z" />
<glyph unicode="&#xcf;" horiz-adv-x="302" d="M-6 0L1 35L77 46L209 668L138 679L145 714H349L342 679L266 668L134 46L205 35L198 0H-6ZM356 821Q342 821 334 829T325 853Q325 871 335 886T366 902Q382 902 389 894T396 871Q396 851 385 836T356 821ZM178 821Q164
821 156 829T147 853Q147 871 157 886T188 902Q199 902 205 898T215 887T218 871Q218 851 207 836T178 821Z" />
<glyph unicode="&#xd0;" horiz-adv-x="672" d="M39 329L50 380H360L349 329H39ZM46 0L197 714H354Q487 714 562 644T637 427Q637 357 620 294T568 177T482 84T361 22T207 0H46ZM210 51Q282 51 340 70T442 124T516 206T561 309T576 428Q576 551 514 607T343 663H244L114
51H210Z" />
<glyph unicode="&#xd1;" horiz-adv-x="691" d="M45 0L196 714H253L504 89H507Q511 114 516 144T528 206T540 266L635 714H691L540 0H482L231 626H228Q225 607 222 586T214 541T205 493T195 445L101 0H45ZM304 794Q313 832 327 857T361 894T410 907Q433 907 451
898T486 875T518 853T548 843Q570 843 585 856T613 908H653Q643 872 629 846T594 807T544 794Q523 794 506 804T472 826T440 849T406 859Q385 859 370 845T343 794H304Z" />
<glyph unicode="&#xd2;" horiz-adv-x="719" d="M336 -10Q247 -10 190 26T106 126T78 272Q78 330 88 386T118 492T168 585T237 659T326 708T432 725Q549 725 616 654T683 445Q683 395 675 342T649 238T604 143T538 64T449 10T336 -10ZM338 42Q387 42 427 59T499
107T554 176T592 261T614 354T622 446Q622 552 573 612T428 673Q379 673 338 657T265 612T210 545T170 462T147 369T139 273Q139 203 161 152T227 71T338 42ZM472 788Q455 807 435 834T396 890T369 938V948H430Q439 924 452 897T480 845T507 800V788H472Z" />
<glyph unicode="&#xd3;" horiz-adv-x="719" d="M336 -10Q247 -10 190 26T106 126T78 272Q78 330 88 386T118 492T168 585T237 659T326 708T432 725Q549 725 616 654T683 445Q683 395 675 342T649 238T604 143T538 64T449 10T336 -10ZM338 42Q387 42 427 59T499
107T554 176T592 261T614 354T622 446Q622 552 573 612T428 673Q379 673 338 657T265 612T210 545T170 462T147 369T139 273Q139 203 161 152T227 71T338 42ZM419 798Q439 817 462 844T508 899T544 948H609V940Q598 925 580 905T541 864T498 824T457 788H419V798Z"
/>
<glyph unicode="&#xd4;" horiz-adv-x="719" d="M336 -10Q247 -10 190 26T106 126T78 272Q78 330 88 386T118 492T168 585T237 659T326 708T432 725Q549 725 616 654T683 445Q683 395 675 342T649 238T604 143T538 64T449 10T336 -10ZM338 42Q387 42 427 59T499
107T554 176T592 261T614 354T622 446Q622 552 573 612T428 673Q379 673 338 657T265 612T210 545T170 462T147 369T139 273Q139 203 161 152T227 71T338 42ZM317 798Q336 816 363 842T416 897T457 947H511Q519 924 533 897T562 844T591 798L590 788H554Q541 803
528 821T502 858T478 896Q450 869 418 840T357 788H316L317 798Z" />
<glyph unicode="&#xd5;" horiz-adv-x="719" d="M336 -10Q247 -10 190 26T106 126T78 272Q78 330 88 386T118 492T168 585T237 659T326 708T432 725Q549 725 616 654T683 445Q683 395 675 342T649 238T604 143T538 64T449 10T336 -10ZM338 42Q387 42 427 59T499
107T554 176T592 261T614 354T622 446Q622 552 573 612T428 673Q379 673 338 657T265 612T210 545T170 462T147 369T139 273Q139 203 161 152T227 71T338 42ZM301 794Q310 832 324 857T358 894T407 907Q430 907 448 898T483 875T515 853T545 843Q567 843 582 856T610
908H650Q640 872 626 846T591 807T541 794Q520 794 503 804T469 826T437 849T403 859Q382 859 367 845T340 794H301Z" />
<glyph unicode="&#xd6;" horiz-adv-x="719" d="M336 -10Q247 -10 190 26T106 126T78 272Q78 330 88 386T118 492T168 585T237 659T326 708T432 725Q549 725 616 654T683 445Q683 395 675 342T649 238T604 143T538 64T449 10T336 -10ZM338 42Q387 42 427 59T499
107T554 176T592 261T614 354T622 446Q622 552 573 612T428 673Q379 673 338 657T265 612T210 545T170 462T147 369T139 273Q139 203 161 152T227 71T338 42ZM571 821Q557 821 549 829T540 853Q540 871 550 886T581 902Q597 902 604 894T611 871Q611 851 600 836T571
821ZM393 821Q379 821 371 829T362 853Q362 871 372 886T403 902Q414 902 420 898T430 887T433 871Q433 851 422 836T393 821Z" />
<glyph unicode="&#xd7;" horiz-adv-x="571" d="M489 571L523 537L339 353L522 170L489 136L305 319L123 136L88 170L271 353L88 536L122 571L305 387L489 571Z" />
<glyph unicode="&#xd8;" horiz-adv-x="719" d="M79 -33L42 -1L124 93Q100 129 89 174T78 272Q78 330 88 386T118 492T168 585T237 659T326 708T432 725Q487 725 530 709T607 658L683 746L721 715L639 620Q660 589 671 544T683 445Q683 395 675 342T649 238T604
143T538 64T449 10T336 -10Q276 -10 232 7T157 57L79 -33ZM338 42Q387 42 427 59T499 107T554 176T593 261T615 354T623 446Q623 483 617 514T599 570L193 100Q216 73 252 58T338 42ZM570 615Q546 643 511 658T428 674Q379 674 338 658T265 612T210 545T170 462T147
369T139 273Q139 235 145 202T164 142L570 615Z" />
<glyph unicode="&#xd9;" horiz-adv-x="685" d="M300 -10Q231 -10 183 12T109 79T84 186Q84 203 86 224T94 269L189 714H247L152 267Q147 246 145 225T142 187Q142 118 184 80T303 42Q367 42 413 65T489 136T534 254L633 714H691L592 248Q574 163 536 106T440 19T300
-10ZM463 788Q446 807 426 834T387 890T360 938V948H421Q430 924 443 897T471 845T498 800V788H463Z" />
<glyph unicode="&#xda;" horiz-adv-x="685" d="M300 -10Q231 -10 183 12T109 79T84 186Q84 203 86 224T94 269L189 714H247L152 267Q147 246 145 225T142 187Q142 118 184 80T303 42Q367 42 413 65T489 136T534 254L633 714H691L592 248Q574 163 536 106T440 19T300
-10ZM406 798Q426 817 449 844T495 899T531 948H596V940Q585 925 567 905T528 864T485 824T444 788H406V798Z" />
<glyph unicode="&#xdb;" horiz-adv-x="685" d="M300 -10Q231 -10 183 12T109 79T84 186Q84 203 86 224T94 269L189 714H247L152 267Q147 246 145 225T142 187Q142 118 184 80T303 42Q367 42 413 65T489 136T534 254L633 714H691L592 248Q574 163 536 106T440 19T300
-10ZM306 798Q325 816 352 842T405 897T446 947H500Q508 924 522 897T551 844T580 798L579 788H543Q530 803 517 821T491 858T467 896Q439 869 407 840T346 788H305L306 798Z" />
<glyph unicode="&#xdc;" horiz-adv-x="685" d="M300 -10Q231 -10 183 12T109 79T84 186Q84 203 86 224T94 269L189 714H247L152 267Q147 246 145 225T142 187Q142 118 184 80T303 42Q367 42 413 65T489 136T534 254L633 714H691L592 248Q574 163 536 106T440 19T300
-10ZM554 821Q540 821 532 829T523 853Q523 871 533 886T564 902Q580 902 587 894T594 871Q594 851 583 836T554 821ZM376 821Q362 821 354 829T345 853Q345 871 355 886T386 902Q397 902 403 898T413 887T416 871Q416 851 405 836T376 821Z" />
<glyph unicode="&#xdd;" horiz-adv-x="497" d="M162 0L220 270L94 714H152L258 329L524 714H590L277 270L221 0H162ZM314 798Q334 817 357 844T403 899T439 948H504V940Q493 925 475 905T436 864T393 824T352 788H314V798Z" />
<glyph unicode="&#xde;" horiz-adv-x="563" d="M46 0L197 714H255L228 586H328Q400 586 445 565T513 505T536 412Q536 346 514 299T451 222T354 178T229 164H138L104 0H46ZM238 215Q307 215 360 234T445 296T477 410Q477 474 437 504T319 535H217L149 215H238Z" />
<glyph unicode="&#xdf;" horiz-adv-x="558" d="M-76 -240Q-94 -240 -108 -237T-134 -230V-179Q-122 -185 -108 -187T-79 -190Q-44 -190 -22 -166T11 -92L150 567Q164 633 192 677T265 743T371 765Q445 765 486 731T527 640Q527 601 512 574T475 528T427 492Q396
472 371 450T346 391Q346 374 356 360T382 333T411 308Q443 280 466 248T489 168Q489 111 465 71T399 11T298 -10Q253 -10 221 -1T168 21V76Q192 61 225 50T292 39Q359 39 394 72T430 163Q430 187 423 205T401 240T368 272Q333 301 312 327T290 389Q290 425 303
449T339 490T384 521Q406 535 425 550T457 587T470 637Q470 673 443 695T367 717Q321 717 289 700T237 649T207 567L68 -91Q58 -139 39 -172T-8 -222T-76 -240Z" />
<glyph unicode="&#xe0;" horiz-adv-x="558" d="M195 -10Q150 -10 118 12T68 76T50 176Q50 230 61 283T95 383T150 465T224 521T315 542Q356 542 384 526T428 483T453 430H457L486 532H531L418 0H372L392 119H389Q369 90 340 60T275 10T195 -10ZM211 39Q253 39
294 69T369 150T417 265Q424 295 426 318T429 362Q429 422 400 457T319 493Q280 493 248 475T189 426T145 355T118 268T108 175Q108 110 134 75T211 39ZM369 606Q352 625 332 652T293 708T266 756V766H327Q336 742 349 715T377 663T404 618V606H369Z" />
<glyph unicode="&#xe1;" horiz-adv-x="558" d="M195 -10Q150 -10 118 12T68 76T50 176Q50 230 61 283T95 383T150 465T224 521T315 542Q356 542 384 526T428 483T453 430H457L486 532H531L418 0H372L392 119H389Q369 90 340 60T275 10T195 -10ZM211 39Q253 39
294 69T369 150T417 265Q424 295 426 318T429 362Q429 422 400 457T319 493Q280 493 248 475T189 426T145 355T118 268T108 175Q108 110 134 75T211 39ZM306 616Q326 635 349 662T395 717T431 766H496V758Q485 743 467 723T428 682T385 642T344 606H306V616Z" />
<glyph unicode="&#xe2;" horiz-adv-x="558" d="M195 -10Q150 -10 118 12T68 76T50 176Q50 230 61 283T95 383T150 465T224 521T315 542Q356 542 384 526T428 483T453 430H457L486 532H531L418 0H372L392 119H389Q369 90 340 60T275 10T195 -10ZM211 39Q253 39
294 69T369 150T417 265Q424 295 426 318T429 362Q429 422 400 457T319 493Q280 493 248 475T189 426T145 355T118 268T108 175Q108 110 134 75T211 39ZM210 616Q229 634 256 660T309 715T350 765H404Q412 742 426 715T455 662T484 616L483 606H447Q434 621 421
639T395 676T371 714Q343 687 311 658T250 606H209L210 616Z" />
<glyph unicode="&#xe3;" horiz-adv-x="558" d="M195 -10Q150 -10 118 12T68 76T50 176Q50 230 61 283T95 383T150 465T224 521T315 542Q356 542 384 526T428 483T453 430H457L486 532H531L418 0H372L392 119H389Q369 90 340 60T275 10T195 -10ZM211 39Q253 39
294 69T369 150T417 265Q424 295 426 318T429 362Q429 422 400 457T319 493Q280 493 248 475T189 426T145 355T118 268T108 175Q108 110 134 75T211 39ZM184 612Q193 650 207 675T241 712T290 725Q313 725 331 716T366 693T398 671T428 661Q450 661 465 674T493
726H533Q523 690 509 664T474 625T424 612Q403 612 386 622T352 644T320 667T286 677Q265 677 250 663T223 612H184Z" />
<glyph unicode="&#xe4;" horiz-adv-x="558" d="M195 -10Q150 -10 118 12T68 76T50 176Q50 230 61 283T95 383T150 465T224 521T315 542Q356 542 384 526T428 483T453 430H457L486 532H531L418 0H372L392 119H389Q369 90 340 60T275 10T195 -10ZM211 39Q253 39
294 69T369 150T417 265Q424 295 426 318T429 362Q429 422 400 457T319 493Q280 493 248 475T189 426T145 355T118 268T108 175Q108 110 134 75T211 39ZM705 639Q691 639 683 647T674 671Q674 689 684 704T715 720Q731 720 738 712T745 689Q745 669 734 654T705
639ZM527 639Q513 639 505 647T496 671Q496 689 506 704T537 720Q548 720 554 716T564 705T567 689Q567 669 556 654T527 639Z" />
<glyph unicode="&#xe5;" horiz-adv-x="558" d="M195 -10Q150 -10 118 12T68 76T50 176Q50 230 61 283T95 383T150 465T224 521T315 542Q356 542 384 526T428 483T453 430H457L486 532H531L418 0H372L392 119H389Q369 90 340 60T275 10T195 -10ZM211 39Q253 39
294 69T369 150T417 265Q424 295 426 318T429 362Q429 422 400 457T319 493Q280 493 248 475T189 426T145 355T118 268T108 175Q108 110 134 75T211 39ZM358 609Q314 609 284 636T253 711Q253 758 284 785T358 813Q402 813 432 785T462 712Q462 664 432 637T358
609ZM358 646Q387 646 405 664T424 711Q424 740 405 758T358 777Q330 777 311 759T292 711Q292 683 310 665T358 646Z" />
<glyph unicode="&#xe6;" horiz-adv-x="831" d="M186 -10Q144 -10 114 12T67 75T50 175Q50 230 61 283T95 383T149 465T221 521T309 542Q348 542 372 525T411 482T432 430H435L466 532H505L485 436Q516 483 562 512T672 542Q724 542 761 511T799 423Q799 379 777
346T714 290T613 256T478 244H451Q450 234 449 221T448 195Q448 122 484 81T591 39Q630 39 664 50T730 76V25Q699 10 661 0T583 -10Q522 -10 477 18T415 106L393 0H352L372 116H369Q348 83 321 55T261 8T186 -10ZM202 39Q233 39 263 56T320 104T366 176T397 266Q404
296 406 319T409 362Q409 422 384 457T314 493Q277 493 245 475T188 427T145 356T118 269T108 175Q108 110 132 75T202 39ZM488 292Q560 292 617 305T708 345T742 418Q742 452 721 472T662 493Q618 493 577 470T506 401T459 292H488Z" />
<glyph unicode="&#xe7;" horiz-adv-x="453" d="M247 -10Q187 -10 143 14T76 84T52 192Q52 249 64 300T99 396T157 473T235 524T332 542Q366 542 400 536T460 517L443 468Q421 479 392 486T332 493Q282 493 241 470T171 405T126 310T110 194Q110 149 126 114T174
59T252 39Q288 39 318 48T380 71V21Q354 8 321 -1T247 -10ZM146 -240Q131 -240 119 -239T96 -234V-196Q107 -199 118 -200T141 -201Q165 -201 185 -195T217 -174T230 -136Q230 -112 211 -100T154 -86L202 0H243L211 -61Q239 -66 259 -84T280 -136Q280 -167 263
-190T215 -227T146 -240Z" />
<glyph unicode="&#xe8;" horiz-adv-x="495" d="M244 -10Q190 -10 147 12T80 80T55 193Q55 261 74 323T130 435T216 513T325 542Q391 542 427 510T464 423Q464 379 442 346T378 290T277 256T142 244H116Q115 234 114 221T113 195Q113 121 150 80T255 39Q295 39
329 50T395 76V26Q365 11 328 1T244 -10ZM152 292Q224 292 282 305T373 346T407 419Q407 451 386 472T320 493Q280 493 241 470T171 401T125 292H152ZM340 606Q323 625 303 652T264 708T237 756V766H298Q307 742 320 715T348 663T375 618V606H340Z" />
<glyph unicode="&#xe9;" horiz-adv-x="495" d="M244 -10Q190 -10 147 12T80 80T55 193Q55 261 74 323T130 435T216 513T325 542Q391 542 427 510T464 423Q464 379 442 346T378 290T277 256T142 244H116Q115 234 114 221T113 195Q113 121 150 80T255 39Q295 39
329 50T395 76V26Q365 11 328 1T244 -10ZM152 292Q224 292 282 305T373 346T407 419Q407 451 386 472T320 493Q280 493 241 470T171 401T125 292H152ZM282 616Q302 635 325 662T371 717T407 766H472V758Q461 743 443 723T404 682T361 642T320 606H282V616Z" />
<glyph unicode="&#xea;" horiz-adv-x="495" d="M244 -10Q190 -10 147 12T80 80T55 193Q55 261 74 323T130 435T216 513T325 542Q391 542 427 510T464 423Q464 379 442 346T378 290T277 256T142 244H116Q115 234 114 221T113 195Q113 121 150 80T255 39Q295 39
329 50T395 76V26Q365 11 328 1T244 -10ZM152 292Q224 292 282 305T373 346T407 419Q407 451 386 472T320 493Q280 493 241 470T171 401T125 292H152ZM183 616Q202 634 229 660T282 715T323 765H377Q385 742 399 715T428 662T457 616L456 606H420Q407 621 394 639T368
676T344 714Q316 687 284 658T223 606H182L183 616Z" />
<glyph unicode="&#xeb;" horiz-adv-x="495" d="M244 -10Q190 -10 147 12T80 80T55 193Q55 261 74 323T130 435T216 513T325 542Q391 542 427 510T464 423Q464 379 442 346T378 290T277 256T142 244H116Q115 234 114 221T113 195Q113 121 150 80T255 39Q295 39
329 50T395 76V26Q365 11 328 1T244 -10ZM152 292Q224 292 282 305T373 346T407 419Q407 451 386 472T320 493Q280 493 241 470T171 401T125 292H152ZM677 639Q663 639 655 647T646 671Q646 689 656 704T687 720Q703 720 710 712T717 689Q717 669 706 654T677 639ZM499
639Q485 639 477 647T468 671Q468 689 478 704T509 720Q520 720 526 716T536 705T539 689Q539 669 528 654T499 639Z" />
<glyph unicode="&#xec;" horiz-adv-x="233" d="M30 0L143 532H200L87 0H30ZM453 606Q436 625 416 652T377 708T350 756V766H411Q420 742 433 715T461 663T488 618V606H453Z" />
<glyph unicode="&#xed;" horiz-adv-x="233" d="M30 0L143 532H200L87 0H30ZM139 616Q159 635 182 662T228 717T264 766H329V758Q318 743 300 723T261 682T218 642T177 606H139V616Z" />
<glyph unicode="&#xee;" horiz-adv-x="233" d="M30 0L143 532H200L87 0H30ZM301 616Q320 634 347 660T400 715T441 765H495Q503 742 517 715T546 662T575 616L574 606H538Q525 621 512 639T486 676T462 714Q434 687 402 658T341 606H300L301 616Z" />
<glyph unicode="&#xef;" horiz-adv-x="233" d="M30 0L143 532H200L87 0H30ZM282 639Q268 639 260 647T251 671Q251 689 261 704T292 720Q308 720 315 712T322 689Q322 669 311 654T282 639ZM104 639Q90 639 82 647T73 671Q73 689 83 704T114 720Q125 720 131 716T141
705T144 689Q144 669 133 654T104 639Z" />
<glyph unicode="&#xf0;" horiz-adv-x="561" d="M230 -10Q173 -10 132 14T69 81T47 183Q47 239 64 290T113 381T191 445T297 469Q360 469 399 439T453 368L456 369Q456 438 437 505T374 629L242 556L222 593L344 661Q329 677 311 692T271 723L304 764Q327 747 349
728T391 687L516 757L537 720L420 655Q444 621 464 579T496 485T508 370Q508 314 498 259T467 156T413 70T335 11T230 -10ZM233 39Q270 39 301 52T357 88T399 143T426 210T436 284Q436 306 429 330T406 374T364 408T299 421Q251 421 215 402T154 348T118 272T105
184Q105 120 138 80T233 39Z" />
<glyph unicode="&#xf1;" horiz-adv-x="566" d="M28 0L142 534H192L172 415H174Q192 443 220 473T286 523T373 544Q417 544 447 529T494 484T510 411Q510 393 507 372T500 334L429 0H369L441 341Q446 361 448 376T450 405Q450 449 427 470T359 491Q315 491 271
463T193 381T142 253L88 0H28ZM188 612Q197 650 211 675T245 712T294 725Q317 725 335 716T370 693T402 671T432 661Q454 661 469 674T497 726H537Q527 690 513 664T478 625T428 612Q407 612 390 622T356 644T324 667T290 677Q269 677 254 663T227 612H188Z" />
<glyph unicode="&#xf2;" horiz-adv-x="564" d="M243 -9Q181 -9 139 16T74 88T52 195Q52 251 64 302T99 397T156 473T231 523T324 541Q385 541 427 516T491 444T513 337Q513 284 502 234T468 139T414 62T338 10T243 -9ZM247 40Q284 40 316 54T373 95T417 159T445
243T455 343Q455 383 441 417T398 471T323 492Q286 492 253 478T194 437T149 373T120 291T110 194Q110 122 145 81T247 40ZM351 606Q334 625 314 652T275 708T248 756V766H309Q318 742 331 715T359 663T386 618V606H351Z" />
<glyph unicode="&#xf3;" horiz-adv-x="564" d="M243 -9Q181 -9 139 16T74 88T52 195Q52 251 64 302T99 397T156 473T231 523T324 541Q385 541 427 516T491 444T513 337Q513 284 502 234T468 139T414 62T338 10T243 -9ZM247 40Q284 40 316 54T373 95T417 159T445
243T455 343Q455 383 441 417T398 471T323 492Q286 492 253 478T194 437T149 373T120 291T110 194Q110 122 145 81T247 40ZM297 616Q317 635 340 662T386 717T422 766H487V758Q476 743 458 723T419 682T376 642T335 606H297V616Z" />
<glyph unicode="&#xf4;" horiz-adv-x="564" d="M243 -9Q181 -9 139 16T74 88T52 195Q52 251 64 302T99 397T156 473T231 523T324 541Q385 541 427 516T491 444T513 337Q513 284 502 234T468 139T414 62T338 10T243 -9ZM247 40Q284 40 316 54T373 95T417 159T445
243T455 343Q455 383 441 417T398 471T323 492Q286 492 253 478T194 437T149 373T120 291T110 194Q110 122 145 81T247 40ZM196 616Q215 634 242 660T295 715T336 765H390Q398 742 412 715T441 662T470 616L469 606H433Q420 621 407 639T381 676T357 714Q329 687
297 658T236 606H195L196 616Z" />
<glyph unicode="&#xf5;" horiz-adv-x="564" d="M243 -9Q181 -9 139 16T74 88T52 195Q52 251 64 302T99 397T156 473T231 523T324 541Q385 541 427 516T491 444T513 337Q513 284 502 234T468 139T414 62T338 10T243 -9ZM247 40Q284 40 316 54T373 95T417 159T445
243T455 343Q455 383 441 417T398 471T323 492Q286 492 253 478T194 437T149 373T120 291T110 194Q110 122 145 81T247 40ZM178 612Q187 650 201 675T235 712T284 725Q307 725 325 716T360 693T392 671T422 661Q444 661 459 674T487 726H527Q517 690 503 664T468
625T418 612Q397 612 380 622T346 644T314 667T280 677Q259 677 244 663T217 612H178Z" />
<glyph unicode="&#xf6;" horiz-adv-x="564" d="M243 -9Q181 -9 139 16T74 88T52 195Q52 251 64 302T99 397T156 473T231 523T324 541Q385 541 427 516T491 444T513 337Q513 284 502 234T468 139T414 62T338 10T243 -9ZM247 40Q284 40 316 54T373 95T417 159T445
243T455 343Q455 383 441 417T398 471T323 492Q286 492 253 478T194 437T149 373T120 291T110 194Q110 122 145 81T247 40ZM695 639Q681 639 673 647T664 671Q664 689 674 704T705 720Q721 720 728 712T735 689Q735 669 724 654T695 639ZM517 639Q503 639 495 647T486
671Q486 689 496 704T527 720Q538 720 544 716T554 705T557 689Q557 669 546 654T517 639Z" />
<glyph unicode="&#xf7;" horiz-adv-x="571" d="M73 329V377H538V329H73ZM305 133Q286 133 275 144T264 179Q264 202 275 213T305 224Q325 224 335 213T346 179Q346 156 336 145T305 133ZM305 481Q286 481 275 493T264 527Q264 550 275 561T305 573Q325 573 335
562T346 527Q346 505 336 493T305 481Z" />
<glyph unicode="&#xf8;" horiz-adv-x="564" d="M48 -33L13 -4L82 73Q67 98 60 128T52 195Q52 251 64 302T100 397T156 473T232 523T324 541Q366 541 398 529T454 493L518 564L554 535L484 461Q499 437 505 406T512 341Q512 288 501 237T468 142T414 64T338 11T243
-9Q201 -9 168 4T113 39L48 -33ZM247 39Q284 39 316 53T374 94T418 157T446 239T456 337Q456 359 453 378T444 411L146 79Q163 60 188 50T247 39ZM420 453Q405 470 381 481T323 492Q286 492 253 478T194 438T148 375T119 294T108 198Q108 174 111 154T121 119L420
453Z" />
<glyph unicode="&#xf9;" horiz-adv-x="566" d="M190 -10Q148 -10 118 5T71 49T55 122Q55 140 58 159T65 198L136 532H193L121 191Q117 172 115 157T113 128Q113 84 136 62T204 39Q249 39 293 68T372 151T423 280L477 532H533L420 0H373L393 119H389Q372 92 344
62T277 11T190 -10ZM367 606Q350 625 330 652T291 708T264 756V766H325Q334 742 347 715T375 663T402 618V606H367Z" />
<glyph unicode="&#xfa;" horiz-adv-x="566" d="M190 -10Q148 -10 118 5T71 49T55 122Q55 140 58 159T65 198L136 532H193L121 191Q117 172 115 157T113 128Q113 84 136 62T204 39Q249 39 293 68T372 151T423 280L477 532H533L420 0H373L393 119H389Q372 92 344
62T277 11T190 -10ZM307 616Q327 635 350 662T396 717T432 766H497V758Q486 743 468 723T429 682T386 642T345 606H307V616Z" />
<glyph unicode="&#xfb;" horiz-adv-x="566" d="M190 -10Q148 -10 118 5T71 49T55 122Q55 140 58 159T65 198L136 532H193L121 191Q117 172 115 157T113 128Q113 84 136 62T204 39Q249 39 293 68T372 151T423 280L477 532H533L420 0H373L393 119H389Q372 92 344
62T277 11T190 -10ZM208 616Q227 634 254 660T307 715T348 765H402Q410 742 424 715T453 662T482 616L481 606H445Q432 621 419 639T393 676T369 714Q341 687 309 658T248 606H207L208 616Z" />
<glyph unicode="&#xfc;" horiz-adv-x="566" d="M190 -10Q148 -10 118 5T71 49T55 122Q55 140 58 159T65 198L136 532H193L121 191Q117 172 115 157T113 128Q113 84 136 62T204 39Q249 39 293 68T372 151T423 280L477 532H533L420 0H373L393 119H389Q372 92 344
62T277 11T190 -10ZM702 639Q688 639 680 647T671 671Q671 689 681 704T712 720Q728 720 735 712T742 689Q742 669 731 654T702 639ZM524 639Q510 639 502 647T493 671Q493 689 503 704T534 720Q545 720 551 716T561 705T564 689Q564 669 553 654T524 639Z" />
<glyph unicode="&#xfd;" horiz-adv-x="439" d="M-41 -241Q-62 -241 -76 -239T-104 -231V-183Q-91 -187 -76 -190T-42 -193Q-4 -193 25 -167T84 -86L134 0L49 532H106L153 222Q158 190 161 159T167 100T170 55H172Q180 70 191 95T218 150T247 205L426 532H487L136
-102Q111 -147 86 -178T30 -225T-41 -241ZM229 616Q249 635 272 662T318 717T354 766H419V758Q408 743 390 723T351 682T308 642T267 606H229V616Z" />
<glyph unicode="&#xfe;" horiz-adv-x="574" d="M-19 -236L191 760H248L206 562Q198 525 189 486T170 413H173Q195 446 224 475T290 523T371 542Q440 542 481 493T522 356Q522 303 511 250T478 151T424 68T350 11T255 -10Q212 -10 182 6T134 48T107 102H104Q101
77 96 45T85 -12L37 -236H-19ZM251 39Q292 39 325 57T384 106T428 179T454 265T463 357Q463 422 435 457T354 493Q311 493 268 464T191 382T141 262Q138 246 136 230T132 200T131 171Q131 108 162 74T251 39Z" />
<glyph unicode="&#xff;" horiz-adv-x="439" d="M-41 -241Q-62 -241 -76 -239T-104 -231V-183Q-91 -187 -76 -190T-42 -193Q-4 -193 25 -167T84 -86L134 0L49 532H106L153 222Q158 190 161 159T167 100T170 55H172Q180 70 191 95T218 150T247 205L426 532H487L136
-102Q111 -147 86 -178T30 -225T-41 -241ZM628 639Q614 639 606 647T597 671Q597 689 607 704T638 720Q654 720 661 712T668 689Q668 669 657 654T628 639ZM450 639Q436 639 428 647T419 671Q419 689 429 704T460 720Q471 720 477 716T487 705T490 689Q490 669
479 654T450 639Z" />
<glyph unicode="&#x2013;" horiz-adv-x="480" d="M32 244L44 297H445L434 244H32Z" />
<glyph unicode="&#x2014;" horiz-adv-x="958" d="M32 244L44 297H922L911 244H32Z" />
<glyph unicode="&#x2018;" horiz-adv-x="148" d="M63 479Q78 518 98 558T141 639T187 714H230Q215 686 200 655T172 590T146 527T125 469H67L63 479Z" />
<glyph unicode="&#x2019;" horiz-adv-x="148" d="M60 469Q81 507 101 550T138 636T166 714H224L228 704Q213 666 193 626T150 545T104 469H60Z" />
<glyph unicode="&#x201a;" horiz-adv-x="218" d="M-45 -129Q-25 -91 -5 -48T32 38T61 116H119L123 106Q108 68 88 28T45 -53T-1 -129H-45Z" />
<glyph unicode="&#x201c;" horiz-adv-x="305" d="M220 479Q235 518 255 558T298 639T345 714H388Q368 677 348 634T311 548T282 469H224L220 479ZM63 479Q78 518 98 558T141 639T187 714H230Q215 686 200 655T172 590T146 527T125 469H67L63 479Z" />
<glyph unicode="&#x201d;" horiz-adv-x="305" d="M218 469Q238 507 258 550T294 636T323 714H381L386 704Q371 666 351 626T308 545T261 469H218ZM60 469Q81 507 101 550T138 636T166 714H224L228 704Q213 666 193 626T150 545T104 469H60Z" />
<glyph unicode="&#x201e;" horiz-adv-x="379" d="M112 -129Q133 -91 152 -48T189 38T218 116H276L280 106Q265 68 245 28T202 -53T156 -129H112ZM-45 -129Q-25 -91 -5 -48T32 38T61 116H119L123 106Q108 68 88 28T45 -53T-1 -129H-45Z" />
<glyph unicode="&#x2022;" horiz-adv-x="376" d="M204 270Q170 270 149 291T128 355Q128 386 138 410T168 447T215 460Q238 460 255 451T282 423T292 375Q292 344 281 321T251 284T204 270Z" />
<glyph unicode="&#x2039;" horiz-adv-x="249" d="M140 71L31 270L33 284L221 472L250 443L92 270L179 89L140 71Z" />
<glyph unicode="&#x203a;" horiz-adv-x="249" d="M30 71L1 100L159 272L72 454L111 472L219 272L218 259L30 71Z" />
</font>
</defs>
</svg>
