<?xml version="1.0" standalone="no"?>
<!DOCTYPE svg PUBLIC "-//W3C//DTD SVG 1.1//EN" "http://www.w3.org/Graphics/SVG/1.1/DTD/svg11.dtd">
<svg xmlns="http://www.w3.org/2000/svg">
<defs >
<font id="NotoSans" horiz-adv-x="552" ><font-face
    font-family="Noto Sans Medium"
    units-per-em="1000"
    panose-1="2 11 5 2 4 5 4 9 2 4"
    ascent="1069"
    descent="-293"
    alphabetic="0" />
<glyph unicode=" " horiz-adv-x="260" />
<glyph unicode="!" horiz-adv-x="268" d="M75 212L163 714H287L162 212H75ZM77 -14Q47 -14 33 2T18 45Q18 78 37 104T100 130Q126 130 142 115T158 71Q158 39 138 13T77 -14Z" />
<glyph unicode="&quot;" horiz-adv-x="410" d="M285 456L320 714H428L353 456H285ZM106 456L141 714H248L174 456H106Z" />
<glyph unicode="#" horiz-adv-x="646" d="M92 0L150 206H27L34 282H172L216 430H85L92 506H236L296 714H378L318 506H448L509 714H587L528 506H653L646 430H506L463 282H597L590 206H441L382 0H300L361 206H231L172 0H92ZM253 282H383L425 430H296L253 282Z" />
<glyph unicode="$" horiz-adv-x="551" d="M192 47Q148 49 106 59T31 85V180Q70 159 117 146T209 132L253 330Q211 345 180 366T132 417T114 491Q114 549 141 588T217 650T325 677L343 759H409L392 676Q431 673 465 664T531 637L493 554Q468 567 438 577T373 590L333
399Q378 382 410 362T459 312T476 241Q476 184 449 143T374 78T258 47L235 -58H169L192 47ZM276 134Q304 138 326 150T361 182T374 231Q374 248 368 262T348 286T313 305L276 134ZM307 590Q280 587 259 576T226 545T213 495Q213 480 219 467T239 442T272 423L307
590Z" />
<glyph unicode="%" horiz-adv-x="816" d="M113 0L643 714H732L203 0H113ZM195 276Q136 276 105 314T73 424Q73 455 78 494T97 574T132 648T187 703T267 724Q327 724 359 688T391 582Q391 553 386 513T366 432T329 356T273 298T195 276ZM202 352Q225 352 242 369T272
415T291 474T301 533T305 579Q305 615 294 631T261 648Q239 648 222 632T193 590T174 534T163 474T159 423Q159 388 170 370T202 352ZM578 -10Q519 -10 487 27T455 135Q455 169 460 209T479 290T515 364T571 418T650 438Q710 438 742 402T774 298Q774 268 768 228T749
147T713 70T657 12T578 -10ZM585 67Q607 67 624 84T654 129T673 188T683 248T687 294Q687 330 676 346T643 362Q621 362 604 346T576 304T557 248T546 188T542 137Q542 102 552 85T585 67Z" />
<glyph unicode="&amp;" horiz-adv-x="683" d="M224 -10Q137 -10 85 36T32 170Q32 222 53 262T115 334T217 395Q198 427 185 463T172 538Q172 594 196 636T264 701T369 725Q423 725 459 707T515 656T534 580Q534 530 509 493T441 429T344 375L466 207Q497 238 518
274T556 351H661Q643 309 622 271T574 199T518 135L617 0H494L445 69Q400 35 349 13T224 -10ZM243 78Q275 78 301 86T350 108T395 138L260 331Q228 314 201 294T156 246T139 178Q139 149 152 127T188 91T243 78ZM303 438Q326 449 349 462T391 491T421 526T433 570Q433
603 415 622T364 641Q334 641 314 629T282 594T271 541Q271 513 279 487T303 438Z" />
<glyph unicode="&apos;" horiz-adv-x="230" d="M106 456L141 714H248L174 456H106Z" />
<glyph unicode="(" horiz-adv-x="304" d="M111 -158Q88 -116 72 -70T48 28T39 134Q39 223 55 301T103 451T180 587T285 714H380Q327 655 283 590T205 453T154 301T136 133Q136 77 143 27T162 -70T193 -158H111Z" />
<glyph unicode=")" horiz-adv-x="304" d="M-76 -158Q-23 -99 21 -34T99 103T149 255T167 423Q167 479 161 529T142 626T111 714H193Q217 672 232 626T256 528T265 421Q265 333 249 254T202 104T124 -32T19 -158H-76Z" />
<glyph unicode="*" horiz-adv-x="549" d="M366 295L314 481L199 324L127 391L271 523L97 574L130 663L305 575L324 764L422 745L364 563L564 574L558 480L376 502L460 324L366 295Z" />
<glyph unicode="+" horiz-adv-x="572" d="M343 393H539V312H343V111H261V312H65V393H261V595H343V393Z" />
<glyph unicode="," horiz-adv-x="265" d="M-45 -129Q-27 -89 -10 -46T24 40T53 116H161L165 105Q149 70 128 30T83 -51T35 -129H-45Z" />
<glyph unicode="-" horiz-adv-x="316" d="M24 221L45 314H286L266 221H24Z" />
<glyph unicode="." horiz-adv-x="265" d="M77 -14Q47 -14 33 2T18 43Q18 77 37 103T101 130Q127 130 142 115T158 72Q158 38 137 12T77 -14Z" />
<glyph unicode="/" horiz-adv-x="375" d="M-45 0L351 714H457L61 0H-45Z" />
<glyph unicode="0" horiz-adv-x="551" d="M234 -10Q142 -10 96 52T50 232Q50 285 57 342T80 454T120 558T178 644T255 703T352 725Q398 725 432 711T490 667T524 595T536 495Q536 434 529 374T506 256T466 151T408 67T331 10T234 -10ZM245 79Q275 79 300 97T346
147T382 220T408 308T424 403T429 498Q429 566 408 601T345 636Q315 636 290 618T243 568T206 495T178 409T162 318T156 231Q156 157 177 118T245 79Z" />
<glyph unicode="1" horiz-adv-x="551" d="M291 431Q297 458 303 488T317 546T331 594Q318 580 301 568T265 543L175 486L127 564L366 714H457L304 0H198L291 431Z" />
<glyph unicode="2" horiz-adv-x="551" d="M-5 0L13 84L241 289Q290 332 323 365T379 426T411 481T421 540Q421 583 396 608T324 634Q297 634 272 626T222 603T172 568L122 640Q165 676 218 700T339 724Q402 724 444 702T508 643T530 558Q530 498 507 450T435 350T309
233L152 98V94H464L445 0H-5Z" />
<glyph unicode="3" horiz-adv-x="551" d="M206 -10Q149 -10 103 0T18 29V127Q54 107 104 93T205 78Q243 78 273 87T325 113T357 155T369 212Q369 248 354 273T308 312T230 326H165L182 409H239Q275 409 307 418T365 444T406 488T421 549Q421 589 396 612T326 636Q281
636 244 620T172 580L125 654Q168 684 219 704T341 724Q403 724 445 704T508 648T529 565Q529 515 508 474T446 406T347 368V364Q403 354 440 316T477 211Q477 169 462 130T413 59T329 9T206 -10Z" />
<glyph unicode="4" horiz-adv-x="551" d="M275 0L309 158H1L18 248L413 714H529L431 247H533L514 158H411L377 0H275ZM122 247H328L362 404Q370 437 379 474T398 545T413 598H409Q401 585 389 568T365 534T343 506L122 247Z" />
<glyph unicode="5" horiz-adv-x="551" d="M200 -10Q167 -10 136 -6T79 8T30 29V128Q66 106 108 92T196 78Q246 78 281 91T338 127T370 179T380 238Q380 293 348 325T254 357Q224 357 197 352T143 340L101 372L200 714H540L520 620H272L217 432Q233 435 252 438T296
441Q354 441 397 419T465 354T490 252Q490 204 475 158T426 73T337 13T200 -10Z" />
<glyph unicode="6" horiz-adv-x="551" d="M251 -10Q191 -10 148 15T81 90T57 215Q57 269 66 327T95 441T143 546T212 633Q242 663 278 683T358 713T454 724Q481 724 507 721T551 713L531 624Q514 629 492 632T444 636Q380 636 328 608T239 522T178 371H182Q200
395 224 413T279 442T343 453Q417 453 460 407T504 273Q504 225 490 176T446 84T367 16T251 -10ZM260 78Q294 78 320 93T363 135T390 195T400 264Q400 314 377 341T306 369Q273 369 245 354T197 315T171 271Q167 262 165 251T162 228T161 204Q161 179 166 156T184
116T215 88T260 78Z" />
<glyph unicode="7" horiz-adv-x="551" d="M68 0L437 622H102L122 714H571L556 637L185 0H68Z" />
<glyph unicode="8" horiz-adv-x="551" d="M247 -10Q177 -10 131 14T63 79T40 170Q40 221 61 261T124 331T223 383Q200 401 181 422T150 470T139 533Q139 591 167 634T244 701T358 725Q425 725 466 703T526 644T545 566Q545 513 522 477T462 415T382 373Q415 353
440 328T479 271T493 194Q493 141 468 95T387 19T247 -10ZM257 74Q302 74 331 91T374 135T388 192Q388 223 377 248T345 293T292 332Q250 318 217 298T166 249T147 178Q147 130 177 102T257 74ZM316 419Q357 434 384 453T425 497T440 554Q440 594 416 617T350 640Q317
640 293 627T256 591T242 536Q242 494 262 467T316 419Z" />
<glyph unicode="9" horiz-adv-x="551" d="M163 -10Q132 -10 101 -6T46 7V101Q70 92 99 86T163 79Q214 79 253 96T321 147T370 229T404 339H399Q383 316 361 298T310 271T250 261Q194 261 156 284T99 349T79 450Q79 500 94 548T142 637T222 700T335 724Q394 724
436 700T502 626T525 500Q525 447 517 389T491 275T449 169T391 84Q369 60 344 42T290 13T230 -4T163 -10ZM277 345Q308 345 334 357T379 392T409 442Q415 457 418 475T421 515Q421 551 410 578T379 620T326 636Q292 636 266 622T221 582T193 525T184 457Q184 403
207 374T277 345Z" />
<glyph unicode=":" horiz-adv-x="265" d="M159 408Q129 408 115 423T100 464Q100 487 108 507T135 539T183 552Q209 552 224 538T239 493Q239 460 219 434T159 408ZM77 -14Q47 -14 33 2T18 43Q18 77 37 103T101 130Q127 130 142 115T158 72Q158 38 137 12T77 -14Z" />
<glyph unicode=";" horiz-adv-x="265" d="M-49 -129Q-32 -89 -14 -46T20 40T49 116H157L161 105Q145 70 124 30T78 -51T30 -129H-49ZM159 408Q129 408 115 423T100 464Q100 487 108 507T135 539T183 552Q209 552 224 538T239 493Q239 460 219 434T159 408Z" />
<glyph unicode="&lt;" horiz-adv-x="572" d="M540 111L65 320V376L540 613V524L176 352L540 200V111Z" />
<glyph unicode="=" horiz-adv-x="572" d="M69 410V491H535V410H69ZM69 213V295H535V213H69Z" />
<glyph unicode="&gt;" horiz-adv-x="572" d="M65 200L429 352L65 524V613L540 376V320L65 111V200Z" />
<glyph unicode="?" horiz-adv-x="439" d="M127 212Q135 256 148 288T186 349T247 405Q279 429 304 450T345 495T360 553Q360 592 339 613T274 635Q237 635 201 622T128 592L93 671Q135 694 185 709T288 724Q369 724 417 684T465 566Q465 519 448 483T398 416T321
351Q285 325 265 306T233 266T214 212H127ZM136 -14Q106 -14 92 2T77 43Q77 77 96 103T161 130Q186 130 201 115T217 72Q217 38 197 12T136 -14Z" />
<glyph unicode="@" horiz-adv-x="850" d="M387 -91Q308 -91 246 -68T141 0T74 107T51 245Q51 324 72 394T135 522T234 624T363 690T518 713Q624 713 692 674T795 566T829 414Q829 362 819 316T789 231T742 164T681 120T608 104Q557 104 533 128T502 188H498Q476
152 444 128T362 104Q307 104 273 140T238 247Q238 294 251 335T286 410T340 468T410 506T491 519Q541 519 575 511T636 491L587 304Q580 277 576 259T572 223Q572 196 584 186T614 175Q638 175 658 188T695 224T722 278T740 341T746 408Q746 474 722 526T645 609T506
640Q439 640 383 621T281 567T203 484T153 377T136 251Q136 172 164 112T251 18T398 -16Q454 -16 507 -4T607 26V-47Q556 -67 500 -79T387 -91ZM383 175Q428 175 457 215T505 321L537 440Q527 444 514 447T482 450Q447 450 419 434T369 390T336 327T325 254Q325
212 340 194T383 175Z" />
<glyph unicode="A" horiz-adv-x="581" d="M-58 0L326 714H446L529 0H424L402 207H164L57 0H-58ZM212 301H393L378 461Q375 496 372 537T368 612H366Q351 578 333 540T294 460L212 301Z" />
<glyph unicode="B" horiz-adv-x="606" d="M37 0L188 714H379Q446 714 494 697T569 644T595 551Q595 502 576 466T521 406T436 372V367Q485 354 517 319T549 225Q549 150 513 100T415 25T273 0H37ZM277 90Q328 90 364 106T419 152T438 225Q438 270 410 299T316
329H213L162 90H277ZM335 416Q378 416 411 429T464 468T484 534Q484 577 457 600T368 623H275L231 416H335Z" />
<glyph unicode="C" horiz-adv-x="594" d="M325 -10Q243 -10 186 23T99 119T68 265Q68 329 83 394T128 519T205 624T313 697T453 724Q509 724 553 714T638 681L595 593Q566 609 532 620T453 631Q397 631 353 610T276 553T223 470T191 371T180 269Q180 181 223 132T345
83Q386 83 426 92T505 115V22Q469 9 426 0T325 -10Z" />
<glyph unicode="D" horiz-adv-x="670" d="M37 0L188 714H364Q493 714 566 644T639 433Q639 357 622 291T570 171T486 79T371 21T226 0H37ZM231 91Q289 91 336 108T419 157T479 230T515 324T528 432Q528 533 480 578T352 623H275L162 91H231Z" />
<glyph unicode="E" horiz-adv-x="522" d="M37 0L188 714H560L541 622H275L232 418H480L462 327H213L162 93H429L409 0H37Z" />
<glyph unicode="F" horiz-adv-x="493" d="M37 0L188 714H560L541 622H275L226 388H474L454 296H206L143 0H37Z" />
<glyph unicode="G" horiz-adv-x="682" d="M337 -10Q211 -10 140 61T68 262Q68 338 86 407T137 534T219 635T329 701T463 724Q526 724 574 713T668 681L628 589Q591 607 550 619T460 631Q397 631 346 603T258 525T200 410T180 269Q180 215 198 173T255 107T353
83Q387 83 415 88T464 99L506 291H369L389 383H632L555 28Q509 12 458 1T337 -10Z" />
<glyph unicode="H" horiz-adv-x="686" d="M37 0L188 714H295L232 418H522L584 714H690L539 0H433L502 326H213L144 0H37Z" />
<glyph unicode="I" horiz-adv-x="341" d="M-23 0L-10 60L76 86L191 628L116 653L128 714H398L385 653L297 628L182 86L259 60L247 0H-23Z" />
<glyph unicode="J" horiz-adv-x="290" d="M-76 -196Q-102 -196 -122 -193T-156 -184L-154 -93Q-139 -97 -121 -100T-81 -103Q-50 -103 -26 -91T17 -52T44 18L192 714H298L148 5Q133 -67 103 -111T28 -176T-76 -196Z" />
<glyph unicode="K" horiz-adv-x="577" d="M37 0L188 714H294L220 368L286 444L539 714H667L363 392L524 0H406L278 329L201 276L143 0H37Z" />
<glyph unicode="L" horiz-adv-x="490" d="M37 0L188 714H294L162 93H429L409 0H37Z" />
<glyph unicode="M" horiz-adv-x="853" d="M36 0L187 714H334L392 145H396L698 714H856L707 0H603L688 399Q697 440 705 478T722 549T737 605H735L410 0H320L257 604H253Q251 584 246 550T234 476T219 400L135 0H36Z" />
<glyph unicode="N" horiz-adv-x="721" d="M36 0L187 714H305L509 143H512Q515 166 520 199T533 269T546 337L627 714H726L575 0H459L252 577H248Q246 564 243 541T235 489T225 430T213 373L135 0H36Z" />
<glyph unicode="O" horiz-adv-x="724" d="M333 -10Q248 -10 189 23T99 119T68 266Q68 326 79 383T111 491T163 584T235 659T326 708T434 725Q559 725 626 651T693 448Q693 387 683 330T653 222T603 128T533 55T444 7T333 -10ZM339 83Q376 83 407 96T466 132T514
189T550 263T573 351T581 448Q581 535 540 583T427 632Q389 632 356 619T296 582T248 525T211 451T188 364T180 267Q180 209 199 168T253 105T339 83Z" />
<glyph unicode="P" horiz-adv-x="580" d="M37 0L188 714H360Q440 714 488 690T559 623T581 522Q581 460 560 414T499 335T400 288T268 272H201L143 0H37ZM281 361Q340 361 383 378T449 430T473 518Q473 573 442 598T350 623H275L220 361H281Z" />
<glyph unicode="Q" horiz-adv-x="724" d="M349 -9Q345 -10 341 -10T333 -10Q248 -10 189 23T99 119T68 266Q68 326 79 383T111 491T163 584T235 659T326 708T434 725Q559 725 626 651T693 448Q693 388 683 332T654 225T605 133T537 60T451 11L582 -170H450L349
-9ZM339 83Q376 83 408 96T468 132T515 189T551 263T573 351T581 448Q581 535 540 583T427 632Q389 632 356 619T296 582T248 525T211 451T188 364T180 267Q180 209 199 168T253 105T339 83Z" />
<glyph unicode="R" horiz-adv-x="584" d="M37 0L188 714H350Q459 714 516 668T573 529Q573 476 555 433T499 360T402 311L522 0H405L304 289H204L143 0H37ZM289 379Q334 379 366 389T421 417T453 463T464 522Q464 577 433 599T340 622H275L223 379H289Z" />
<glyph unicode="S" horiz-adv-x="512" d="M188 -10Q135 -10 94 -1T19 26V127Q53 108 95 95T189 82Q220 82 247 88T295 109T328 146T341 198Q341 225 330 245T294 285T232 327Q196 349 167 374T121 433T104 514Q104 563 122 601T173 668T249 710T342 724Q398 724
442 713T526 680L486 593Q457 608 419 619T342 631Q315 631 292 624T252 603T226 568T217 522Q217 493 227 473T260 437T314 401Q357 375 387 349T434 289T451 208Q451 154 432 113T378 45T294 4T188 -10Z" />
<glyph unicode="T" horiz-adv-x="510" d="M146 0L277 621H88L108 714H593L574 621H385L253 0H146Z" />
<glyph unicode="U" horiz-adv-x="681" d="M299 -10Q225 -10 175 13T101 81T76 189Q76 206 78 229T87 277L180 714H286L193 274Q188 253 186 231T183 193Q183 142 214 113T306 83Q361 83 396 102T453 160T487 255L585 714H692L592 246Q576 168 541 111T447 22T299 -10Z" />
<glyph unicode="V" horiz-adv-x="563" d="M164 0L91 714H196L235 268Q237 244 239 217T241 163T241 114H244Q257 149 274 187T314 269L539 714H655L279 0H164Z" />
<glyph unicode="W" horiz-adv-x="867" d="M130 0L102 714H205L216 292Q217 252 216 208T211 123H214Q228 162 247 211T285 300L477 714H580L597 301Q598 274 599 243T600 180T598 123H602Q611 150 621 179T642 237T665 295L845 714H956L635 0H521L503 420Q502
449 501 474T500 523T500 569H496Q485 536 472 504T439 426L243 0H130Z" />
<glyph unicode="X" horiz-adv-x="550" d="M-53 0L235 377L111 714H220L311 447L512 714H631L362 370L496 0H382L285 296L65 0H-53Z" />
<glyph unicode="Y" horiz-adv-x="525" d="M149 0L207 269L92 714H199L278 376L497 714H617L312 267L257 0H149Z" />
<glyph unicode="Z" horiz-adv-x="532" d="M-16 0L0 78L425 621H125L145 714H577L562 635L135 93H457L438 0H-16Z" />
<glyph unicode="[" horiz-adv-x="302" d="M-12 -158L174 714H379L361 633H252L102 -77H210L193 -158H-12Z" />
<glyph unicode="\" horiz-adv-x="375" d="M214 0L108 714H202L309 0H214Z" />
<glyph unicode="]" horiz-adv-x="302" d="M-71 -158L-53 -77H55L205 633H97L114 714H319L133 -158H-71Z" />
<glyph unicode="^" horiz-adv-x="566" d="M32 263L270 719H327L532 263H444L293 607L122 263H32Z" />
<glyph unicode="_" horiz-adv-x="396" d="M-92 -158L-77 -90H321L306 -158H-92Z" />
<glyph unicode="`" horiz-adv-x="291" d="M258 606Q239 625 217 652T176 706T146 756V766H257Q264 743 274 717T297 667T323 618V606H258Z" />
<glyph unicode="a" horiz-adv-x="576" d="M194 -10Q153 -10 120 10T67 72T47 177Q47 235 59 290T93 392T148 474T220 529T307 549Q342 549 368 537T412 505T442 460H447L477 539H558L443 0H362L373 91H369Q347 63 321 40T263 4T194 -10ZM232 77Q267 77 299 103T358
172T397 269Q404 295 406 318T408 363Q408 406 385 434T321 462Q292 462 267 447T221 404T186 341T163 264T154 178Q154 127 174 102T232 77Z" />
<glyph unicode="b" horiz-adv-x="584" d="M278 -10Q242 -10 216 2T171 34T141 78H136L105 0H25L186 760H291L256 592Q250 562 242 531T227 477T218 447H222Q244 475 268 497T321 534T387 548Q430 548 463 528T516 467T536 362Q536 305 525 251T491 149T438 66T366
11T278 -10ZM265 77Q294 77 319 92T364 136T399 200T421 277T429 360Q429 411 409 436T350 462Q327 462 306 451T264 419T228 371T199 312T180 246T173 178Q173 133 196 105T265 77Z" />
<glyph unicode="c" horiz-adv-x="462" d="M247 -10Q189 -10 144 11T73 77T47 190Q47 249 59 301T96 399T154 478T232 530T329 549Q369 549 405 542T470 520L440 436Q418 445 391 453T332 462Q291 462 259 440T203 381T167 296T154 195Q154 157 167 131T204 91T262
77Q298 77 329 87T393 112V24Q363 9 327 0T247 -10Z" />
<glyph unicode="d" horiz-adv-x="583" d="M194 -10Q153 -10 120 10T67 71T47 178Q47 235 58 289T92 390T146 472T218 528T307 548Q342 548 367 536T409 504T439 460H443Q445 477 448 497T454 539T463 585L500 760H604L443 0H360L370 91H366Q343 63 318 40T262
4T194 -10ZM234 77Q256 77 278 88T319 119T354 167T383 226T402 292T409 360Q409 406 387 434T318 462Q289 462 264 446T219 402T185 338T162 261T154 178Q154 127 174 102T234 77Z" />
<glyph unicode="e" horiz-adv-x="516" d="M247 -10Q185 -10 140 14T71 84T47 195Q47 260 65 323T120 437T208 518T326 549Q406 549 447 514T488 417Q488 377 470 342T413 282T315 242T174 228H155Q154 219 154 211T153 196Q153 140 182 107T267 74Q307 74 341
85T418 116V30Q378 12 340 1T247 -10ZM180 307Q239 307 285 318T358 352T385 411Q385 436 369 451T320 466Q289 466 259 447T206 393T169 307H180Z" />
<glyph unicode="f" horiz-adv-x="334" d="M-40 -240Q-61 -240 -79 -237T-111 -229V-142Q-96 -147 -83 -150T-55 -153Q-20 -153 0 -127T32 -48L139 459H50L60 506L156 541L167 587Q178 638 194 672T233 726T286 756T354 765Q382 765 409 759T455 745L427 665Q413
670 397 674T360 679Q325 679 304 658T271 584L261 539H374L357 459H245L135 -62Q123 -115 102 -155T47 -218T-40 -240Z" />
<glyph unicode="g" horiz-adv-x="583" d="M187 -240Q135 -240 94 -231T21 -206V-111Q42 -122 68 -131T124 -147T183 -153Q242 -153 279 -125T332 -33L340 -1Q345 20 352 47T365 91H361Q339 64 315 41T260 4T193 -10Q151 -10 118 10T66 73T47 177Q47 234 58 288T92
390T146 472T218 528T306 549Q342 549 368 537T412 505T443 460H447L478 539H559L438 -26Q421 -104 387 -151T303 -219T187 -240ZM235 77Q257 77 278 88T318 119T354 167T383 225T401 291T408 360Q408 406 387 434T319 462Q290 462 265 446T220 402T185 338T162
261T154 178Q154 127 175 102T235 77Z" />
<glyph unicode="h" horiz-adv-x="586" d="M25 0L186 760H291L253 582Q249 562 243 538T230 491T218 447H222Q242 472 267 495T323 533T395 548Q439 548 469 532T515 484T532 405Q532 387 529 366T521 322L452 0H347L417 331Q421 352 423 367T425 395Q425 427 410
444T360 462Q327 462 291 437T226 361T179 230L130 0H25Z" />
<glyph unicode="i" horiz-adv-x="270" d="M25 0L140 539H245L130 0H25ZM218 622Q194 622 179 634T163 673Q163 693 171 708T194 733T230 743Q255 743 269 731T284 694Q284 661 265 642T218 622Z" />
<glyph unicode="j" horiz-adv-x="270" d="M-58 -240Q-78 -240 -96 -237T-127 -229V-142Q-114 -147 -100 -150T-69 -153Q-49 -153 -33 -143T-6 -112T13 -60L140 539H245L115 -72Q105 -122 85 -159T30 -218T-58 -240ZM218 622Q195 622 179 634T163 673Q163 693 171
708T194 733T231 743Q256 743 270 731T284 694Q284 661 265 642T218 622Z" />
<glyph unicode="k" horiz-adv-x="517" d="M24 0L185 760H291L224 447Q211 383 199 343T182 288H185L429 539H552L318 304L460 0H343L237 237L169 187L130 0H24Z" />
<glyph unicode="l" horiz-adv-x="270" d="M24 0L186 760H291L130 0H24Z" />
<glyph unicode="m" horiz-adv-x="884" d="M25 0L140 539H223L213 439H217Q236 467 261 492T318 533T390 549Q445 549 475 518T513 432H517Q537 463 564 489T624 532T698 549Q761 549 795 513T829 410Q829 387 826 366T818 322L751 0H644L715 331Q720 352 722 367T724
397Q724 428 709 445T662 462Q637 462 612 448T563 405T521 335T490 238L440 0H335L405 331Q409 352 411 367T413 395Q413 427 399 444T353 462Q329 462 304 448T255 405T212 333T179 230L130 0H25Z" />
<glyph unicode="n" horiz-adv-x="586" d="M22 0L138 541H226L215 441H217Q236 469 261 494T320 535T395 551Q439 551 470 534T518 486T534 410Q534 388 531 365T523 321L454 0H344L415 332Q419 353 421 368T424 397Q424 428 408 444T360 460Q327 460 292 435T228
360T181 230L132 0H22Z" />
<glyph unicode="o" horiz-adv-x="569" d="M249 -9Q188 -9 142 16T72 88T47 199Q47 250 58 300T91 395T146 474T223 527T321 547Q385 547 429 522T498 450T523 337Q523 286 512 237T480 143T426 65T349 11T249 -9ZM257 78Q284 78 308 90T352 126T386 181T408 255T416
344Q416 374 407 400T377 443T319 460Q288 460 262 446T216 406T182 348T160 276T153 196Q153 140 180 109T257 78Z" />
<glyph unicode="p" horiz-adv-x="584" d="M-25 -240L140 539H223L213 444H217Q239 472 264 495T321 533T389 548Q431 548 464 528T516 467T536 361Q536 303 525 249T491 148T438 66T366 10T278 -10Q242 -10 217 2T175 35T144 78H140Q138 55 134 26T124 -28L79
-240H-25ZM265 77Q294 77 319 92T364 136T399 200T421 277T429 360Q429 411 409 436T350 462Q327 462 306 451T264 419T228 371T199 312T180 246T173 178Q173 133 196 105T265 77Z" />
<glyph unicode="q" horiz-adv-x="583" d="M332 -31Q335 -16 341 5T353 50T365 91H361Q339 64 315 41T260 4T193 -10Q152 -10 119 10T67 71T47 177Q47 234 58 288T92 390T146 472T218 528T308 549Q343 549 368 537T412 505T442 460H447L478 539H558L392 -240H288L332
-31ZM234 77Q257 77 278 88T319 120T355 169T383 228T401 293T408 360Q408 403 387 432T319 462Q290 462 265 446T220 402T185 338T162 261T154 178Q154 127 174 102T234 77Z" />
<glyph unicode="r" horiz-adv-x="405" d="M25 0L140 539H223L213 439H218Q239 469 263 493T316 533T383 549Q396 549 411 548T438 543L415 445Q403 448 391 450T364 452Q330 452 301 435T248 389T208 323T182 245L130 0H25Z" />
<glyph unicode="s" horiz-adv-x="444" d="M161 -10Q111 -10 74 -1T7 23V116Q36 99 75 86T156 73Q191 73 216 82T254 109T268 150Q268 168 261 181T234 208T180 242Q144 263 119 284T81 330T68 390Q68 440 91 475T157 529T258 549Q306 549 348 538T424 509L390
429Q363 442 331 453T259 464Q221 464 198 447T174 399Q174 383 181 371T206 345T258 312Q292 293 318 273T360 227T375 162Q375 106 349 68T275 10T161 -10Z" />
<glyph unicode="t" horiz-adv-x="355" d="M189 -10Q132 -10 95 16T57 110Q57 124 59 141T65 176L125 459H45L54 508L146 547L209 659H273L247 539H383L366 459H231L171 175Q168 164 166 151T164 125Q164 103 176 90T214 76Q232 76 249 79T287 90V10Q272 3 245
-3T189 -10Z" />
<glyph unicode="u" horiz-adv-x="586" d="M190 -10Q148 -10 118 6T71 54T55 130Q55 152 58 174T66 221L134 539H240L169 207Q165 187 163 172T161 143Q161 111 176 94T226 77Q260 77 295 102T361 178T408 309L456 539H561L446 0H363L373 100H368Q349 73 324 48T265
6T190 -10Z" />
<glyph unicode="v" horiz-adv-x="480" d="M112 0L49 539H153L181 244Q183 223 185 192T188 134T189 91H193Q203 113 215 141T241 198T264 245L418 539H531L240 0H112Z" />
<glyph unicode="w" horiz-adv-x="742" d="M81 0L58 539H159L165 266Q167 215 166 172T161 95H165Q173 117 184 146T206 203T226 248L359 539H473L485 259Q486 223 486 179T484 95H489Q497 120 508 151T533 217T560 282L674 539H784L533 0H411L399 279Q398 305
398 331T399 385T400 442H395Q387 418 378 394T358 344T333 289L201 0H81Z" />
<glyph unicode="x" horiz-adv-x="497" d="M-41 0L192 277L78 539H187L262 351L408 539H531L306 272L428 0H318L236 196L82 0H-41Z" />
<glyph unicode="y" horiz-adv-x="482" d="M-17 -240Q-41 -240 -57 -237T-87 -230V-146Q-73 -149 -58 -151T-25 -154Q18 -154 47 -129T101 -56L129 -6L49 539H153L186 277Q190 248 192 214T195 148T197 95H200Q207 111 218 139T244 199T271 254L418 539H532L194
-86Q166 -138 136 -172T68 -223T-17 -240Z" />
<glyph unicode="z" horiz-adv-x="448" d="M-17 0L-4 68L314 459H94L112 539H449L433 460L121 80H364L347 0H-17Z" />
<glyph unicode="{" horiz-adv-x="351" d="M221 -158Q145 -158 108 -130T70 -45Q70 -28 72 -12T79 21L102 122Q104 136 106 148T109 172Q109 207 83 224T7 242L25 326Q83 326 118 347T163 418L195 569Q206 621 228 653T287 699T382 714H407L389 630Q347 630 323
616T289 555L254 403Q243 351 213 320T125 279V277Q165 266 183 239T202 172Q202 159 200 143T194 111L173 14Q171 3 169 -7T167 -26Q167 -54 186 -64T238 -74V-158H221Z" />
<glyph unicode="|" horiz-adv-x="551" d="M249 -237V759H331V-237H249Z" />
<glyph unicode="}" horiz-adv-x="351" d="M-41 -74Q-11 -74 11 -68T47 -46T68 1L102 153Q114 205 144 236T232 276V279Q192 291 174 318T155 383Q155 397 157 412T164 444L185 542Q188 554 189 563T191 582Q191 610 170 620T109 630L125 714H134Q186 714 220 702T270
664T287 601Q287 585 285 569T278 535L255 434Q252 419 250 407T247 384Q247 349 273 332T349 314L332 230Q273 230 239 209T193 138L161 -13Q150 -68 127 -99T67 -144T-29 -158H-41V-74Z" />
<glyph unicode="~" horiz-adv-x="572" d="M286 314Q249 330 225 335T179 341Q151 341 120 324T65 282V370Q89 396 119 409T186 423Q215 423 244 417T319 391Q356 375 380 370T425 364Q454 364 485 381T540 423V336Q516 310 486 296T419 282Q390 282 361 288T286 314Z" />
<glyph unicode="&#xa0;" horiz-adv-x="260" />
<glyph unicode="&#xa1;" horiz-adv-x="268" d="M-18 -182L114 321H189L107 -182H-18ZM171 402Q143 402 128 417T113 459Q113 495 133 520T195 546Q223 546 237 530T252 488Q252 457 233 430T171 402Z" />
<glyph unicode="&#xa2;" horiz-adv-x="551" d="M233 94Q173 110 136 158T99 287Q99 341 110 391T141 484T192 560T261 614T346 643L362 724H433L415 643Q445 641 472 635T523 617L492 533Q471 542 444 550T385 558Q344 558 312 537T256 478T219 393T206 291Q206
235 235 204T315 173Q351 173 382 183T445 208V120Q417 106 382 97T303 86L283 -10H211L233 94Z" />
<glyph unicode="&#xa3;" horiz-adv-x="551" d="M7 88Q36 95 61 111T104 154T131 224L150 311H53L70 389H166L198 543Q212 607 242 646T317 705T416 724Q469 724 512 712T586 682L546 600Q521 613 488 624T417 636Q378 636 347 615T302 532L272 389H440L424 311H255L237
228Q225 171 199 141T141 94H483L463 0H-10L7 88Z" />
<glyph unicode="&#xa4;" horiz-adv-x="551" d="M393 196Q372 182 346 174T292 166Q263 166 237 174T189 197L127 136L74 190L136 251Q121 273 113 298T105 353Q105 381 113 407T136 455L73 517L127 572L189 510Q212 524 238 532T292 541Q320 541 345 533T393 509L456
572L511 519L448 456Q462 434 470 408T479 353Q479 324 471 298T448 250L510 189L456 135L393 196ZM292 243Q323 243 348 258T389 297T404 353Q404 385 389 409T349 449T292 464Q262 464 237 449T197 410T182 353Q182 322 196 298T236 258T292 243Z" />
<glyph unicode="&#xa5;" horiz-adv-x="551" d="M165 0L191 122H55L71 195H206L221 269H86L102 342H207L109 714H213L289 377L508 714H620L365 342H473L457 269H320L305 195H442L427 122H290L264 0H165Z" />
<glyph unicode="&#xa6;" horiz-adv-x="551" d="M249 373V759H331V373H249ZM249 -237V149H331V-237H249Z" />
<glyph unicode="&#xa7;" horiz-adv-x="486" d="M173 -6Q122 -6 85 3T22 26V111Q51 95 91 82T174 69Q233 69 263 89T294 146Q294 160 285 172T256 198T202 227Q165 245 138 265T96 311T81 374Q81 410 96 438T135 486T190 522Q167 539 152 563T136 620Q136 662 159
695T226 746T331 765Q379 765 419 756T492 728L461 656Q430 671 398 680T328 689Q305 689 283 683T248 662T234 624Q234 600 255 583T325 544Q363 528 390 508T431 462T446 401Q446 367 432 338T394 287T340 249Q361 233 376 211T391 155Q391 107 366 71T292 14T173
-6ZM282 283Q310 299 332 326T354 388Q354 408 344 423T310 454T250 484Q230 478 212 464T183 430T171 386Q171 365 181 349T216 318T282 283Z" />
<glyph unicode="&#xa8;" horiz-adv-x="554" d="M445 628Q424 628 411 639T397 674Q397 701 412 718T456 736Q478 736 490 725T502 693Q502 663 486 646T445 628ZM264 628Q242 628 229 639T215 674Q215 701 230 718T274 736Q289 736 299 731T315 717T320 693Q320
663 304 646T264 628Z" />
<glyph unicode="&#xa9;" horiz-adv-x="832" d="M416 -10Q336 -10 269 17T153 93T76 210T49 357Q49 436 76 503T153 619T270 696T416 724Q492 724 558 697T675 621T754 504T783 357Q783 277 756 210T680 94T563 17T416 -10ZM431 132Q331 132 282 193T232 357Q232
423 255 473T324 553T435 582Q466 582 498 574T558 552L529 489Q504 502 481 508T436 515Q377 515 345 473T312 357Q312 281 340 240T435 198Q458 198 486 204T540 221V156Q516 146 491 139T431 132ZM416 46Q479 46 534 69T632 134T698 232T722 357Q722 421 699
477T635 577T539 644T416 668Q349 668 293 645T196 581T132 482T109 357Q109 292 131 236T195 137T292 70T416 46Z" />
<glyph unicode="&#xaa;" horiz-adv-x="350" d="M173 378Q148 378 127 390T93 429T80 495Q80 535 90 574T120 647T171 701T243 721Q275 721 293 707T322 671H326L344 715H398L326 384H272L278 436H275Q256 411 232 395T173 378ZM197 437Q218 437 234 448T263 478T284
519T296 563T301 603Q301 630 289 646T249 663Q227 663 209 649T177 610T158 557T151 499Q151 468 163 453T197 437Z" />
<glyph unicode="&#xab;" horiz-adv-x="502" d="M148 51L40 270V282L233 481L291 428L149 267L227 84L148 51ZM352 51L249 256V269L434 477L495 428L358 255L431 84L352 51Z" />
<glyph unicode="&#xac;" horiz-adv-x="572" d="M539 393V126H458V312H65V393H539Z" />
<glyph unicode="&#xad;" horiz-adv-x="316" d="M24 221L45 314H286L266 221H24Z" />
<glyph unicode="&#xae;" horiz-adv-x="832" d="M278 138V576H407Q489 576 527 544T565 446Q565 399 541 372T487 332L603 138H516L417 310H355V138H278ZM405 373Q444 373 465 393T487 444Q487 479 468 495T404 511H355V373H405ZM416 -10Q336 -10 269 17T153 93T76
210T49 357Q49 436 76 503T153 619T270 696T416 724Q492 724 558 697T675 621T754 504T783 357Q783 277 756 210T680 94T563 17T416 -10ZM416 46Q479 46 534 69T632 134T698 232T722 357Q722 421 699 477T635 577T539 644T416 668Q349 668 293 645T196 581T132
482T109 357Q109 292 131 236T195 137T292 70T416 46Z" />
<glyph unicode="&#xaf;" horiz-adv-x="425" d="M97 760L115 836H542L524 760H97Z" />
<glyph unicode="&#xb0;" horiz-adv-x="428" d="M214 408Q165 408 129 428T71 483T50 566Q50 612 70 648T127 704T214 724Q262 724 299 704T356 649T377 566Q377 519 357 484T299 428T214 408ZM215 477Q258 477 280 501T303 566Q303 607 280 631T215 656Q171 656
148 632T125 566Q125 526 148 502T215 477Z" />
<glyph unicode="&#xb1;" horiz-adv-x="572" d="M65 0V82H540V0H65ZM343 404H539V323H343V122H261V323H65V404H261V606H343V404Z" />
<glyph unicode="&#xb2;" horiz-adv-x="361" d="M67 416L80 478L210 587Q248 620 272 644T309 689T321 734Q321 757 307 770T268 784Q245 784 222 775T174 745L138 801Q170 827 206 840T285 853Q327 853 353 839T392 800T405 749Q405 714 393 686T352 628T278 563L186
488H371L356 416H67Z" />
<glyph unicode="&#xb3;" horiz-adv-x="361" d="M198 408Q164 408 133 415T78 435V509Q105 494 136 484T197 474Q243 474 267 494T292 548Q292 576 274 591T217 606H166L179 668H225Q255 668 276 675T310 698T323 735Q323 762 308 775T264 787Q239 786 216 778T172
754L140 810Q167 829 201 841T279 853Q322 853 349 840T390 804T404 752Q404 705 376 678T301 639V635Q338 627 356 603T374 546Q374 504 353 473T293 425T198 408Z" />
<glyph unicode="&#xb4;" horiz-adv-x="280" d="M114 619Q132 638 152 663T191 716T225 766H344V757Q334 744 315 724T273 681T226 640T183 606H114V619Z" />
<glyph unicode="&#xb5;" horiz-adv-x="592" d="M-25 -240L140 539H245L176 208Q172 188 170 172T167 145Q167 112 183 95T232 77Q266 77 301 102T366 178T413 307L463 539H567L452 0H369L380 95H375Q356 69 332 45T279 5T211 -10Q186 -10 167 0T134 32H130Q128
18 125 -4T118 -49T111 -85L79 -240H-25Z" />
<glyph unicode="&#xb6;" horiz-adv-x="655" d="M364 273Q349 269 332 267T293 264Q247 264 209 276T144 317T103 393T88 509Q88 581 104 629T149 706T218 747T308 760H588V-127H524V676H428V-127H364V273Z" />
<glyph unicode="&#xb7;" horiz-adv-x="265" d="M135 280Q105 280 91 296T76 337Q76 371 95 397T159 424Q185 424 200 409T216 366Q216 332 195 306T135 280Z" />
<glyph unicode="&#xb8;" horiz-adv-x="205" d="M-36 -240Q-52 -240 -66 -238T-90 -233V-172Q-79 -175 -68 -176T-46 -178Q-22 -178 -6 -173T18 -156T26 -129Q26 -109 9 -99T-41 -84L6 0H72L46 -51Q71 -58 91 -75T112 -130Q112 -161 96 -186T46 -225T-36 -240Z" />
<glyph unicode="&#xb9;" horiz-adv-x="361" d="M235 649Q241 676 249 706T263 756Q255 749 244 739T221 721L166 685L131 742L289 843H362L271 415H186L235 649Z" />
<glyph unicode="&#xba;" horiz-adv-x="348" d="M210 378Q154 378 120 411T85 511Q85 552 96 589T128 657T181 704T256 721Q321 721 350 684T379 590Q379 553 370 516T341 447T289 397T210 378ZM216 438Q239 438 256 451T285 486T302 535T308 590Q308 627 293 643T252
660Q228 660 211 648T181 614T163 566T157 511Q157 475 172 457T216 438Z" />
<glyph unicode="&#xbb;" horiz-adv-x="502" d="M269 51L211 104L353 264L276 448L354 481L462 261V248L269 51ZM68 55L7 104L144 275L71 448L150 481L253 275V262L68 55Z" />
<glyph unicode="&#xbc;" horiz-adv-x="762" d="M92 0L622 714H712L182 0H92ZM207 520Q213 547 221 577T235 627Q227 620 216 610T193 592L138 556L103 613L261 714H334L243 286H158L207 520ZM552 1L571 91H392L404 153L638 432H725L666 157H727L714 91H652L633
1H552ZM484 157H585L605 245Q611 269 615 289T627 334Q622 326 613 314T594 289T577 268L484 157Z" />
<glyph unicode="&#xbd;" horiz-adv-x="830" d="M93 0L623 714H713L183 0H93ZM207 520Q213 547 221 577T235 627Q227 620 216 610T193 592L138 556L103 613L261 714H334L243 286H158L207 520ZM449 1L462 63L592 172Q630 205 654 229T691 274T703 319Q703 342 689
355T650 369Q627 369 604 360T556 330L520 386Q552 412 588 425T667 438Q709 438 735 424T774 385T787 334Q787 299 775 271T734 213T660 148L568 73H753L738 1H449Z" />
<glyph unicode="&#xbe;" horiz-adv-x="814" d="M172 278Q138 278 107 285T52 305V379Q79 364 110 354T171 344Q217 344 241 364T266 418Q266 446 248 461T191 476H140L153 538H199Q229 538 250 545T284 568T297 605Q297 632 282 645T238 657Q213 656 190 648T146
624L114 680Q141 699 175 711T253 723Q296 723 323 710T364 674T378 622Q378 575 350 548T275 509V505Q312 497 330 473T348 416Q348 374 327 343T267 295T172 278ZM146 0L676 714H766L236 0H146ZM604 0L623 90H444L456 152L690 431H777L718 156H779L766 90H704L685
0H604ZM536 156H637L657 244Q663 268 667 288T679 333Q674 325 665 313T646 288T629 267L536 156Z" />
<glyph unicode="&#xbf;" horiz-adv-x="439" d="M315 320Q308 276 294 244T257 184T195 127Q163 104 138 83T97 37T82 -21Q82 -59 103 -81T168 -103Q205 -103 241 -90T313 -60L349 -139Q308 -162 257 -177T154 -192Q72 -192 25 -152T-23 -34Q-23 13 -6 49T44 117T121
181Q157 208 177 227T209 267T228 320H315ZM306 546Q336 546 350 530T365 489Q365 455 345 428T281 401Q256 401 241 416T225 460Q225 494 246 520T306 546Z" />
<glyph unicode="&#xc0;" horiz-adv-x="581" d="M-58 0L326 714H446L529 0H424L402 207H164L57 0H-58ZM212 301H393L378 461Q375 496 372 537T368 612H366Q351 578 333 540T294 460L212 301ZM400 781Q381 800 359 827T318 881T288 931V941H399Q406 918 416 892T439
842T465 793V781H400Z" />
<glyph unicode="&#xc1;" horiz-adv-x="581" d="M-58 0L326 714H446L529 0H424L402 207H164L57 0H-58ZM212 301H393L378 461Q375 496 372 537T368 612H366Q351 578 333 540T294 460L212 301ZM338 794Q356 813 376 838T415 891T449 941H568V932Q558 919 539 899T497
856T450 815T407 781H338V794Z" />
<glyph unicode="&#xc2;" horiz-adv-x="581" d="M-58 0L326 714H446L529 0H424L402 207H164L57 0H-58ZM212 301H393L378 461Q375 496 372 537T368 612H366Q351 578 333 540T294 460L212 301ZM223 794Q241 811 269 837T323 891T365 941H473Q483 916 498 890T529
839T558 794V781H490Q479 792 466 806T439 836T411 869Q382 843 352 821T296 781H223V794Z" />
<glyph unicode="&#xc3;" horiz-adv-x="581" d="M-58 0L326 714H446L529 0H424L402 207H164L57 0H-58ZM212 301H393L378 461Q375 496 372 537T368 612H366Q351 578 333 540T294 460L212 301ZM223 781Q232 826 249 856T290 900T344 915Q367 915 386 907T422 889T453
870T482 862Q502 862 514 874T538 916H600Q589 872 572 842T531 797T476 782Q455 782 437 790T403 808T370 827T338 836Q319 836 307 822T285 781H223Z" />
<glyph unicode="&#xc4;" horiz-adv-x="581" d="M-58 0L326 714H446L529 0H424L402 207H164L57 0H-58ZM212 301H393L378 461Q375 496 372 537T368 612H366Q351 578 333 540T294 460L212 301ZM497 803Q476 803 463 814T449 849Q449 876 464 893T508 911Q530 911
542 900T554 868Q554 838 538 821T497 803ZM316 803Q294 803 281 814T267 849Q267 876 282 893T326 911Q341 911 351 906T367 892T372 868Q372 838 356 821T316 803Z" />
<glyph unicode="&#xc5;" horiz-adv-x="581" d="M-58 0L326 714H446L529 0H424L402 207H164L57 0H-58ZM212 301H393L378 461Q375 496 372 537T368 612H366Q351 578 333 540T294 460L212 301ZM406 781Q356 781 325 809T294 889Q294 940 326 968T406 996Q455 996
487 968T520 890Q520 838 488 810T406 781ZM406 836Q430 836 444 850T459 889Q459 914 445 928T406 942Q384 942 369 928T353 889Q353 865 367 851T406 836Z" />
<glyph unicode="&#xc6;" horiz-adv-x="845" d="M-59 0L396 714H883L864 622H597L554 418H803L784 327H535L486 93H752L732 0H359L402 207H190L61 0H-59ZM250 301H422L490 622H449L250 301Z" />
<glyph unicode="&#xc7;" horiz-adv-x="594" d="M325 -10Q243 -10 186 23T99 119T68 265Q68 329 83 394T128 519T205 624T313 697T453 724Q509 724 553 714T638 681L595 593Q566 609 532 620T453 631Q397 631 353 610T276 553T223 470T191 371T180 269Q180 181
223 132T345 83Q386 83 426 92T505 115V22Q469 9 426 0T325 -10ZM243 -240Q227 -240 213 -238T189 -233V-172Q200 -175 211 -176T233 -178Q257 -178 273 -173T297 -156T305 -129Q305 -109 288 -99T238 -84L285 0H351L325 -51Q350 -58 370 -75T391 -130Q391 -161
375 -186T325 -225T243 -240Z" />
<glyph unicode="&#xc8;" horiz-adv-x="522" d="M37 0L188 714H560L541 622H275L232 418H480L462 327H213L162 93H429L409 0H37ZM384 781Q365 800 343 827T302 881T272 931V941H383Q390 918 400 892T423 842T449 793V781H384Z" />
<glyph unicode="&#xc9;" horiz-adv-x="522" d="M37 0L188 714H560L541 622H275L232 418H480L462 327H213L162 93H429L409 0H37ZM322 794Q340 813 360 838T399 891T433 941H552V932Q542 919 523 899T481 856T434 815T391 781H322V794Z" />
<glyph unicode="&#xca;" horiz-adv-x="522" d="M37 0L188 714H560L541 622H275L232 418H480L462 327H213L162 93H429L409 0H37ZM207 794Q225 811 253 837T307 891T349 941H457Q467 916 482 890T513 839T542 794V781H474Q463 792 450 806T423 836T395 869Q366 843
336 821T280 781H207V794Z" />
<glyph unicode="&#xcb;" horiz-adv-x="522" d="M37 0L188 714H560L541 622H275L232 418H480L462 327H213L162 93H429L409 0H37ZM481 803Q460 803 447 814T433 849Q433 876 448 893T492 911Q514 911 526 900T538 868Q538 838 522 821T481 803ZM300 803Q278 803
265 814T251 849Q251 876 266 893T310 911Q325 911 335 906T351 892T356 868Q356 838 340 821T300 803Z" />
<glyph unicode="&#xcc;" horiz-adv-x="341" d="M-23 0L-10 60L76 86L191 628L116 653L128 714H398L385 653L297 628L182 86L259 60L247 0H-23ZM278 781Q259 800 237 827T196 881T166 931V941H277Q284 918 294 892T317 842T343 793V781H278Z" />
<glyph unicode="&#xcd;" horiz-adv-x="341" d="M-23 0L-10 60L76 86L191 628L116 653L128 714H398L385 653L297 628L182 86L259 60L247 0H-23ZM216 794Q234 813 254 838T293 891T327 941H446V932Q436 919 417 899T375 856T328 815T285 781H216V794Z" />
<glyph unicode="&#xce;" horiz-adv-x="341" d="M-23 0L-10 60L76 86L191 628L116 653L128 714H398L385 653L297 628L182 86L259 60L247 0H-23ZM101 794Q119 811 147 837T201 891T243 941H351Q361 916 376 890T407 839T436 794V781H368Q357 792 344 806T317 836T289
869Q260 843 230 821T174 781H101V794Z" />
<glyph unicode="&#xcf;" horiz-adv-x="341" d="M-23 0L-10 60L76 86L191 628L116 653L128 714H398L385 653L297 628L182 86L259 60L247 0H-23ZM375 803Q354 803 341 814T327 849Q327 876 342 893T386 911Q408 911 420 900T432 868Q432 838 416 821T375 803ZM194
803Q172 803 159 814T145 849Q145 876 160 893T204 911Q219 911 229 906T245 892T250 868Q250 838 234 821T194 803Z" />
<glyph unicode="&#xd0;" horiz-adv-x="670" d="M29 308L49 399H373L353 308H29ZM37 0L188 714H364Q493 714 566 644T639 433Q639 357 622 291T570 171T486 79T371 21T226 0H37ZM231 91Q289 91 336 108T419 157T479 230T515 324T528 432Q528 533 480 578T352 623H275L162
91H231Z" />
<glyph unicode="&#xd1;" horiz-adv-x="721" d="M36 0L187 714H305L509 143H512Q515 166 520 199T533 269T546 337L627 714H726L575 0H459L252 577H248Q246 564 243 541T235 489T225 430T213 373L135 0H36ZM298 781Q307 826 324 856T365 900T419 915Q442 915 461
907T497 889T528 870T557 862Q577 862 589 874T613 916H675Q664 872 647 842T606 797T551 782Q530 782 512 790T478 808T445 827T413 836Q394 836 382 822T360 781H298Z" />
<glyph unicode="&#xd2;" horiz-adv-x="724" d="M333 -10Q248 -10 189 23T99 119T68 266Q68 326 79 383T111 491T163 584T235 659T326 708T434 725Q559 725 626 651T693 448Q693 387 683 330T653 222T603 128T533 55T444 7T333 -10ZM339 83Q376 83 407 96T466 132T514
189T550 263T573 351T581 448Q581 535 540 583T427 632Q389 632 356 619T296 582T248 525T211 451T188 364T180 267Q180 209 199 168T253 105T339 83ZM471 781Q452 800 430 827T389 881T359 931V941H470Q477 918 487 892T510 842T536 793V781H471Z" />
<glyph unicode="&#xd3;" horiz-adv-x="724" d="M333 -10Q248 -10 189 23T99 119T68 266Q68 326 79 383T111 491T163 584T235 659T326 708T434 725Q559 725 626 651T693 448Q693 387 683 330T653 222T603 128T533 55T444 7T333 -10ZM339 83Q376 83 407 96T466 132T514
189T550 263T573 351T581 448Q581 535 540 583T427 632Q389 632 356 619T296 582T248 525T211 451T188 364T180 267Q180 209 199 168T253 105T339 83ZM410 794Q428 813 448 838T487 891T521 941H640V932Q630 919 611 899T569 856T522 815T479 781H410V794Z" />
<glyph unicode="&#xd4;" horiz-adv-x="724" d="M333 -10Q248 -10 189 23T99 119T68 266Q68 326 79 383T111 491T163 584T235 659T326 708T434 725Q559 725 626 651T693 448Q693 387 683 330T653 222T603 128T533 55T444 7T333 -10ZM339 83Q376 83 407 96T466 132T514
189T550 263T573 351T581 448Q581 535 540 583T427 632Q389 632 356 619T296 582T248 525T211 451T188 364T180 267Q180 209 199 168T253 105T339 83ZM294 794Q312 811 340 837T394 891T436 941H544Q554 916 569 890T600 839T629 794V781H561Q550 792 537 806T510
836T482 869Q453 843 423 821T367 781H294V794Z" />
<glyph unicode="&#xd5;" horiz-adv-x="724" d="M333 -10Q248 -10 189 23T99 119T68 266Q68 326 79 383T111 491T163 584T235 659T326 708T434 725Q559 725 626 651T693 448Q693 387 683 330T653 222T603 128T533 55T444 7T333 -10ZM339 83Q376 83 407 96T466 132T514
189T550 263T573 351T581 448Q581 535 540 583T427 632Q389 632 356 619T296 582T248 525T211 451T188 364T180 267Q180 209 199 168T253 105T339 83ZM295 781Q304 826 321 856T362 900T416 915Q439 915 458 907T494 889T525 870T554 862Q574 862 586 874T610 916H672Q661
872 644 842T603 797T548 782Q527 782 509 790T475 808T442 827T410 836Q391 836 379 822T357 781H295Z" />
<glyph unicode="&#xd6;" horiz-adv-x="724" d="M333 -10Q248 -10 189 23T99 119T68 266Q68 326 79 383T111 491T163 584T235 659T326 708T434 725Q559 725 626 651T693 448Q693 387 683 330T653 222T603 128T533 55T444 7T333 -10ZM339 83Q376 83 407 96T466 132T514
189T550 263T573 351T581 448Q581 535 540 583T427 632Q389 632 356 619T296 582T248 525T211 451T188 364T180 267Q180 209 199 168T253 105T339 83ZM574 803Q553 803 540 814T526 849Q526 876 541 893T585 911Q607 911 619 900T631 868Q631 838 615 821T574 803ZM393
803Q371 803 358 814T344 849Q344 876 359 893T403 911Q418 911 428 906T444 892T449 868Q449 838 433 821T393 803Z" />
<glyph unicode="&#xd7;" horiz-adv-x="572" d="M466 574L524 517L360 353L522 189L466 132L301 294L140 132L82 190L244 353L81 516L139 574L302 411L466 574Z" />
<glyph unicode="&#xd8;" horiz-adv-x="724" d="M117 -41L55 8L119 87Q93 122 81 167T68 266Q68 326 79 383T111 491T163 584T235 659T326 708T434 725Q482 725 520 713T591 677L651 752L713 703L646 620Q669 588 681 544T693 448Q693 387 683 330T653 222T603
128T533 55T444 7T333 -10Q286 -10 247 1T176 33L117 -41ZM339 82Q376 82 409 95T469 132T517 189T553 263T575 351T583 448Q583 470 580 490T572 526L239 112Q257 98 283 90T339 82ZM527 599Q508 615 483 624T426 634Q388 634 355 621T295 583T246 526T209 451T186
364T178 267Q178 243 182 220T193 178L527 599Z" />
<glyph unicode="&#xd9;" horiz-adv-x="681" d="M299 -10Q225 -10 175 13T101 81T76 189Q76 206 78 229T87 277L180 714H286L193 274Q188 253 186 231T183 193Q183 142 214 113T306 83Q361 83 396 102T453 160T487 255L585 714H692L592 246Q576 168 541 111T447
22T299 -10ZM449 781Q430 800 408 827T367 881T337 931V941H448Q455 918 465 892T488 842T514 793V781H449Z" />
<glyph unicode="&#xda;" horiz-adv-x="681" d="M299 -10Q225 -10 175 13T101 81T76 189Q76 206 78 229T87 277L180 714H286L193 274Q188 253 186 231T183 193Q183 142 214 113T306 83Q361 83 396 102T453 160T487 255L585 714H692L592 246Q576 168 541 111T447
22T299 -10ZM387 794Q405 813 425 838T464 891T498 941H617V932Q607 919 588 899T546 856T499 815T456 781H387V794Z" />
<glyph unicode="&#xdb;" horiz-adv-x="681" d="M299 -10Q225 -10 175 13T101 81T76 189Q76 206 78 229T87 277L180 714H286L193 274Q188 253 186 231T183 193Q183 142 214 113T306 83Q361 83 396 102T453 160T487 255L585 714H692L592 246Q576 168 541 111T447
22T299 -10ZM272 794Q290 811 318 837T372 891T414 941H522Q532 916 547 890T578 839T607 794V781H539Q528 792 515 806T488 836T460 869Q431 843 401 821T345 781H272V794Z" />
<glyph unicode="&#xdc;" horiz-adv-x="681" d="M299 -10Q225 -10 175 13T101 81T76 189Q76 206 78 229T87 277L180 714H286L193 274Q188 253 186 231T183 193Q183 142 214 113T306 83Q361 83 396 102T453 160T487 255L585 714H692L592 246Q576 168 541 111T447
22T299 -10ZM551 803Q530 803 517 814T503 849Q503 876 518 893T562 911Q584 911 596 900T608 868Q608 838 592 821T551 803ZM370 803Q348 803 335 814T321 849Q321 876 336 893T380 911Q395 911 405 906T421 892T426 868Q426 838 410 821T370 803Z" />
<glyph unicode="&#xdd;" horiz-adv-x="525" d="M149 0L207 269L92 714H199L278 376L497 714H617L312 267L257 0H149ZM307 794Q325 813 345 838T384 891T418 941H537V932Q527 919 508 899T466 856T419 815T376 781H307V794Z" />
<glyph unicode="&#xde;" horiz-adv-x="579" d="M37 0L188 714H294L269 594H332Q412 594 460 570T531 503T554 401Q554 340 533 294T471 215T372 167T239 151H175L143 0H37ZM253 242Q312 242 354 259T421 310T445 398Q445 453 414 478T321 503H250L194 242H253Z" />
<glyph unicode="&#xdf;" horiz-adv-x="606" d="M-60 -240Q-78 -240 -95 -237T-126 -229V-142Q-112 -147 -99 -149T-71 -152Q-40 -152 -19 -130T13 -58L145 566Q159 633 190 677T270 743T389 765Q474 765 525 728T576 624Q576 587 563 559T526 510T475 468Q445
448 422 429T399 384Q399 372 408 360T432 337T458 317Q497 285 520 253T543 172Q543 112 516 72T443 11T337 -10Q291 -10 258 -1T201 24V115Q224 99 256 86T323 73Q380 73 408 98T436 161Q436 181 430 195T409 225T371 259Q330 290 311 317T292 378Q292 412 305
436T341 478T389 513Q411 527 429 541T458 574T469 613Q469 645 445 662T380 680Q341 680 315 666T274 625T250 561L119 -60Q108 -115 86 -155T29 -218T-60 -240Z" />
<glyph unicode="&#xe0;" horiz-adv-x="576" d="M194 -10Q153 -10 120 10T67 72T47 177Q47 235 59 290T93 392T148 474T220 529T307 549Q342 549 368 537T412 505T442 460H447L477 539H558L443 0H362L373 91H369Q347 63 321 40T263 4T194 -10ZM232 77Q267 77 299
103T358 172T397 269Q404 295 406 318T408 363Q408 406 385 434T321 462Q292 462 267 447T221 404T186 341T163 264T154 178Q154 127 174 102T232 77ZM360 606Q341 625 319 652T278 706T248 756V766H359Q366 743 376 717T399 667T425 618V606H360Z" />
<glyph unicode="&#xe1;" horiz-adv-x="576" d="M194 -10Q153 -10 120 10T67 72T47 177Q47 235 59 290T93 392T148 474T220 529T307 549Q342 549 368 537T412 505T442 460H447L477 539H558L443 0H362L373 91H369Q347 63 321 40T263 4T194 -10ZM232 77Q267 77 299
103T358 172T397 269Q404 295 406 318T408 363Q408 406 385 434T321 462Q292 462 267 447T221 404T186 341T163 264T154 178Q154 127 174 102T232 77ZM298 619Q316 638 336 663T375 716T409 766H528V757Q518 744 499 724T457 681T410 640T367 606H298V619Z" />
<glyph unicode="&#xe2;" horiz-adv-x="576" d="M194 -10Q153 -10 120 10T67 72T47 177Q47 235 59 290T93 392T148 474T220 529T307 549Q342 549 368 537T412 505T442 460H447L477 539H558L443 0H362L373 91H369Q347 63 321 40T263 4T194 -10ZM232 77Q267 77 299
103T358 172T397 269Q404 295 406 318T408 363Q408 406 385 434T321 462Q292 462 267 447T221 404T186 341T163 264T154 178Q154 127 174 102T232 77ZM183 619Q201 636 229 662T283 716T325 766H433Q443 741 458 715T489 664T518 619V606H450Q439 617 426 631T399
661T371 694Q342 668 312 646T256 606H183V619Z" />
<glyph unicode="&#xe3;" horiz-adv-x="576" d="M194 -10Q153 -10 120 10T67 72T47 177Q47 235 59 290T93 392T148 474T220 529T307 549Q342 549 368 537T412 505T442 460H447L477 539H558L443 0H362L373 91H369Q347 63 321 40T263 4T194 -10ZM232 77Q267 77 299
103T358 172T397 269Q404 295 406 318T408 363Q408 406 385 434T321 462Q292 462 267 447T221 404T186 341T163 264T154 178Q154 127 174 102T232 77ZM183 606Q192 651 209 681T250 725T304 740Q327 740 346 732T382 714T413 695T442 687Q462 687 474 699T498 741H560Q549
697 532 667T491 622T436 607Q415 607 397 615T363 633T330 652T298 661Q279 661 267 647T245 606H183Z" />
<glyph unicode="&#xe4;" horiz-adv-x="576" d="M194 -10Q153 -10 120 10T67 72T47 177Q47 235 59 290T93 392T148 474T220 529T307 549Q342 549 368 537T412 505T442 460H447L477 539H558L443 0H362L373 91H369Q347 63 321 40T263 4T194 -10ZM232 77Q267 77 299
103T358 172T397 269Q404 295 406 318T408 363Q408 406 385 434T321 462Q292 462 267 447T221 404T186 341T163 264T154 178Q154 127 174 102T232 77ZM456 628Q435 628 422 639T408 674Q408 701 423 718T467 736Q489 736 501 725T513 693Q513 663 497 646T456 628ZM275
628Q253 628 240 639T226 674Q226 701 241 718T285 736Q300 736 310 731T326 717T331 693Q331 663 315 646T275 628Z" />
<glyph unicode="&#xe5;" horiz-adv-x="576" d="M194 -10Q153 -10 120 10T67 72T47 177Q47 235 59 290T93 392T148 474T220 529T307 549Q342 549 368 537T412 505T442 460H447L477 539H558L443 0H362L373 91H369Q347 63 321 40T263 4T194 -10ZM232 77Q267 77 299
103T358 172T397 269Q404 295 406 318T408 363Q408 406 385 434T321 462Q292 462 267 447T221 404T186 341T163 264T154 178Q154 127 174 102T232 77ZM366 606Q316 606 285 634T254 714Q254 765 286 793T366 821Q415 821 447 793T480 715Q480 663 448 635T366 606ZM366
661Q390 661 404 675T419 714Q419 739 405 753T366 767Q344 767 329 753T313 714Q313 690 327 676T366 661Z" />
<glyph unicode="&#xe6;" horiz-adv-x="835" d="M182 -10Q142 -10 112 11T64 74T47 177Q47 237 59 292T94 393T148 475T218 529T300 549Q333 549 356 537T397 505T425 460H430L462 539H528L516 477Q541 510 580 529T670 549Q731 549 771 515T812 417Q812 377 794
342T738 282T641 242T500 228H478Q477 219 477 211T477 196Q477 141 505 108T594 74Q631 74 668 86T742 116V28Q702 10 662 0T576 -10Q524 -10 486 7T426 60L414 0H345L356 91H352Q327 60 302 38T248 3T182 -10ZM220 77Q245 77 269 91T315 130T353 190T380 265Q387
291 390 315T393 361Q393 406 373 434T316 462Q289 462 265 447T220 404T185 341T162 264T154 179Q154 126 172 102T220 77ZM505 307Q564 307 610 318T683 352T710 410Q710 439 693 452T650 466Q617 466 586 447T530 393T492 307H505Z" />
<glyph unicode="&#xe7;" horiz-adv-x="462" d="M247 -10Q189 -10 144 11T73 77T47 190Q47 249 59 301T96 399T154 478T232 530T329 549Q369 549 405 542T470 520L440 436Q418 445 391 453T332 462Q291 462 259 440T203 381T167 296T154 195Q154 157 167 131T204
91T262 77Q298 77 329 87T393 112V24Q363 9 327 0T247 -10ZM148 -240Q132 -240 118 -238T94 -233V-172Q105 -175 116 -176T138 -178Q162 -178 178 -173T202 -156T210 -129Q210 -109 193 -99T143 -84L190 0H256L230 -51Q255 -58 275 -75T296 -130Q296 -161 280 -186T230
-225T148 -240Z" />
<glyph unicode="&#xe8;" horiz-adv-x="516" d="M247 -10Q185 -10 140 14T71 84T47 195Q47 260 65 323T120 437T208 518T326 549Q406 549 447 514T488 417Q488 377 470 342T413 282T315 242T174 228H155Q154 219 154 211T153 196Q153 140 182 107T267 74Q307 74
341 85T418 116V30Q378 12 340 1T247 -10ZM180 307Q239 307 285 318T358 352T385 411Q385 436 369 451T320 466Q289 466 259 447T206 393T169 307H180ZM337 606Q318 625 296 652T255 706T225 756V766H336Q343 743 353 717T376 667T402 618V606H337Z" />
<glyph unicode="&#xe9;" horiz-adv-x="516" d="M247 -10Q185 -10 140 14T71 84T47 195Q47 260 65 323T120 437T208 518T326 549Q406 549 447 514T488 417Q488 377 470 342T413 282T315 242T174 228H155Q154 219 154 211T153 196Q153 140 182 107T267 74Q307 74
341 85T418 116V30Q378 12 340 1T247 -10ZM180 307Q239 307 285 318T358 352T385 411Q385 436 369 451T320 466Q289 466 259 447T206 393T169 307H180ZM275 619Q293 638 313 663T352 716T386 766H505V757Q495 744 476 724T434 681T387 640T344 606H275V619Z" />
<glyph unicode="&#xea;" horiz-adv-x="516" d="M247 -10Q185 -10 140 14T71 84T47 195Q47 260 65 323T120 437T208 518T326 549Q406 549 447 514T488 417Q488 377 470 342T413 282T315 242T174 228H155Q154 219 154 211T153 196Q153 140 182 107T267 74Q307 74
341 85T418 116V30Q378 12 340 1T247 -10ZM180 307Q239 307 285 318T358 352T385 411Q385 436 369 451T320 466Q289 466 259 447T206 393T169 307H180ZM160 619Q178 636 206 662T260 716T302 766H410Q420 741 435 715T466 664T495 619V606H427Q416 617 403 631T376
661T348 694Q319 668 289 646T233 606H160V619Z" />
<glyph unicode="&#xeb;" horiz-adv-x="516" d="M247 -10Q185 -10 140 14T71 84T47 195Q47 260 65 323T120 437T208 518T326 549Q406 549 447 514T488 417Q488 377 470 342T413 282T315 242T174 228H155Q154 219 154 211T153 196Q153 140 182 107T267 74Q307 74
341 85T418 116V30Q378 12 340 1T247 -10ZM180 307Q239 307 285 318T358 352T385 411Q385 436 369 451T320 466Q289 466 259 447T206 393T169 307H180ZM690 628Q669 628 656 639T642 674Q642 701 657 718T701 736Q723 736 735 725T747 693Q747 663 731 646T690
628ZM509 628Q487 628 474 639T460 674Q460 701 475 718T519 736Q534 736 544 731T560 717T565 693Q565 663 549 646T509 628Z" />
<glyph unicode="&#xec;" horiz-adv-x="270" d="M25 0L140 539H245L130 0H25ZM463 606Q444 625 422 652T381 706T351 756V766H462Q469 743 479 717T502 667T528 618V606H463Z" />
<glyph unicode="&#xed;" horiz-adv-x="270" d="M25 0L140 539H245L130 0H25ZM145 619Q163 638 183 663T222 716T256 766H375V757Q365 744 346 724T304 681T257 640T214 606H145V619Z" />
<glyph unicode="&#xee;" horiz-adv-x="270" d="M25 0L140 539H245L130 0H25ZM286 619Q304 636 332 662T386 716T428 766H536Q546 741 561 715T592 664T621 619V606H553Q542 617 529 631T502 661T474 694Q445 668 415 646T359 606H286V619Z" />
<glyph unicode="&#xef;" horiz-adv-x="270" d="M25 0L140 539H245L130 0H25ZM304 628Q283 628 270 639T256 674Q256 701 271 718T315 736Q337 736 349 725T361 693Q361 663 345 646T304 628ZM123 628Q101 628 88 639T74 674Q74 701 89 718T133 736Q148 736 158
731T174 717T179 693Q179 663 163 646T123 628Z" />
<glyph unicode="&#xf0;" horiz-adv-x="572" d="M240 -10Q180 -10 135 12T66 78T41 187Q41 245 58 297T108 389T188 453T294 477Q350 477 382 454T431 402H435Q434 454 421 502T368 596L243 526L210 586L320 646Q306 659 289 671T252 696L303 765Q328 749 354 732T402
693L525 761L559 702L450 641Q474 610 491 574T518 493T527 395Q527 335 518 277T487 167T433 75T352 13T240 -10ZM245 74Q280 74 306 88T351 125T382 175T399 231T405 284Q405 305 400 324T382 359T351 384T303 394Q262 394 233 376T185 328T157 260T148 184Q148
136 171 105T245 74Z" />
<glyph unicode="&#xf1;" horiz-adv-x="586" d="M22 0L138 541H226L215 441H217Q236 469 261 494T320 535T395 551Q439 551 470 534T518 486T534 410Q534 388 531 365T523 321L454 0H344L415 332Q419 353 421 368T424 397Q424 428 408 444T360 460Q327 460 292
435T228 360T181 230L132 0H22ZM190 606Q199 651 216 681T257 725T311 740Q334 740 353 732T389 714T420 695T449 687Q469 687 481 699T505 741H567Q556 697 539 667T498 622T443 607Q422 607 404 615T370 633T337 652T305 661Q286 661 274 647T252 606H190Z" />
<glyph unicode="&#xf2;" horiz-adv-x="569" d="M249 -9Q188 -9 142 16T72 88T47 199Q47 250 58 300T91 395T146 474T223 527T321 547Q385 547 429 522T498 450T523 337Q523 286 512 237T480 143T426 65T349 11T249 -9ZM257 78Q284 78 308 90T352 126T386 181T408
255T416 344Q416 374 407 400T377 443T319 460Q288 460 262 446T216 406T182 348T160 276T153 196Q153 140 180 109T257 78ZM343 606Q324 625 302 652T261 706T231 756V766H342Q349 743 359 717T382 667T408 618V606H343Z" />
<glyph unicode="&#xf3;" horiz-adv-x="569" d="M249 -9Q188 -9 142 16T72 88T47 199Q47 250 58 300T91 395T146 474T223 527T321 547Q385 547 429 522T498 450T523 337Q523 286 512 237T480 143T426 65T349 11T249 -9ZM257 78Q284 78 308 90T352 126T386 181T408
255T416 344Q416 374 407 400T377 443T319 460Q288 460 262 446T216 406T182 348T160 276T153 196Q153 140 180 109T257 78ZM281 619Q299 638 319 663T358 716T392 766H511V757Q501 744 482 724T440 681T393 640T350 606H281V619Z" />
<glyph unicode="&#xf4;" horiz-adv-x="569" d="M249 -9Q188 -9 142 16T72 88T47 199Q47 250 58 300T91 395T146 474T223 527T321 547Q385 547 429 522T498 450T523 337Q523 286 512 237T480 143T426 65T349 11T249 -9ZM257 78Q284 78 308 90T352 126T386 181T408
255T416 344Q416 374 407 400T377 443T319 460Q288 460 262 446T216 406T182 348T160 276T153 196Q153 140 180 109T257 78ZM166 619Q184 636 212 662T266 716T308 766H416Q426 741 441 715T472 664T501 619V606H433Q422 617 409 631T382 661T354 694Q325 668 295
646T239 606H166V619Z" />
<glyph unicode="&#xf5;" horiz-adv-x="569" d="M249 -9Q188 -9 142 16T72 88T47 199Q47 250 58 300T91 395T146 474T223 527T321 547Q385 547 429 522T498 450T523 337Q523 286 512 237T480 143T426 65T349 11T249 -9ZM257 78Q284 78 308 90T352 126T386 181T408
255T416 344Q416 374 407 400T377 443T319 460Q288 460 262 446T216 406T182 348T160 276T153 196Q153 140 180 109T257 78ZM166 606Q175 651 192 681T233 725T287 740Q310 740 329 732T365 714T396 695T425 687Q445 687 457 699T481 741H543Q532 697 515 667T474
622T419 607Q398 607 380 615T346 633T313 652T281 661Q262 661 250 647T228 606H166Z" />
<glyph unicode="&#xf6;" horiz-adv-x="569" d="M249 -9Q188 -9 142 16T72 88T47 199Q47 250 58 300T91 395T146 474T223 527T321 547Q385 547 429 522T498 450T523 337Q523 286 512 237T480 143T426 65T349 11T249 -9ZM257 78Q284 78 308 90T352 126T386 181T408
255T416 344Q416 374 407 400T377 443T319 460Q288 460 262 446T216 406T182 348T160 276T153 196Q153 140 180 109T257 78ZM696 628Q675 628 662 639T648 674Q648 701 663 718T707 736Q729 736 741 725T753 693Q753 663 737 646T696 628ZM515 628Q493 628 480
639T466 674Q466 701 481 718T525 736Q540 736 550 731T566 717T571 693Q571 663 555 646T515 628Z" />
<glyph unicode="&#xf7;" horiz-adv-x="572" d="M65 312V393H540V312H65ZM302 117Q278 117 261 132T243 182Q243 218 260 232T302 246Q326 246 343 232T361 182Q361 148 344 133T302 117ZM302 458Q278 458 261 473T243 523Q243 559 260 573T302 587Q326 587 343
573T361 523Q361 489 344 474T302 458Z" />
<glyph unicode="&#xf8;" horiz-adv-x="569" d="M84 -42L27 3L82 71Q65 97 57 128T48 199Q48 250 59 300T91 395T146 474T223 527T321 547Q358 547 387 540T440 516L485 572L543 528L491 469Q507 445 514 412T522 343Q522 292 512 242T480 146T426 66T349 11T250
-9Q217 -9 188 -1T134 21L84 -42ZM257 75Q285 75 309 87T354 123T388 177T411 247T420 329Q420 342 419 353T416 372L192 93Q203 85 220 80T257 75ZM382 443Q372 451 357 456T319 462Q287 462 261 449T214 411T180 355T159 287T150 212Q150 196 151 183T156 162L382
443Z" />
<glyph unicode="&#xf9;" horiz-adv-x="586" d="M190 -10Q148 -10 118 6T71 54T55 130Q55 152 58 174T66 221L134 539H240L169 207Q165 187 163 172T161 143Q161 111 176 94T226 77Q260 77 295 102T361 178T408 309L456 539H561L446 0H363L373 100H368Q349 73 324
48T265 6T190 -10ZM365 606Q346 625 324 652T283 706T253 756V766H364Q371 743 381 717T404 667T430 618V606H365Z" />
<glyph unicode="&#xfa;" horiz-adv-x="586" d="M190 -10Q148 -10 118 6T71 54T55 130Q55 152 58 174T66 221L134 539H240L169 207Q165 187 163 172T161 143Q161 111 176 94T226 77Q260 77 295 102T361 178T408 309L456 539H561L446 0H363L373 100H368Q349 73 324
48T265 6T190 -10ZM304 619Q322 638 342 663T381 716T415 766H534V757Q524 744 505 724T463 681T416 640T373 606H304V619Z" />
<glyph unicode="&#xfb;" horiz-adv-x="586" d="M190 -10Q148 -10 118 6T71 54T55 130Q55 152 58 174T66 221L134 539H240L169 207Q165 187 163 172T161 143Q161 111 176 94T226 77Q260 77 295 102T361 178T408 309L456 539H561L446 0H363L373 100H368Q349 73 324
48T265 6T190 -10ZM188 619Q206 636 234 662T288 716T330 766H438Q448 741 463 715T494 664T523 619V606H455Q444 617 431 631T404 661T376 694Q347 668 317 646T261 606H188V619Z" />
<glyph unicode="&#xfc;" horiz-adv-x="586" d="M190 -10Q148 -10 118 6T71 54T55 130Q55 152 58 174T66 221L134 539H240L169 207Q165 187 163 172T161 143Q161 111 176 94T226 77Q260 77 295 102T361 178T408 309L456 539H561L446 0H363L373 100H368Q349 73 324
48T265 6T190 -10ZM462 628Q441 628 428 639T414 674Q414 701 429 718T473 736Q495 736 507 725T519 693Q519 663 503 646T462 628ZM281 628Q259 628 246 639T232 674Q232 701 247 718T291 736Q306 736 316 731T332 717T337 693Q337 663 321 646T281 628Z" />
<glyph unicode="&#xfd;" horiz-adv-x="482" d="M-17 -240Q-41 -240 -57 -237T-87 -230V-146Q-73 -149 -58 -151T-25 -154Q18 -154 47 -129T101 -56L129 -6L49 539H153L186 277Q190 248 192 214T195 148T197 95H200Q207 111 218 139T244 199T271 254L418 539H532L194
-86Q166 -138 136 -172T68 -223T-17 -240ZM233 619Q251 638 271 663T310 716T344 766H463V757Q453 744 434 724T392 681T345 640T302 606H233V619Z" />
<glyph unicode="&#xfe;" horiz-adv-x="584" d="M-25 -240L186 760H291L255 590Q246 550 236 513T218 447H222Q245 476 270 498T325 534T388 548Q454 548 495 501T536 361Q536 305 525 252T493 151T441 67T370 11T281 -10Q246 -10 220 2T175 35T144 78H139Q137
56 134 26T124 -28L79 -240H-25ZM265 77Q295 77 320 92T365 136T400 200T421 277T429 360Q429 411 409 436T349 462Q315 462 282 436T222 365T183 265Q180 252 178 237T175 208T173 178Q173 133 195 105T265 77Z" />
<glyph unicode="&#xff;" horiz-adv-x="482" d="M-17 -240Q-41 -240 -57 -237T-87 -230V-146Q-73 -149 -58 -151T-25 -154Q18 -154 47 -129T101 -56L129 -6L49 539H153L186 277Q190 248 192 214T195 148T197 95H200Q207 111 218 139T244 199T271 254L418 539H532L194
-86Q166 -138 136 -172T68 -223T-17 -240ZM647 628Q626 628 613 639T599 674Q599 701 614 718T658 736Q680 736 692 725T704 693Q704 663 688 646T647 628ZM466 628Q444 628 431 639T417 674Q417 701 432 718T476 736Q491 736 501 731T517 717T522 693Q522 663
506 646T466 628Z" />
<glyph unicode="&#x2013;" horiz-adv-x="480" d="M24 224L44 314H451L432 224H24Z" />
<glyph unicode="&#x2014;" horiz-adv-x="960" d="M24 224L44 314H931L912 224H24Z" />
<glyph unicode="&#x2018;" horiz-adv-x="186" d="M59 480Q75 516 96 556T141 637T189 714H269Q256 684 243 652T217 588T192 525T171 469H62L59 480Z" />
<glyph unicode="&#x2019;" horiz-adv-x="186" d="M58 469Q75 509 93 552T127 638T155 714H264L268 703Q252 668 231 628T186 547T137 469H58Z" />
<glyph unicode="&#x201a;" horiz-adv-x="253" d="M-49 -129Q-32 -89 -14 -46T20 40T49 116H157L161 105Q146 70 124 30T78 -51T30 -129H-49Z" />
<glyph unicode="&#x201c;" horiz-adv-x="380" d="M252 480Q268 516 289 556T336 637T384 714H463Q446 675 428 631T394 546T365 469H256L252 480ZM59 480Q75 516 96 556T141 637T189 714H269Q256 684 243 652T217 588T192 525T171 469H62L59 480Z" />
<glyph unicode="&#x201d;" horiz-adv-x="380" d="M252 469Q269 509 287 552T321 638T349 714H458L462 703Q447 668 426 628T380 547T331 469H252ZM58 469Q75 509 93 552T127 638T155 714H264L268 703Q252 668 231 628T186 547T137 469H58Z" />
<glyph unicode="&#x201e;" horiz-adv-x="447" d="M144 -129Q162 -89 179 -46T213 40T242 116H351L355 105Q339 70 318 30T272 -51T225 -129H144ZM-49 -129Q-32 -89 -14 -46T20 40T49 116H157L161 105Q146 70 124 30T78 -51T30 -129H-49Z" />
<glyph unicode="&#x2022;" horiz-adv-x="376" d="M208 232Q157 232 123 263T88 365Q88 413 104 442T147 485T208 498Q241 498 268 485T311 443T328 365Q328 318 312 289T268 246T208 232Z" />
<glyph unicode="&#x2039;" horiz-adv-x="298" d="M148 51L40 268V281L233 481L291 428L149 265L227 84L148 51Z" />
<glyph unicode="&#x203a;" horiz-adv-x="298" d="M65 51L7 104L149 267L71 448L150 481L257 263V252L65 51Z" />
</font>
</defs>
</svg>
