<?xml version="1.0" standalone="no"?>
<!DOCTYPE svg PUBLIC "-//W3C//DTD SVG 1.1//EN" "http://www.w3.org/Graphics/SVG/1.1/DTD/svg11.dtd">
<svg xmlns="http://www.w3.org/2000/svg">
<defs >
<font id="NotoSans" horiz-adv-x="575" ><font-face
    font-family="Noto Sans SemiBold"
    units-per-em="1000"
    panose-1="2 11 5 2 4 5 4 2 2 4"
    ascent="1069"
    descent="-293"
    alphabetic="0" />
<glyph unicode=" " horiz-adv-x="260" />
<glyph unicode="!" horiz-adv-x="280" d="M188 223H92L67 714H213L188 223ZM63 64Q63 106 85 123T140 141Q171 141 193 124T216 64Q216 23 194 5T140 -13Q107 -13 85 5T63 64Z" />
<glyph unicode="&quot;" horiz-adv-x="448" d="M186 714L166 456H85L65 714H186ZM383 714L363 456H282L262 714H383Z" />
<glyph unicode="#" horiz-adv-x="646" d="M485 421L459 290H589V202H442L403 0H310L349 202H236L198 0H106L143 202H23V290H160L186 421H59V509H202L241 713H334L296 509H410L449 713H540L502 509H622V421H485ZM252 290H366L392 421H278L252 290Z" />
<glyph unicode="$" horiz-adv-x="572" d="M253 43Q192 45 141 55T51 82V194Q89 176 145 161T253 144V314Q180 340 136 366T71 427T50 510Q50 560 75 596T147 653T253 679V759H319V681Q374 679 421 668T511 639L472 540Q435 555 396 564T319 577V411Q377 392 424
369T499 312T527 222Q527 150 474 103T319 46V-58H253V43ZM319 148Q362 154 382 171T403 215Q403 233 395 246T368 269T319 290V148ZM253 575Q227 572 210 564T183 543T174 513Q174 495 181 482T206 457T253 436V575Z" />
<glyph unicode="%" horiz-adv-x="875" d="M197 724Q278 724 319 666T361 501Q361 395 322 336T198 276Q120 276 79 335T38 501Q38 607 76 665T197 724ZM198 637Q169 637 156 603T142 501Q142 432 155 398T198 363Q228 363 242 397T256 500Q256 569 242 603T198
637ZM686 714L290 0H188L584 714H686ZM674 439Q754 439 795 381T837 216Q837 110 798 51T674 -9Q596 -9 555 50T514 216Q514 322 552 380T674 439ZM674 351Q645 351 632 318T618 215Q618 146 631 112T674 77Q704 77 718 111T733 215Q733 284 719 317T674 351Z"
/>
<glyph unicode="&amp;" horiz-adv-x="743" d="M308 724Q364 724 406 706T473 654T498 570Q498 503 457 457T355 376L514 222Q536 255 551 293T578 373H708Q692 314 665 254T596 143L742 0H583L515 66Q486 43 452 26T378 0T291 -10Q215 -10 160 14T75 84T45 190Q45
241 61 278T109 343T185 395Q160 423 143 449T117 503T108 563Q108 613 133 649T203 705T308 724ZM259 319Q233 303 215 286T187 248T177 200Q177 153 211 125T298 97Q343 97 377 110T438 143L259 319ZM306 626Q275 626 251 610T227 557Q227 528 241 502T283 447Q332
474 355 500T379 560Q379 592 358 609T306 626Z" />
<glyph unicode="&apos;" horiz-adv-x="251" d="M186 714L166 456H85L65 714H186Z" />
<glyph unicode="(" horiz-adv-x="324" d="M40 274Q40 356 55 434T104 583T187 714H294Q226 620 191 507T155 275Q155 198 171 122T217 -25T293 -158H187Q137 -99 104 -30T56 117T40 274Z" />
<glyph unicode=")" horiz-adv-x="324" d="M284 274Q284 194 269 117T221 -29T137 -158H31Q76 -96 107 -25T154 122T170 275Q170 354 154 431T108 580T30 714H137Q188 654 220 583T268 434T284 274Z" />
<glyph unicode="*" horiz-adv-x="547" d="M331 760L311 575L496 628L512 516L339 503L452 353L350 299L271 460L200 299L95 353L206 503L35 517L52 628L234 575L214 760H331Z" />
<glyph unicode="+" horiz-adv-x="572" d="M332 399H525V306H332V111H238V306H46V399H238V596H332V399Z" />
<glyph unicode="," horiz-adv-x="279" d="M212 105Q203 70 189 30T159 -51T126 -129H35Q45 -90 54 -47T71 39T84 116H205L212 105Z" />
<glyph unicode="-" horiz-adv-x="322" d="M34 215V321H288V215H34Z" />
<glyph unicode="." horiz-adv-x="279" d="M63 64Q63 106 85 123T139 141Q171 141 193 124T216 64Q216 23 194 5T139 -13Q107 -13 85 5T63 64Z" />
<glyph unicode="/" horiz-adv-x="398" d="M391 714L125 0H8L274 714H391Z" />
<glyph unicode="0" horiz-adv-x="572" d="M530 358Q530 271 517 203T475 88T399 15T285 -10Q201 -10 147 34T67 160T41 358Q41 473 65 555T142 681T285 725Q369 725 423 682T503 556T530 358ZM168 357Q168 270 179 212T215 124T285 94Q329 94 354 123T391 211T403
357Q403 445 392 503T355 591T285 621Q241 621 216 592T179 504T168 357Z" />
<glyph unicode="1" horiz-adv-x="572" d="M391 0H265V445Q265 467 265 490T267 536T269 580Q259 570 244 557T213 529L133 465L70 543L286 714H391V0Z" />
<glyph unicode="2" horiz-adv-x="572" d="M532 0H43V93L225 277Q279 332 313 371T364 445T381 519Q381 568 353 592T279 617Q234 617 195 599T114 546L45 629Q75 655 109 676T186 711T286 724Q355 724 404 700T481 632T508 532Q508 474 485 425T419 329T315 224L202
115V109H532V0Z" />
<glyph unicode="3" horiz-adv-x="572" d="M504 551Q504 503 485 467T431 409T352 376V373Q438 363 482 320T526 206Q526 144 496 95T404 18T243 -10Q185 -10 135 -1T41 29V140Q86 117 137 105T233 93Q320 93 356 124T392 212Q392 248 374 271T316 305T210 317H150V418H211Q274
418 310 432T362 471T378 529Q378 572 350 596T266 620Q230 620 201 612T148 592T103 565L43 652Q83 682 139 703T272 724Q383 724 443 678T504 551Z" />
<glyph unicode="4" horiz-adv-x="572" d="M554 153H461V0H337V153H19V247L340 716H461V256H554V153ZM337 416Q337 437 337 459T339 504T341 544T343 572H339Q330 553 320 533T296 494L134 256H337V416Z" />
<glyph unicode="5" horiz-adv-x="572" d="M291 449Q359 449 411 424T492 352T522 235Q522 159 490 104T396 20T244 -10Q188 -10 139 0T54 29V141Q91 121 143 108T241 95Q289 95 323 108T375 150T393 223Q393 283 355 314T237 345Q209 345 177 340T123 330L69 360L96
714H472V604H207L192 439Q209 442 232 445T291 449Z" />
<glyph unicode="6" horiz-adv-x="572" d="M43 304Q43 366 51 426T82 539T143 634T243 699T389 723Q410 723 437 721T482 715V611Q463 617 441 619T396 622Q328 622 284 604T214 551T177 473T162 374H168Q183 398 204 417T257 447T329 458Q391 458 437 432T508
356T534 235Q534 159 505 104T423 20T297 -10Q243 -10 197 9T116 66T62 164T43 304ZM294 93Q346 93 378 127T410 234Q410 292 382 325T298 359Q259 359 231 343T186 301T170 248Q170 220 177 193T201 143T240 107T294 93Z" />
<glyph unicode="7" horiz-adv-x="572" d="M120 0L398 605H33V714H533V629L255 0H120Z" />
<glyph unicode="8" horiz-adv-x="572" d="M286 723Q348 723 398 704T478 647T508 552Q508 509 491 477T444 420T377 377Q418 357 453 331T509 269T531 185Q531 126 501 82T415 14T287 -10Q208 -10 153 13T69 79T40 181Q40 230 59 266T111 328T181 373Q148 393
121 418T79 476T63 553Q63 609 93 647T174 704T286 723ZM160 187Q160 143 191 115T285 86Q347 86 379 113T411 187Q411 217 394 240T350 281T290 314L276 321Q240 305 214 286T174 242T160 187ZM285 628Q241 628 213 606T184 544Q184 515 198 494T235 458T287 429Q315
442 337 457T373 493T387 544Q387 584 359 606T285 628Z" />
<glyph unicode="9" horiz-adv-x="572" d="M530 409Q530 348 521 288T490 174T429 79T330 14T183 -10Q163 -10 136 -8T90 -2V102Q109 97 131 94T176 91Q244 91 288 109T358 161T396 240T410 338H404Q389 315 369 296T318 266T241 255Q180 255 135 281T64 356T39
477Q39 554 68 609T150 693T276 723Q330 723 376 704T456 646T510 548T530 409ZM278 619Q227 619 195 585T163 479Q163 420 190 387T275 353Q314 353 342 370T387 412T403 465Q403 492 395 519T372 570T333 606T278 619Z" />
<glyph unicode=":" horiz-adv-x="279" d="M63 64Q63 106 85 123T139 141Q171 141 193 124T216 64Q216 23 194 5T139 -13Q107 -13 85 5T63 64ZM63 476Q63 519 85 536T139 554Q171 554 193 537T216 476Q216 435 194 417T139 399Q107 399 85 417T63 476Z" />
<glyph unicode=";" horiz-adv-x="279" d="M209 105Q200 70 186 30T156 -51T123 -129H31Q38 -100 45 -68T59 -4T71 59T81 116H202L209 105ZM62 476Q62 519 84 536T138 554Q170 554 192 537T215 476Q215 435 193 417T138 399Q107 399 85 417T62 476Z" />
<glyph unicode="&lt;" horiz-adv-x="572" d="M525 105L46 317V379L525 619V516L175 353L525 208V105Z" />
<glyph unicode="=" horiz-adv-x="572" d="M48 402V495H523V402H48ZM48 209V302H523V209H48Z" />
<glyph unicode="&gt;" horiz-adv-x="572" d="M46 208L396 352L46 516V619L525 379V317L46 105V208Z" />
<glyph unicode="?" horiz-adv-x="461" d="M137 256Q137 291 145 317T173 368T226 417Q260 443 279 462T308 499T317 542Q317 580 291 600T215 620Q171 620 131 608T51 574L6 668Q52 692 106 708T225 724Q325 724 380 675T436 548Q436 505 423 475T383 418T319
363Q288 339 272 322T250 289T244 248V223H137V256ZM118 64Q118 107 140 124T195 141Q226 141 248 124T271 64Q271 23 249 5T195 -13Q163 -13 141 5T118 64Z" />
<glyph unicode="@" horiz-adv-x="898" d="M845 358Q845 312 834 267T801 186T745 129T667 107Q626 107 599 127T562 179H556Q536 149 502 128T419 107Q335 107 289 159T243 297Q243 364 271 415T350 495T470 525Q516 525 563 517T637 499L627 295Q626 282 626
273T626 260Q626 215 640 200T673 185Q699 185 716 209T743 272T752 359Q752 446 717 507T620 600T481 632Q399 632 337 606T233 534T169 424T147 286Q147 193 180 129T278 31T437 -3Q496 -3 556 10T665 41V-43Q619 -62 562 -74T439 -86Q317 -86 231 -42T99 84T53
283Q53 375 82 453T168 590T303 681T480 714Q559 714 626 690T742 619T818 507T845 358ZM343 295Q343 237 367 211T431 185Q483 185 505 223T531 324L537 439Q525 442 509 444T474 446Q426 446 397 424T356 368T343 295Z" />
<glyph unicode="A" horiz-adv-x="671" d="M534 0L469 189H200L136 0H0L262 717H408L670 0H534ZM374 483Q370 497 362 521T347 570T335 613Q330 593 323 567T309 518T298 483L235 299H436L374 483Z" />
<glyph unicode="B" horiz-adv-x="664" d="M308 714Q447 714 518 674T590 535Q590 494 576 461T536 407T470 379V374Q510 367 541 349T591 296T610 205Q610 140 579 94T491 24T354 0H93V714H308ZM325 423Q401 423 429 447T458 518Q458 566 424 587T315 608H221V423H325ZM221
320V107H337Q415 107 445 137T476 217Q476 249 463 272T418 307T331 320H221Z" />
<glyph unicode="C" horiz-adv-x="635" d="M397 616Q348 616 310 598T246 546T206 464T192 356Q192 275 214 218T281 129T396 98Q442 98 484 107T574 133V24Q530 6 486 -2T383 -10Q273 -10 201 35T94 163T59 357Q59 438 81 505T146 621T252 697T397 724Q451 724
503 712T602 677L558 572Q520 589 480 602T397 616Z" />
<glyph unicode="D" horiz-adv-x="736" d="M677 364Q677 244 632 163T501 41T294 0H93V714H315Q426 714 507 674T632 557T677 364ZM543 360Q543 445 517 500T440 581T315 608H221V107H298Q422 107 482 170T543 360Z" />
<glyph unicode="E" horiz-adv-x="558" d="M499 0H93V714H499V607H221V425H481V318H221V108H499V0Z" />
<glyph unicode="F" horiz-adv-x="538" d="M219 0H93V714H498V607H219V397H479V290H219V0Z" />
<glyph unicode="G" horiz-adv-x="726" d="M378 392H648V29Q591 10 531 0T395 -10Q287 -10 212 33T98 158T59 358Q59 470 103 552T229 679T431 724Q489 724 543 713T643 681L599 576Q565 593 521 604T428 616Q355 616 302 584T221 494T192 356Q192 280 214 222T284
131T409 98Q447 98 473 101T522 111V283H378V392Z" />
<glyph unicode="H" horiz-adv-x="756" d="M663 0H535V317H221V0H93V714H221V426H535V714H663V0Z" />
<glyph unicode="I" horiz-adv-x="370" d="M335 0H35V73L121 105V608L35 641V714H335V641L249 608V105L335 73V0Z" />
<glyph unicode="J" horiz-adv-x="309" d="M8 -202Q-20 -202 -40 -199T-76 -191V-84Q-60 -88 -42 -91T-4 -94Q21 -94 43 -84T78 -47T91 30V714H219V33Q219 -51 193 -102T119 -178T8 -202Z" />
<glyph unicode="K" horiz-adv-x="647" d="M647 0H500L288 316L221 263V0H93V714H221V378Q241 403 262 429T304 481L497 714H642L380 400L647 0Z" />
<glyph unicode="L" horiz-adv-x="550" d="M93 0V714H221V108H519V0H93Z" />
<glyph unicode="M" horiz-adv-x="929" d="M400 0L204 585H200Q201 565 203 529T206 450T208 370V0H93V714H271L459 153H463L659 714H837V0H715V376Q715 410 716 450T719 527T722 584H718L514 0H400Z" />
<glyph unicode="N" horiz-adv-x="793" d="M700 0H541L203 560H199Q201 530 202 497T205 430T208 360V0H93V714H251L588 158H591Q590 184 589 217T587 284T584 351V714H700V0Z" />
<glyph unicode="O" horiz-adv-x="790" d="M731 358Q731 275 711 208T649 91T544 16T395 -10Q309 -10 246 16T141 91T80 208T59 359Q59 470 95 552T206 679T396 725Q509 725 583 680T694 552T731 358ZM194 358Q194 277 215 219T281 130T395 99Q466 99 510 130T575
219T596 358Q596 479 549 548T396 617Q326 617 282 586T216 497T194 358Z" />
<glyph unicode="P" horiz-adv-x="619" d="M306 714Q445 714 508 656T572 496Q572 450 558 409T511 334T425 282T292 263H221V0H93V714H306ZM298 608H221V369H279Q331 369 367 381T423 421T442 491Q442 550 407 579T298 608Z" />
<glyph unicode="Q" horiz-adv-x="790" d="M731 358Q731 275 711 208T649 91T543 17L715 -170H545L412 -10Q408 -10 404 -10T395 -10Q309 -10 246 16T141 91T80 208T59 359Q59 470 95 552T206 679T396 725Q509 725 583 680T694 552T731 358ZM194 358Q194 277 215
219T281 130T395 99Q466 99 510 130T575 219T596 358Q596 479 549 548T396 617Q326 617 282 586T216 497T194 358Z" />
<glyph unicode="R" horiz-adv-x="646" d="M296 714Q390 714 451 691T542 622T572 504Q572 452 553 415T502 354T435 314L640 0H496L325 282H221V0H93V714H296ZM288 607H221V387H292Q371 387 406 415T442 500Q442 539 425 562T375 596T288 607Z" />
<glyph unicode="S" horiz-adv-x="550" d="M508 195Q508 132 477 86T388 15T248 -10Q209 -10 174 -6T107 8T48 30V150Q93 130 147 114T257 97Q300 97 327 108T368 140T381 188Q381 218 364 239T314 278T232 316Q199 330 168 347T111 390T71 449T56 529Q56 590 85
634T168 701T293 724Q350 724 400 712T499 678L458 575Q414 594 373 605T289 616Q255 616 231 606T195 576T183 532Q183 503 198 483T244 446T326 406Q384 381 424 354T486 289T508 195Z" />
<glyph unicode="T" horiz-adv-x="570" d="M349 0H221V606H16V714H554V606H349V0Z" />
<glyph unicode="U" horiz-adv-x="747" d="M659 252Q659 178 628 119T532 25T370 -10Q231 -10 159 62T87 254V714H215V267Q215 180 255 140T374 99Q430 99 464 118T515 175T532 268V714H659V252Z" />
<glyph unicode="V" horiz-adv-x="631" d="M631 714L384 0H247L0 714H131L275 277Q282 259 289 231T304 173T316 120Q319 143 326 172T342 230T356 277L500 714H631Z" />
<glyph unicode="W" horiz-adv-x="953" d="M948 714L763 0H622L509 410Q505 425 500 447T490 492T480 536T475 567Q474 557 470 537T461 493T451 447T441 408L331 0H189L5 714H133L231 307Q236 287 241 264T251 216T260 168T266 126Q268 145 272 168T281 216T291
263T301 302L413 714H537L651 301Q656 284 661 262T672 215T680 167T687 126Q690 151 695 183T708 248T722 307L820 714H948Z" />
<glyph unicode="X" horiz-adv-x="636" d="M635 0H489L314 285L138 0H2L239 370L17 714H158L320 448L481 714H618L395 365L635 0Z" />
<glyph unicode="Y" horiz-adv-x="602" d="M301 399L464 714H602L365 278V0H237V273L0 714H139L301 399Z" />
<glyph unicode="Z" horiz-adv-x="576" d="M547 0H29V87L384 606H39V714H537V627L183 108H547V0Z" />
<glyph unicode="[" horiz-adv-x="330" d="M305 -158H74V714H305V623H185V-67H305V-158Z" />
<glyph unicode="\" horiz-adv-x="398" d="M124 714L390 0H274L8 714H124Z" />
<glyph unicode="]" horiz-adv-x="330" d="M25 -67H145V623H25V714H256V-158H25V-67Z" />
<glyph unicode="^" horiz-adv-x="572" d="M29 259L242 718H304L543 259H441L275 590L130 259H29Z" />
<glyph unicode="_" horiz-adv-x="423" d="M425 -156H-2V-90H425V-156Z" />
<glyph unicode="`" horiz-adv-x="331" d="M184 766Q197 744 216 717T255 664T291 619V606H208Q189 619 166 638T118 680T73 722T40 756V766H184Z" />
<glyph unicode="a" horiz-adv-x="588" d="M297 552Q402 552 456 507T511 364V0H422L397 75H393Q370 46 346 27T290 -1T213 -10Q165 -10 127 8T66 63T44 158Q44 242 105 284T292 331L386 334V361Q386 413 361 435T291 457Q250 457 212 445T138 417L98 505Q138 526
189 539T297 552ZM320 254Q237 251 205 226T173 157Q173 119 196 102T255 85Q310 85 348 116T386 210V256L320 254Z" />
<glyph unicode="b" horiz-adv-x="626" d="M207 580Q207 548 205 518T201 471H207Q229 505 267 528T366 552Q461 552 519 481T577 272Q577 179 551 116T476 22T363 -10Q302 -10 266 12T207 63H198L175 0H81V760H207V580ZM330 450Q284 450 258 432T219 377T207 283V272Q207
185 233 139T332 93Q388 93 418 139T448 273Q448 361 418 405T330 450Z" />
<glyph unicode="c" horiz-adv-x="501" d="M300 -10Q223 -10 167 19T80 110T49 268Q49 368 82 430T175 522T310 552Q361 552 401 542T469 518L432 419Q401 431 370 439T310 448Q265 448 236 428T192 369T178 269Q178 211 192 172T236 114T308 94Q354 94 389 105T455
135V26Q424 7 389 -1T300 -10Z" />
<glyph unicode="d" horiz-adv-x="626" d="M260 -10Q166 -10 108 60T49 270Q49 409 108 480T263 552Q303 552 333 542T386 513T423 473H429Q426 487 423 516T420 570V760H546V0H448L425 71H420Q405 49 383 31T331 1T260 -10ZM298 92Q368 92 397 132T426 253V269Q426
357 399 403T296 449Q239 449 208 402T177 268Q177 182 208 137T298 92Z" />
<glyph unicode="e" horiz-adv-x="581" d="M299 552Q372 552 424 523T506 439T535 306V242H177Q179 168 218 128T326 87Q379 87 420 97T506 128V27Q466 8 423 -1T320 -10Q241 -10 180 20T84 113T49 267Q49 360 80 423T168 519T299 552ZM299 459Q249 459 218 427T180
330H413Q413 368 401 397T363 442T299 459Z" />
<glyph unicode="f" horiz-adv-x="371" d="M362 447H231V0H105V447H18V507L105 543V580Q105 650 127 690T191 747T290 765Q330 765 362 759T415 744L383 650Q366 655 346 659T301 664Q265 664 248 641T231 577V542H362V447Z" />
<glyph unicode="g" horiz-adv-x="626" d="M263 552Q314 552 355 532T424 472H429L441 542H546V-4Q546 -81 517 -133T430 -213T285 -240Q227 -240 178 -233T85 -207V-103Q131 -123 183 -134T293 -145Q355 -145 387 -110T420 -10V4Q420 19 421 39T424 71H420Q392
29 352 10T260 -10Q161 -10 105 64T49 270Q49 402 106 477T263 552ZM296 449Q258 449 232 429T192 368T178 268Q178 180 208 135T298 90Q332 90 356 98T395 126T419 176T427 250V269Q427 334 413 373T371 431T296 449Z" />
<glyph unicode="h" horiz-adv-x="642" d="M207 579Q207 547 205 517T200 471H208Q225 499 250 516T305 543T369 552Q430 552 474 531T541 467T565 353V0H439V328Q439 390 415 420T339 450Q289 450 260 429T219 366T207 264V0H81V760H207V579Z" />
<glyph unicode="i" horiz-adv-x="287" d="M207 542V0H81V542H207ZM144 751Q172 751 193 737T214 685Q214 649 193 634T144 618Q115 618 95 633T74 685Q74 722 94 736T144 751Z" />
<glyph unicode="j" horiz-adv-x="287" d="M29 -240Q4 -240 -20 -237T-61 -228V-128Q-44 -132 -28 -135T8 -138Q39 -138 60 -121T81 -54V542H207V-67Q207 -117 189 -156T132 -217T29 -240ZM74 685Q74 722 94 736T144 751Q172 751 193 737T214 685Q214 649 193 634T144
618Q115 618 95 633T74 685Z" />
<glyph unicode="k" horiz-adv-x="588" d="M206 399Q206 373 204 345T200 289H203Q211 301 222 315T244 344T267 371L427 542H570L353 308L584 0H437L269 232L206 180V0H81V760H206V399Z" />
<glyph unicode="l" horiz-adv-x="287" d="M207 0H81V760H207V0Z" />
<glyph unicode="m" horiz-adv-x="964" d="M702 552Q794 552 840 505T887 353V0H761V329Q761 389 739 419T669 450Q603 450 575 407T547 282V0H421V329Q421 369 411 396T381 436T328 450Q283 450 256 429T218 366T207 265V0H81V542H178L196 471H203Q220 499 244
517T299 543T361 552Q422 552 464 532T527 468H537Q562 512 607 532T702 552Z" />
<glyph unicode="n" horiz-adv-x="642" d="M371 552Q462 552 513 505T565 353V0H439V328Q439 389 415 419T339 450Q263 450 235 403T207 265V0H81V542H178L196 471H203Q221 499 247 517T305 543T371 552Z" />
<glyph unicode="o" horiz-adv-x="614" d="M565 272Q565 204 547 152T496 64T414 9T306 -10Q250 -10 203 8T122 63T68 152T49 272Q49 362 80 424T169 519T308 552Q384 552 441 520T532 425T565 272ZM178 272Q178 215 191 175T233 113T307 92Q353 92 381 113T423
174T436 272Q436 330 423 369T381 429T307 450Q239 450 209 404T178 272Z" />
<glyph unicode="p" horiz-adv-x="626" d="M366 552Q461 552 519 482T577 272Q577 180 550 117T475 22T363 -10Q324 -10 294 0T243 27T207 63H199Q203 45 205 23T207 -20V-240H81V542H183L201 470H207Q222 493 243 511T295 541T366 552ZM330 450Q286 450 259 433T220
379T207 289V273Q207 215 218 175T257 114T332 93Q372 93 397 115T435 177T448 274Q448 358 420 404T330 450Z" />
<glyph unicode="q" horiz-adv-x="626" d="M420 -11Q420 8 421 30T425 71H419Q397 38 359 14T259 -10Q165 -10 107 60T49 270Q49 363 76 425T151 520T262 552Q323 552 362 529T424 471H428L441 542H546V-240H420V-11ZM299 90Q345 90 372 107T412 161T426 251V269Q426
357 398 403T297 449Q237 449 208 402T178 268Q178 181 207 136T299 90Z" />
<glyph unicode="r" horiz-adv-x="439" d="M365 552Q377 552 393 551T420 547L409 430Q400 432 386 433T360 435Q330 435 303 426T254 398T220 350T207 281V0H81V542H178L196 448H202Q218 477 242 500T297 538T365 552Z" />
<glyph unicode="s" horiz-adv-x="490" d="M450 157Q450 103 424 66T348 9T224 -10Q167 -10 126 -2T48 23V130Q88 111 137 98T228 85Q280 85 303 101T326 144Q326 160 317 173T282 200T203 237Q151 258 117 279T65 329T47 404Q47 477 105 514T258 552Q308 552 352
543T442 512L402 419Q365 435 329 446T254 457Q213 457 192 445T171 410Q171 393 181 381T218 356T294 323Q343 304 377 284T431 233T450 157Z" />
<glyph unicode="t" horiz-adv-x="406" d="M291 91Q315 91 337 95T378 106V12Q358 3 326 -3T259 -10Q213 -10 176 5T116 59T93 165V447H20V502L100 546L140 661H219V542H373V447H219V166Q219 128 239 110T291 91Z" />
<glyph unicode="u" horiz-adv-x="642" d="M562 542V0H463L446 70H440Q423 42 396 25T337 -1T271 -10Q211 -10 167 11T100 75T77 188V542H203V213Q203 153 227 123T303 92Q354 92 383 113T424 176T436 277V542H562Z" />
<glyph unicode="v" horiz-adv-x="546" d="M206 0L0 542H133L241 229Q248 210 254 188T264 144T270 106H274Q276 123 281 144T292 188T305 229L413 542H546L340 0H206Z" />
<glyph unicode="w" horiz-adv-x="830" d="M465 233Q460 252 453 280T439 340T425 397T416 437H412Q409 423 403 397T390 340T376 280T363 232L300 0H162L10 543H137L204 284Q211 258 217 225T229 162T236 112H240Q242 125 245 146T252 191T261 235T269 266L347
543H485L560 266Q565 248 571 219T582 161T588 113H592Q594 130 599 159T611 223T626 284L694 543H819L665 0H525L465 233Z" />
<glyph unicode="x" horiz-adv-x="560" d="M198 277L19 542H162L280 358L398 542H541L360 277L550 0H407L280 197L153 0H10L198 277Z" />
<glyph unicode="y" horiz-adv-x="547" d="M0 542H137L245 236Q252 216 257 198T267 160T273 122H277Q281 147 289 177T307 236L411 542H547L316 -72Q296 -125 266 -163T194 -220T100 -240Q76 -240 58 -238T25 -232V-132Q36 -134 51 -136T84 -138Q115 -138 137
-126T175 -91T201 -42L217 2L0 542Z" />
<glyph unicode="z" horiz-adv-x="481" d="M448 0H32V77L298 446H47V542H440V457L179 97H448V0Z" />
<glyph unicode="{" horiz-adv-x="389" d="M352 -158Q276 -158 230 -143T164 -95T144 -13V138Q144 171 130 190T88 219T20 228V328Q61 328 88 337T129 366T144 417V570Q144 620 164 651T231 698T352 714V618Q323 618 302 611T269 587T257 540V395Q257 347 229 319T145
281V275Q201 267 229 239T257 162V16Q257 -14 268 -30T301 -54T352 -62V-158Z" />
<glyph unicode="|" horiz-adv-x="551" d="M228 758H323V-232H228V758Z" />
<glyph unicode="}" horiz-adv-x="389" d="M37 -62Q66 -61 87 -54T120 -30T132 16V162Q132 210 160 238T244 275V281Q189 290 161 318T132 394V540Q132 570 121 586T88 610T37 618V714Q114 714 159 699T224 652T245 569V418Q245 386 259 366T301 337T369 328V228Q329
228 302 219T260 191T245 138V-14Q245 -64 225 -95T159 -142T37 -158V-62Z" />
<glyph unicode="~" horiz-adv-x="572" d="M269 308Q232 324 207 329T160 335Q132 335 101 318T46 276V376Q70 402 101 415T169 429Q198 429 227 423T303 397Q339 381 364 376T411 370Q440 370 470 387T525 429V330Q501 304 470 290T402 276Q374 276 345 282T269 308Z" />
<glyph unicode="&#xa0;" horiz-adv-x="260" />
<glyph unicode="&#xa1;" horiz-adv-x="280" d="M90 309H186L211 -181H65L90 309ZM216 469Q216 426 194 409T139 392Q108 392 86 409T63 468Q63 510 85 528T139 546Q171 546 193 528T216 469Z" />
<glyph unicode="&#xa2;" horiz-adv-x="572" d="M359 646Q402 644 437 635T499 613L462 513Q431 526 400 534T339 543Q294 543 265 523T222 463T207 363Q207 303 222 265T266 207T337 188Q383 188 416 197T485 223V116Q456 102 426 94T358 84V-10H279V88Q217 97
172 128T103 217T78 362Q78 455 103 513T173 602T279 642V724H359V646Z" />
<glyph unicode="&#xa3;" horiz-adv-x="572" d="M339 724Q393 724 440 712T524 683L484 587Q452 601 417 611T347 621Q306 621 280 598T254 521V410H445V319H254V236Q254 199 244 174T217 134T182 109H546V0H37V103Q65 113 85 128T117 169T129 235V319H39V410H129V525Q129
594 156 637T231 702T339 724Z" />
<glyph unicode="&#xa4;" horiz-adv-x="572" d="M91 353Q91 381 99 407T121 454L57 519L120 581L183 518Q205 532 231 540T285 548Q313 548 338 541T387 518L451 581L514 520L451 455Q464 434 472 408T480 353Q480 324 473 299T451 250L512 187L451 126L387 188Q365
175 339 167T285 159Q257 159 231 166T183 188L120 127L58 188L121 251Q107 274 99 299T91 353ZM179 353Q179 324 193 300T232 262T285 247Q316 247 340 261T378 300T393 353Q393 383 379 407T340 446T285 460Q256 460 232 446T194 408T179 353Z" />
<glyph unicode="&#xa5;" horiz-adv-x="572" d="M285 399L433 714H563L371 345H477V267H345V194H477V116H345V0H225V116H93V194H225V267H93V345H197L7 714H138L285 399Z" />
<glyph unicode="&#xa6;" horiz-adv-x="551" d="M228 758H323V367H228V758ZM228 159H323V-232H228V159Z" />
<glyph unicode="&#xa7;" horiz-adv-x="496" d="M62 393Q62 438 83 468T132 515Q99 535 81 563T63 629Q63 691 116 728T261 765Q313 765 354 755T436 727L400 643Q367 659 333 670T257 681Q209 681 189 669T168 631Q168 614 179 601T216 574T283 545Q332 526 367
504T421 452T441 382Q441 332 422 302T374 253Q406 234 423 208T440 145Q440 74 383 33T224 -8Q171 -8 130 1T55 29V120Q79 108 108 98T168 81T226 74Q288 74 311 92T334 137Q334 154 326 167T294 193T222 226Q172 247 136 268T81 319T62 393ZM158 403Q158 382
170 364T211 330T283 296L295 291Q313 303 328 321T343 369Q343 391 332 409T293 443T213 477Q192 470 175 451T158 403Z" />
<glyph unicode="&#xa8;" horiz-adv-x="597" d="M141 684Q141 716 158 730T201 744Q225 744 243 730T262 684Q262 654 244 640T201 625Q176 625 159 639T141 684ZM335 684Q335 716 352 730T395 744Q419 744 437 730T456 684Q456 654 438 640T395 625Q370 625 353
639T335 684Z" />
<glyph unicode="&#xa9;" horiz-adv-x="832" d="M431 130Q330 130 280 192T230 357Q230 423 254 474T323 554T435 584Q466 584 498 576T558 554L529 489Q504 502 481 508T436 515Q377 515 345 473T312 357Q312 281 340 240T435 198Q458 198 486 204T540 221V154Q516
144 491 137T431 130ZM416 -10Q336 -10 269 17T153 93T76 210T49 357Q49 435 76 501T153 618T270 696T416 724Q492 724 558 697T675 621T754 504T783 357Q783 277 756 210T680 94T563 17T416 -10ZM416 50Q479 50 533 72T629 136T694 234T718 357Q718 421 696 476T632
574T536 641T416 665Q350 665 295 642T199 578T135 481T112 357Q112 291 134 235T197 138T293 73T416 50Z" />
<glyph unicode="&#xaa;" horiz-adv-x="373" d="M191 722Q260 722 294 690T328 597V379H269L255 429Q235 403 205 388T139 373Q105 373 80 384T40 419T26 478Q26 515 45 538T101 573T192 587L244 589V602Q244 629 226 642T178 655Q154 655 128 647T74 627L46 686Q76
701 112 711T191 722ZM196 533Q145 531 129 516T113 479Q113 458 125 448T157 438Q200 438 222 460T244 516V536L196 533Z" />
<glyph unicode="&#xab;" d="M40 276L216 490L307 441L169 270L307 100L216 50L40 263V276ZM269 276L445 490L535 441L398 270L535 100L445 50L269 263V276Z" />
<glyph unicode="&#xac;" horiz-adv-x="572" d="M525 399V124H432V306H46V399H525Z" />
<glyph unicode="&#xad;" horiz-adv-x="322" d="M34 215V321H288V215H34Z" />
<glyph unicode="&#xae;" horiz-adv-x="832" d="M276 138V578H407Q489 578 527 545T565 446Q565 399 541 372T487 332L603 138H514L417 308H355V138H276ZM405 373Q444 373 464 393T485 444Q485 479 467 495T404 511H355V373H405ZM416 -10Q336 -10 269 17T153 93T76
210T49 357Q49 435 76 501T153 618T270 696T416 724Q492 724 558 697T675 621T754 504T783 357Q783 277 756 210T680 94T563 17T416 -10ZM416 50Q479 50 533 72T629 136T694 234T718 357Q718 421 696 476T632 574T536 641T416 665Q350 665 295 642T199 578T135
481T112 357Q112 291 134 235T197 138T293 73T416 50Z" />
<glyph unicode="&#xaf;" horiz-adv-x="500" d="M503 760H-3V846H503V760Z" />
<glyph unicode="&#xb0;" horiz-adv-x="428" d="M214 398Q164 398 126 419T67 476T45 561Q45 609 66 645T126 703T214 724Q264 724 302 704T361 646T382 561Q382 513 361 477T302 419T214 398ZM214 478Q252 478 274 501T297 561Q297 600 275 622T214 645Q177 645
154 623T131 561Q131 524 154 501T214 478Z" />
<glyph unicode="&#xb1;" horiz-adv-x="572" d="M46 0V93H525V0H46ZM332 419H525V326H332V131H238V326H46V419H238V615H332V419Z" />
<glyph unicode="&#xb2;" horiz-adv-x="368" d="M329 416H26V487L137 596Q171 629 189 650T215 689T222 725Q222 749 208 761T170 773Q147 773 125 763T76 730L25 794Q56 821 93 837T181 854Q245 854 283 823T322 733Q322 702 310 676T274 622T211 558L148 500H329V416Z" />
<glyph unicode="&#xb3;" horiz-adv-x="368" d="M177 853Q242 853 280 823T319 741Q319 705 299 680T239 642V637Q285 629 308 602T332 537Q332 478 290 443T157 408Q120 408 88 415T24 440V521Q57 504 90 493T156 481Q199 481 218 497T238 542Q238 568 217 584T146
601H90V670H140Q190 670 208 687T226 729Q226 753 211 766T169 779Q143 779 121 770T70 741L26 802Q56 825 92 839T177 853Z" />
<glyph unicode="&#xb4;" horiz-adv-x="331" d="M291 756Q279 742 259 722T214 680T166 639T124 606H40V619Q56 638 76 663T115 716T147 766H291V756Z" />
<glyph unicode="&#xb5;" horiz-adv-x="646" d="M565 542V0H468L450 73H444Q429 46 409 28T364 0T307 -10Q274 -10 249 2T205 34H202Q204 24 205 4T206 -39T207 -84V-240H81V542H207V213Q207 154 231 123T307 92Q358 92 386 113T427 176T439 277V542H565Z" />
<glyph unicode="&#xb6;" horiz-adv-x="655" d="M562 -127H491V678H402V-127H331V273Q316 269 298 267T260 264Q198 264 152 287T81 364T55 509Q55 605 82 659T160 737T275 760H562V-127Z" />
<glyph unicode="&#xb7;" horiz-adv-x="279" d="M63 352Q63 394 85 411T139 429Q171 429 193 412T216 352Q216 311 194 293T139 275Q107 275 85 293T63 352Z" />
<glyph unicode="&#xb8;" horiz-adv-x="213" d="M207 -128Q207 -181 173 -210T57 -240Q38 -240 22 -238T-6 -232V-160Q6 -163 24 -165T58 -168Q80 -168 93 -161T107 -133Q107 -112 86 -99T23 -79L62 0H143L125 -39Q147 -44 165 -56T195 -85T207 -128Z" />
<glyph unicode="&#xb9;" horiz-adv-x="368" d="M268 844V416H169V656Q169 670 169 689T171 725T173 752Q165 744 154 733T132 714L88 681L42 738L183 844H268Z" />
<glyph unicode="&#xba;" horiz-adv-x="383" d="M354 548Q354 465 310 419T191 373Q121 373 76 418T30 548Q30 632 73 677T193 722Q240 722 276 702T333 644T354 548ZM115 548Q115 496 133 470T192 443Q232 443 250 469T268 548Q268 601 250 626T192 652Q151 652
133 627T115 548Z" />
<glyph unicode="&#xbb;" d="M535 263L358 50L268 100L406 270L268 441L358 490L535 276V263ZM306 263L130 50L40 100L177 270L40 441L130 490L306 276V263Z" />
<glyph unicode="&#xbc;" horiz-adv-x="798" d="M145 0L556 714H657L246 0H145ZM154 526Q154 540 154 559T156 595T158 622Q150 614 139 603T117 584L73 551L27 608L167 714H253V286H154V526ZM627 0V82H437V149L629 431H728V156H789V82H728V0H627ZM520 156H627V241Q627
261 628 286T630 335Q625 323 612 298T589 258L520 156Z" />
<glyph unicode="&#xbd;" horiz-adv-x="835" d="M133 0L544 714H646L235 0H133ZM149 526Q149 537 149 550T150 577T151 603T153 622Q146 614 134 603T112 584L68 551L22 608L163 714H248V286H149V526ZM493 0V71L604 180Q638 213 656 234T682 273T689 309Q689 333
675 345T637 357Q614 357 592 347T543 314L492 378Q523 405 560 421T648 438Q712 438 750 407T789 317Q789 286 777 260T741 206T678 142L615 84H796V0H493Z" />
<glyph unicode="&#xbe;" horiz-adv-x="821" d="M183 0L594 714H695L284 0H183ZM165 278Q128 278 96 285T33 310V391Q66 374 99 363T165 351Q207 351 226 367T246 412Q246 438 225 454T154 471H99V540H148Q199 540 217 557T235 599Q235 623 220 636T178 649Q152
649 129 640T79 611L34 672Q65 695 101 709T185 723Q250 723 288 693T327 611Q327 575 307 550T248 512V507Q294 499 317 472T341 407Q341 348 299 313T165 278ZM650 0V82H460V149L652 431H751V156H812V82H751V0H650ZM543 156H650V241Q650 261 651 286T653 335Q648
323 635 298T612 258L543 156Z" />
<glyph unicode="&#xbf;" horiz-adv-x="461" d="M325 276Q325 241 317 215T289 165T235 115Q202 90 183 71T154 34T145 -10Q145 -47 171 -67T246 -88Q291 -88 331 -75T411 -42L456 -136Q410 -160 356 -176T237 -192Q137 -192 82 -143T26 -16Q26 27 39 57T79 114T143
169Q175 194 191 210T212 244T218 284V309H325V276ZM344 468Q344 425 322 408T267 391Q236 391 214 408T191 468Q191 509 213 527T267 545Q299 545 321 527T344 468Z" />
<glyph unicode="&#xc0;" horiz-adv-x="671" d="M534 0L469 189H200L136 0H0L262 717H408L670 0H534ZM374 483Q370 497 362 521T347 570T335 613Q330 593 323 567T309 518T298 483L235 299H436L374 483ZM317 938Q330 916 349 889T388 836T424 791V778H341Q322 791
299 810T251 852T206 894T173 928V938H317Z" />
<glyph unicode="&#xc1;" horiz-adv-x="671" d="M534 0L469 189H200L136 0H0L262 717H408L670 0H534ZM374 483Q370 497 362 521T347 570T335 613Q330 593 323 567T309 518T298 483L235 299H436L374 483ZM522 928Q510 914 490 894T445 852T397 811T355 778H271V791Q287
810 307 835T346 888T378 938H522V928Z" />
<glyph unicode="&#xc2;" horiz-adv-x="671" d="M534 0L469 189H200L136 0H0L262 717H408L670 0H534ZM374 483Q370 497 362 521T347 570T335 613Q330 593 323 567T309 518T298 483L235 299H436L374 483ZM406 938Q419 916 441 889T488 835T531 790V778H446Q420 794
390 816T333 866Q307 839 278 817T223 778H139V790Q158 810 181 835T227 888T263 938H406Z" />
<glyph unicode="&#xc3;" horiz-adv-x="671" d="M534 0L469 189H200L136 0H0L262 717H408L670 0H534ZM374 483Q370 497 362 521T347 570T335 613Q330 593 323 567T309 518T298 483L235 299H436L374 483ZM140 777Q143 813 153 839T180 884T218 911T264 920Q285 920
305 912T343 893T380 874T415 866Q433 866 446 880T466 921H531Q525 851 491 815T407 778Q386 778 367 786T329 805T292 824T256 832Q238 832 225 819T205 777H140Z" />
<glyph unicode="&#xc4;" horiz-adv-x="671" d="M534 0L469 189H200L136 0H0L262 717H408L670 0H534ZM374 483Q370 497 362 521T347 570T335 613Q330 593 323 567T309 518T298 483L235 299H436L374 483ZM177 856Q177 888 194 902T237 916Q261 916 279 902T298 856Q298
826 280 812T237 797Q212 797 195 811T177 856ZM371 856Q371 888 388 902T431 916Q455 916 473 902T492 856Q492 826 474 812T431 797Q406 797 389 811T371 856Z" />
<glyph unicode="&#xc5;" horiz-adv-x="671" d="M534 0L469 189H200L136 0H0L262 717H408L670 0H534ZM374 483Q370 497 362 521T347 570T335 613Q330 593 323 567T309 518T298 483L235 299H436L374 483ZM334 655Q281 655 249 685T217 768Q217 820 249 849T333 879Q384
879 418 850T453 769Q453 715 419 685T334 655ZM333 717Q355 717 369 730T384 768Q384 791 370 804T334 818Q312 818 298 805T283 768Q283 744 296 731T333 717Z" />
<glyph unicode="&#xc6;" horiz-adv-x="925" d="M866 0H460V189H216L131 0H0L327 714H866V607H588V425H847V318H588V108H866V0ZM264 299H460V603H400L264 299Z" />
<glyph unicode="&#xc7;" horiz-adv-x="635" d="M397 616Q348 616 310 598T246 546T206 464T192 356Q192 275 214 218T281 129T396 98Q442 98 484 107T574 133V24Q530 6 486 -2T383 -10Q273 -10 201 35T94 163T59 357Q59 438 81 505T146 621T252 697T397 724Q451
724 503 712T602 677L558 572Q520 589 480 602T397 616ZM481 -128Q481 -181 447 -210T331 -240Q312 -240 296 -238T268 -232V-160Q280 -163 298 -165T332 -168Q354 -168 367 -161T381 -133Q381 -112 360 -99T297 -79L336 0H417L399 -39Q421 -44 439 -56T469 -85T481
-128Z" />
<glyph unicode="&#xc8;" horiz-adv-x="558" d="M499 0H93V714H499V607H221V425H481V318H221V108H499V0ZM285 938Q298 916 317 889T356 836T392 791V778H309Q290 791 267 810T219 852T174 894T141 928V938H285Z" />
<glyph unicode="&#xc9;" horiz-adv-x="558" d="M499 0H93V714H499V607H221V425H481V318H221V108H499V0ZM489 928Q477 914 457 894T412 852T364 811T322 778H238V791Q254 810 274 835T313 888T345 938H489V928Z" />
<glyph unicode="&#xca;" horiz-adv-x="558" d="M499 0H93V714H499V607H221V425H481V318H221V108H499V0ZM374 938Q387 916 409 889T456 835T499 790V778H414Q388 794 358 816T301 866Q275 839 246 817T191 778H107V790Q126 810 149 835T195 888T231 938H374Z" />
<glyph unicode="&#xcb;" horiz-adv-x="558" d="M499 0H93V714H499V607H221V425H481V318H221V108H499V0ZM145 856Q145 888 162 902T205 916Q229 916 247 902T266 856Q266 826 248 812T205 797Q180 797 163 811T145 856ZM339 856Q339 888 356 902T399 916Q423 916
441 902T460 856Q460 826 442 812T399 797Q374 797 357 811T339 856Z" />
<glyph unicode="&#xcc;" horiz-adv-x="370" d="M335 0H35V73L121 105V608L35 641V714H335V641L249 608V105L335 73V0ZM168 938Q181 916 200 889T239 836T275 791V778H192Q173 791 150 810T102 852T57 894T24 928V938H168Z" />
<glyph unicode="&#xcd;" horiz-adv-x="370" d="M335 0H35V73L121 105V608L35 641V714H335V641L249 608V105L335 73V0ZM372 928Q360 914 340 894T295 852T247 811T205 778H121V791Q137 810 157 835T196 888T228 938H372V928Z" />
<glyph unicode="&#xce;" horiz-adv-x="370" d="M335 0H35V73L121 105V608L35 641V714H335V641L249 608V105L335 73V0ZM257 938Q270 916 292 889T339 835T382 790V778H297Q271 794 241 816T184 866Q158 839 129 817T74 778H-10V790Q9 810 32 835T78 888T114 938H257Z" />
<glyph unicode="&#xcf;" horiz-adv-x="370" d="M335 0H35V73L121 105V608L35 641V714H335V641L249 608V105L335 73V0ZM28 856Q28 888 45 902T88 916Q112 916 130 902T149 856Q149 826 131 812T88 797Q63 797 46 811T28 856ZM222 856Q222 888 239 902T282 916Q306
916 324 902T343 856Q343 826 325 812T282 797Q257 797 240 811T222 856Z" />
<glyph unicode="&#xd0;" horiz-adv-x="736" d="M315 714Q425 714 506 674T632 557T677 364Q677 244 632 163T500 41T293 0H95V300H26V406H95V714H315ZM315 608H223V406H363V300H223V107H297Q421 107 482 171T543 361Q543 445 516 500T438 581T315 608Z" />
<glyph unicode="&#xd1;" horiz-adv-x="793" d="M700 0H541L203 560H199Q201 530 202 497T205 430T208 360V0H93V714H251L588 158H591Q590 184 589 217T587 284T584 351V714H700V0ZM202 777Q205 813 215 839T242 884T280 911T326 920Q347 920 367 912T405 893T442
874T477 866Q495 866 508 880T528 921H593Q587 851 553 815T469 778Q448 778 429 786T391 805T354 824T318 832Q300 832 287 819T267 777H202Z" />
<glyph unicode="&#xd2;" horiz-adv-x="790" d="M731 358Q731 275 711 208T649 91T544 16T395 -10Q309 -10 246 16T141 91T80 208T59 359Q59 470 95 552T206 679T396 725Q509 725 583 680T694 552T731 358ZM194 358Q194 277 215 219T281 130T395 99Q466 99 510
130T575 219T596 358Q596 479 549 548T396 617Q326 617 282 586T216 497T194 358ZM378 938Q391 916 410 889T449 836T485 791V778H402Q383 791 360 810T312 852T267 894T234 928V938H378Z" />
<glyph unicode="&#xd3;" horiz-adv-x="790" d="M731 358Q731 275 711 208T649 91T544 16T395 -10Q309 -10 246 16T141 91T80 208T59 359Q59 470 95 552T206 679T396 725Q509 725 583 680T694 552T731 358ZM194 358Q194 277 215 219T281 130T395 99Q466 99 510
130T575 219T596 358Q596 479 549 548T396 617Q326 617 282 586T216 497T194 358ZM582 928Q570 914 550 894T505 852T457 811T415 778H331V791Q347 810 367 835T406 888T438 938H582V928Z" />
<glyph unicode="&#xd4;" horiz-adv-x="790" d="M731 358Q731 275 711 208T649 91T544 16T395 -10Q309 -10 246 16T141 91T80 208T59 359Q59 470 95 552T206 679T396 725Q509 725 583 680T694 552T731 358ZM194 358Q194 277 215 219T281 130T395 99Q466 99 510
130T575 219T596 358Q596 479 549 548T396 617Q326 617 282 586T216 497T194 358ZM467 938Q480 916 502 889T549 835T592 790V778H507Q481 794 451 816T394 866Q368 839 339 817T284 778H200V790Q219 810 242 835T288 888T324 938H467Z" />
<glyph unicode="&#xd5;" horiz-adv-x="790" d="M731 358Q731 275 711 208T649 91T544 16T395 -10Q309 -10 246 16T141 91T80 208T59 359Q59 470 95 552T206 679T396 725Q509 725 583 680T694 552T731 358ZM194 358Q194 277 215 219T281 130T395 99Q466 99 510
130T575 219T596 358Q596 479 549 548T396 617Q326 617 282 586T216 497T194 358ZM201 777Q204 813 214 839T241 884T279 911T325 920Q346 920 366 912T404 893T441 874T476 866Q494 866 507 880T527 921H592Q586 851 552 815T468 778Q447 778 428 786T390 805T353
824T317 832Q299 832 286 819T266 777H201Z" />
<glyph unicode="&#xd6;" horiz-adv-x="790" d="M731 358Q731 275 711 208T649 91T544 16T395 -10Q309 -10 246 16T141 91T80 208T59 359Q59 470 95 552T206 679T396 725Q509 725 583 680T694 552T731 358ZM194 358Q194 277 215 219T281 130T395 99Q466 99 510
130T575 219T596 358Q596 479 549 548T396 617Q326 617 282 586T216 497T194 358ZM238 856Q238 888 255 902T298 916Q322 916 340 902T359 856Q359 826 341 812T298 797Q273 797 256 811T238 856ZM432 856Q432 888 449 902T492 916Q516 916 534 902T553 856Q553
826 535 812T492 797Q467 797 450 811T432 856Z" />
<glyph unicode="&#xd7;" horiz-adv-x="572" d="M442 575L507 510L350 353L506 197L441 131L284 287L129 132L64 197L218 353L63 508L129 575L284 419L442 575Z" />
<glyph unicode="&#xd8;" horiz-adv-x="790" d="M731 358Q731 275 711 208T649 91T544 16T395 -10Q344 -10 301 -1T223 28L178 -39L106 9L153 78Q106 127 83 198T59 359Q59 470 95 552T206 679T396 725Q447 725 490 715T568 687L611 750L683 703L637 636Q684 588
707 518T731 358ZM596 358Q596 462 562 524L289 125Q310 112 336 106T395 99Q466 99 510 130T575 219T596 358ZM194 358Q194 307 202 265T229 190L503 590Q481 603 455 610T396 617Q326 617 282 586T216 497T194 358Z" />
<glyph unicode="&#xd9;" horiz-adv-x="747" d="M659 252Q659 178 628 119T532 25T370 -10Q231 -10 159 62T87 254V714H215V267Q215 180 255 140T374 99Q430 99 464 118T515 175T532 268V714H659V252ZM356 938Q369 916 388 889T427 836T463 791V778H380Q361 791
338 810T290 852T245 894T212 928V938H356Z" />
<glyph unicode="&#xda;" horiz-adv-x="747" d="M659 252Q659 178 628 119T532 25T370 -10Q231 -10 159 62T87 254V714H215V267Q215 180 255 140T374 99Q430 99 464 118T515 175T532 268V714H659V252ZM560 928Q548 914 528 894T483 852T435 811T393 778H309V791Q325
810 345 835T384 888T416 938H560V928Z" />
<glyph unicode="&#xdb;" horiz-adv-x="747" d="M659 252Q659 178 628 119T532 25T370 -10Q231 -10 159 62T87 254V714H215V267Q215 180 255 140T374 99Q430 99 464 118T515 175T532 268V714H659V252ZM445 938Q458 916 480 889T527 835T570 790V778H485Q459 794
429 816T372 866Q346 839 317 817T262 778H178V790Q197 810 220 835T266 888T302 938H445Z" />
<glyph unicode="&#xdc;" horiz-adv-x="747" d="M659 252Q659 178 628 119T532 25T370 -10Q231 -10 159 62T87 254V714H215V267Q215 180 255 140T374 99Q430 99 464 118T515 175T532 268V714H659V252ZM216 856Q216 888 233 902T276 916Q300 916 318 902T337 856Q337
826 319 812T276 797Q251 797 234 811T216 856ZM410 856Q410 888 427 902T470 916Q494 916 512 902T531 856Q531 826 513 812T470 797Q445 797 428 811T410 856Z" />
<glyph unicode="&#xdd;" horiz-adv-x="602" d="M301 399L464 714H602L365 278V0H237V273L0 714H139L301 399ZM488 928Q476 914 456 894T411 852T363 811T321 778H237V791Q253 810 273 835T312 888T344 938H488V928Z" />
<glyph unicode="&#xde;" horiz-adv-x="619" d="M572 378Q572 333 558 292T513 218T429 167T298 148H221V0H93V714H221V597H311Q448 597 510 538T572 378ZM278 252Q334 252 370 264T424 304T442 376Q442 435 406 463T292 492H221V252H278Z" />
<glyph unicode="&#xdf;" horiz-adv-x="681" d="M577 610Q577 574 563 548T528 502T486 467T451 438T437 409Q437 397 445 386T475 361T534 322Q568 300 592 277T629 226T642 157Q642 101 618 64T546 8T432 -10Q384 -10 349 -2T285 22V125Q301 115 324 105T374
89T424 83Q469 83 491 101T514 153Q514 173 507 188T479 219T422 258Q380 283 357 303T323 345T313 393Q313 424 326 446T360 484T401 516T435 549T449 592Q449 627 416 646T332 665Q297 665 269 655T224 623T207 563V0H81V567Q81 636 114 680T203 744T332 765Q403
765 458 748T545 696T577 610Z" />
<glyph unicode="&#xe0;" horiz-adv-x="588" d="M297 552Q402 552 456 507T511 364V0H422L397 75H393Q370 46 346 27T290 -1T213 -10Q165 -10 127 8T66 63T44 158Q44 242 105 284T292 331L386 334V361Q386 413 361 435T291 457Q250 457 212 445T138 417L98 505Q138
526 189 539T297 552ZM320 254Q237 251 205 226T173 157Q173 119 196 102T255 85Q310 85 348 116T386 210V256L320 254ZM276 766Q289 744 308 717T347 664T383 619V606H300Q281 619 258 638T210 680T165 722T132 756V766H276Z" />
<glyph unicode="&#xe1;" horiz-adv-x="588" d="M297 552Q402 552 456 507T511 364V0H422L397 75H393Q370 46 346 27T290 -1T213 -10Q165 -10 127 8T66 63T44 158Q44 242 105 284T292 331L386 334V361Q386 413 361 435T291 457Q250 457 212 445T138 417L98 505Q138
526 189 539T297 552ZM320 254Q237 251 205 226T173 157Q173 119 196 102T255 85Q310 85 348 116T386 210V256L320 254ZM481 756Q469 742 449 722T404 680T356 639T314 606H230V619Q246 638 266 663T305 716T337 766H481V756Z" />
<glyph unicode="&#xe2;" horiz-adv-x="588" d="M297 552Q402 552 456 507T511 364V0H422L397 75H393Q370 46 346 27T290 -1T213 -10Q165 -10 127 8T66 63T44 158Q44 242 105 284T292 331L386 334V361Q386 413 361 435T291 457Q250 457 212 445T138 417L98 505Q138
526 189 539T297 552ZM320 254Q237 251 205 226T173 157Q173 119 196 102T255 85Q310 85 348 116T386 210V256L320 254ZM365 766Q378 744 400 717T447 663T490 618V606H405Q379 622 349 644T292 694Q266 667 237 645T182 606H98V618Q117 638 140 663T186 716T222
766H365Z" />
<glyph unicode="&#xe3;" horiz-adv-x="588" d="M297 552Q402 552 456 507T511 364V0H422L397 75H393Q370 46 346 27T290 -1T213 -10Q165 -10 127 8T66 63T44 158Q44 242 105 284T292 331L386 334V361Q386 413 361 435T291 457Q250 457 212 445T138 417L98 505Q138
526 189 539T297 552ZM320 254Q237 251 205 226T173 157Q173 119 196 102T255 85Q310 85 348 116T386 210V256L320 254ZM99 605Q102 641 112 667T139 712T177 739T223 748Q244 748 264 740T302 721T339 702T374 694Q392 694 405 708T425 749H490Q484 679 450 643T366
606Q345 606 326 614T288 633T251 652T215 660Q197 660 184 647T164 605H99Z" />
<glyph unicode="&#xe4;" horiz-adv-x="588" d="M297 552Q402 552 456 507T511 364V0H422L397 75H393Q370 46 346 27T290 -1T213 -10Q165 -10 127 8T66 63T44 158Q44 242 105 284T292 331L386 334V361Q386 413 361 435T291 457Q250 457 212 445T138 417L98 505Q138
526 189 539T297 552ZM320 254Q237 251 205 226T173 157Q173 119 196 102T255 85Q310 85 348 116T386 210V256L320 254ZM393 684Q393 716 410 730T453 744Q477 744 495 730T514 684Q514 654 496 640T453 625Q428 625 411 639T393 684ZM587 684Q587 716 604 730T647
744Q671 744 689 730T708 684Q708 654 690 640T647 625Q622 625 605 639T587 684Z" />
<glyph unicode="&#xe5;" horiz-adv-x="588" d="M297 552Q402 552 456 507T511 364V0H422L397 75H393Q370 46 346 27T290 -1T213 -10Q165 -10 127 8T66 63T44 158Q44 242 105 284T292 331L386 334V361Q386 413 361 435T291 457Q250 457 212 445T138 417L98 505Q138
526 189 539T297 552ZM320 254Q237 251 205 226T173 157Q173 119 196 102T255 85Q310 85 348 116T386 210V256L320 254ZM293 605Q240 605 208 635T176 718Q176 770 208 799T292 829Q343 829 377 800T412 719Q412 665 378 635T293 605ZM292 667Q314 667 328 680T343
718Q343 741 329 754T293 768Q271 768 257 755T242 718Q242 694 255 681T292 667Z" />
<glyph unicode="&#xe6;" horiz-adv-x="897" d="M627 552Q694 552 744 523T823 439T851 307V242H502Q504 167 541 127T645 87Q695 87 737 97T823 128V27Q782 8 740 -1T639 -10Q594 -10 555 1T484 36T430 96Q403 61 375 38T309 2T216 -10Q169 -10 130 8T67 63T44
158Q44 214 70 251T150 308T283 331L374 334V372Q374 418 350 437T282 457Q242 457 205 446T132 418L92 505Q132 526 184 539T290 552Q348 552 389 535T456 480Q486 516 528 534T627 552ZM311 254Q233 251 203 226T173 157Q173 119 194 102T251 85Q286 85 313 99T357
141T374 210V256L311 254ZM624 459Q572 459 541 427T504 330H729Q729 368 717 397T682 442T624 459Z" />
<glyph unicode="&#xe7;" horiz-adv-x="501" d="M300 -10Q223 -10 167 19T80 110T49 268Q49 368 82 430T175 522T310 552Q361 552 401 542T469 518L432 419Q401 431 370 439T310 448Q265 448 236 428T192 369T178 269Q178 211 192 172T236 114T308 94Q354 94 389
105T455 135V26Q424 7 389 -1T300 -10ZM398 -128Q398 -181 364 -210T248 -240Q229 -240 213 -238T185 -232V-160Q197 -163 215 -165T249 -168Q271 -168 284 -161T298 -133Q298 -112 277 -99T214 -79L253 0H334L316 -39Q338 -44 356 -56T386 -85T398 -128Z" />
<glyph unicode="&#xe8;" horiz-adv-x="581" d="M299 552Q372 552 424 523T506 439T535 306V242H177Q179 168 218 128T326 87Q379 87 420 97T506 128V27Q466 8 423 -1T320 -10Q241 -10 180 20T84 113T49 267Q49 360 80 423T168 519T299 552ZM299 459Q249 459 218
427T180 330H413Q413 368 401 397T363 442T299 459ZM274 766Q287 744 306 717T345 664T381 619V606H298Q279 619 256 638T208 680T163 722T130 756V766H274Z" />
<glyph unicode="&#xe9;" horiz-adv-x="581" d="M299 552Q372 552 424 523T506 439T535 306V242H177Q179 168 218 128T326 87Q379 87 420 97T506 128V27Q466 8 423 -1T320 -10Q241 -10 180 20T84 113T49 267Q49 360 80 423T168 519T299 552ZM299 459Q249 459 218
427T180 330H413Q413 368 401 397T363 442T299 459ZM479 756Q467 742 447 722T402 680T354 639T312 606H228V619Q244 638 264 663T303 716T335 766H479V756Z" />
<glyph unicode="&#xea;" horiz-adv-x="581" d="M299 552Q372 552 424 523T506 439T535 306V242H177Q179 168 218 128T326 87Q379 87 420 97T506 128V27Q466 8 423 -1T320 -10Q241 -10 180 20T84 113T49 267Q49 360 80 423T168 519T299 552ZM299 459Q249 459 218
427T180 330H413Q413 368 401 397T363 442T299 459ZM363 766Q376 744 398 717T445 663T488 618V606H403Q377 622 347 644T290 694Q264 667 235 645T180 606H96V618Q115 638 138 663T184 716T220 766H363Z" />
<glyph unicode="&#xeb;" horiz-adv-x="581" d="M299 552Q372 552 424 523T506 439T535 306V242H177Q179 168 218 128T326 87Q379 87 420 97T506 128V27Q466 8 423 -1T320 -10Q241 -10 180 20T84 113T49 267Q49 360 80 423T168 519T299 552ZM299 459Q249 459 218
427T180 330H413Q413 368 401 397T363 442T299 459ZM391 684Q391 716 408 730T451 744Q475 744 493 730T512 684Q512 654 494 640T451 625Q426 625 409 639T391 684ZM585 684Q585 716 602 730T645 744Q669 744 687 730T706 684Q706 654 688 640T645 625Q620 625
603 639T585 684Z" />
<glyph unicode="&#xec;" horiz-adv-x="287" d="M207 0H81V542H207V0ZM382 766Q395 744 414 717T453 664T489 619V606H406Q387 619 364 638T316 680T271 722T238 756V766H382Z" />
<glyph unicode="&#xed;" horiz-adv-x="287" d="M207 0H81V542H207V0ZM331 756Q319 742 299 722T254 680T206 639T164 606H80V619Q96 638 116 663T155 716T187 766H331V756Z" />
<glyph unicode="&#xee;" horiz-adv-x="287" d="M207 0H81V542H207V0ZM471 766Q484 744 506 717T553 663T596 618V606H511Q485 622 455 644T398 694Q372 667 343 645T288 606H204V618Q223 638 246 663T292 716T328 766H471Z" />
<glyph unicode="&#xef;" horiz-adv-x="287" d="M207 0H81V542H207V0ZM-13 684Q-13 716 4 730T47 744Q71 744 89 730T108 684Q108 654 90 640T47 625Q22 625 5 639T-13 684ZM181 684Q181 716 198 730T241 744Q265 744 283 730T302 684Q302 654 284 640T241 625Q216
625 199 639T181 684Z" />
<glyph unicode="&#xf0;" horiz-adv-x="614" d="M221 765Q255 749 287 732T347 695L459 762L504 695L415 642Q463 599 496 545T547 424T565 278Q565 185 534 121T444 23T305 -10Q231 -10 173 19T82 103T49 237Q49 314 78 368T161 452T284 481Q318 481 345 476T392
459T426 429L430 431Q414 478 388 516T325 587L206 516L161 584L257 641Q238 653 218 665T177 689L221 765ZM307 386Q261 386 233 369T191 318T177 235Q177 191 190 158T233 105T307 86Q376 86 406 129T437 257Q437 283 430 306T406 347T365 375T307 386Z" />
<glyph unicode="&#xf1;" horiz-adv-x="642" d="M371 552Q462 552 513 505T565 353V0H439V328Q439 389 415 419T339 450Q263 450 235 403T207 265V0H81V542H178L196 471H203Q221 499 247 517T305 543T371 552ZM127 605Q130 641 140 667T167 712T205 739T251 748Q272
748 292 740T330 721T367 702T402 694Q420 694 433 708T453 749H518Q512 679 478 643T394 606Q373 606 354 614T316 633T279 652T243 660Q225 660 212 647T192 605H127Z" />
<glyph unicode="&#xf2;" horiz-adv-x="614" d="M565 272Q565 204 547 152T496 64T414 9T306 -10Q250 -10 203 8T122 63T68 152T49 272Q49 362 80 424T169 519T308 552Q384 552 441 520T532 425T565 272ZM178 272Q178 215 191 175T233 113T307 92Q353 92 381 113T423
174T436 272Q436 330 423 369T381 429T307 450Q239 450 209 404T178 272ZM290 766Q303 744 322 717T361 664T397 619V606H314Q295 619 272 638T224 680T179 722T146 756V766H290Z" />
<glyph unicode="&#xf3;" horiz-adv-x="614" d="M565 272Q565 204 547 152T496 64T414 9T306 -10Q250 -10 203 8T122 63T68 152T49 272Q49 362 80 424T169 519T308 552Q384 552 441 520T532 425T565 272ZM178 272Q178 215 191 175T233 113T307 92Q353 92 381 113T423
174T436 272Q436 330 423 369T381 429T307 450Q239 450 209 404T178 272ZM494 756Q482 742 462 722T417 680T369 639T327 606H243V619Q259 638 279 663T318 716T350 766H494V756Z" />
<glyph unicode="&#xf4;" horiz-adv-x="614" d="M565 272Q565 204 547 152T496 64T414 9T306 -10Q250 -10 203 8T122 63T68 152T49 272Q49 362 80 424T169 519T308 552Q384 552 441 520T532 425T565 272ZM178 272Q178 215 191 175T233 113T307 92Q353 92 381 113T423
174T436 272Q436 330 423 369T381 429T307 450Q239 450 209 404T178 272ZM379 766Q392 744 414 717T461 663T504 618V606H419Q393 622 363 644T306 694Q280 667 251 645T196 606H112V618Q131 638 154 663T200 716T236 766H379Z" />
<glyph unicode="&#xf5;" horiz-adv-x="614" d="M565 272Q565 204 547 152T496 64T414 9T306 -10Q250 -10 203 8T122 63T68 152T49 272Q49 362 80 424T169 519T308 552Q384 552 441 520T532 425T565 272ZM178 272Q178 215 191 175T233 113T307 92Q353 92 381 113T423
174T436 272Q436 330 423 369T381 429T307 450Q239 450 209 404T178 272ZM113 605Q116 641 126 667T153 712T191 739T237 748Q258 748 278 740T316 721T353 702T388 694Q406 694 419 708T439 749H504Q498 679 464 643T380 606Q359 606 340 614T302 633T265 652T229
660Q211 660 198 647T178 605H113Z" />
<glyph unicode="&#xf6;" horiz-adv-x="614" d="M565 272Q565 204 547 152T496 64T414 9T306 -10Q250 -10 203 8T122 63T68 152T49 272Q49 362 80 424T169 519T308 552Q384 552 441 520T532 425T565 272ZM178 272Q178 215 191 175T233 113T307 92Q353 92 381 113T423
174T436 272Q436 330 423 369T381 429T307 450Q239 450 209 404T178 272ZM150 684Q150 716 167 730T210 744Q234 744 252 730T271 684Q271 654 253 640T210 625Q185 625 168 639T150 684ZM344 684Q344 716 361 730T404 744Q428 744 446 730T465 684Q465 654 447
640T404 625Q379 625 362 639T344 684Z" />
<glyph unicode="&#xf7;" horiz-adv-x="572" d="M46 306V399H525V306H46ZM285 113Q259 113 241 129T222 182Q222 220 240 235T285 251Q310 251 329 236T348 182Q348 146 329 130T285 113ZM285 454Q259 454 241 470T222 523Q222 561 240 576T285 592Q310 592 329
577T348 523Q348 487 329 471T285 454Z" />
<glyph unicode="&#xf8;" horiz-adv-x="614" d="M565 272Q565 182 534 119T444 23T305 -10Q272 -10 242 -3T186 16L150 -35L81 11L119 65Q86 102 68 153T49 272Q49 407 118 479T308 552Q343 552 374 545T433 523L465 569L533 522L499 472Q530 437 547 387T565 272ZM178
272Q178 243 181 218T192 173L372 433Q359 441 343 445T306 450Q239 450 209 404T178 272ZM436 272Q436 299 433 321T424 361L247 105Q260 99 275 96T307 92Q353 92 381 113T423 174T436 272Z" />
<glyph unicode="&#xf9;" horiz-adv-x="642" d="M562 542V0H463L446 70H440Q423 42 396 25T337 -1T271 -10Q211 -10 167 11T100 75T77 188V542H203V213Q203 153 227 123T303 92Q354 92 383 113T424 176T436 277V542H562ZM304 766Q317 744 336 717T375 664T411 619V606H328Q309
619 286 638T238 680T193 722T160 756V766H304Z" />
<glyph unicode="&#xfa;" horiz-adv-x="642" d="M562 542V0H463L446 70H440Q423 42 396 25T337 -1T271 -10Q211 -10 167 11T100 75T77 188V542H203V213Q203 153 227 123T303 92Q354 92 383 113T424 176T436 277V542H562ZM508 756Q496 742 476 722T431 680T383 639T341
606H257V619Q273 638 293 663T332 716T364 766H508V756Z" />
<glyph unicode="&#xfb;" horiz-adv-x="642" d="M562 542V0H463L446 70H440Q423 42 396 25T337 -1T271 -10Q211 -10 167 11T100 75T77 188V542H203V213Q203 153 227 123T303 92Q354 92 383 113T424 176T436 277V542H562ZM393 766Q406 744 428 717T475 663T518 618V606H433Q407
622 377 644T320 694Q294 667 265 645T210 606H126V618Q145 638 168 663T214 716T250 766H393Z" />
<glyph unicode="&#xfc;" horiz-adv-x="642" d="M562 542V0H463L446 70H440Q423 42 396 25T337 -1T271 -10Q211 -10 167 11T100 75T77 188V542H203V213Q203 153 227 123T303 92Q354 92 383 113T424 176T436 277V542H562ZM164 684Q164 716 181 730T224 744Q248 744
266 730T285 684Q285 654 267 640T224 625Q199 625 182 639T164 684ZM358 684Q358 716 375 730T418 744Q442 744 460 730T479 684Q479 654 461 640T418 625Q393 625 376 639T358 684Z" />
<glyph unicode="&#xfd;" horiz-adv-x="547" d="M0 542H137L245 236Q252 216 257 198T267 160T273 122H277Q281 147 289 177T307 236L411 542H547L316 -72Q296 -125 266 -163T194 -220T100 -240Q76 -240 58 -238T25 -232V-132Q36 -134 51 -136T84 -138Q115 -138
137 -126T175 -91T201 -42L217 2L0 542ZM460 756Q448 742 428 722T383 680T335 639T293 606H209V619Q225 638 245 663T284 716T316 766H460V756Z" />
<glyph unicode="&#xfe;" horiz-adv-x="626" d="M577 272Q577 180 551 117T477 22T366 -10Q326 -10 296 -1T244 25T207 61H200Q202 52 203 38T206 8T207 -18V-240H81V760H207V557Q207 536 205 511T201 471H207Q222 494 243 512T295 541T366 552Q461 552 519 482T577
272ZM448 274Q448 362 420 406T331 450Q264 450 237 411T207 290V273Q207 186 233 140T332 93Q372 93 397 114T435 175T448 274Z" />
<glyph unicode="&#xff;" horiz-adv-x="547" d="M0 542H137L245 236Q252 216 257 198T267 160T273 122H277Q281 147 289 177T307 236L411 542H547L316 -72Q296 -125 266 -163T194 -220T100 -240Q76 -240 58 -238T25 -232V-132Q36 -134 51 -136T84 -138Q115 -138
137 -126T175 -91T201 -42L217 2L0 542ZM372 684Q372 716 389 730T432 744Q456 744 474 730T493 684Q493 654 475 640T432 625Q407 625 390 639T372 684ZM566 684Q566 716 583 730T626 744Q650 744 668 730T687 684Q687 654 669 640T626 625Q601 625 584 639T566
684Z" />
<glyph unicode="&#x2013;" horiz-adv-x="500" d="M40 219V318H460V219H40Z" />
<glyph unicode="&#x2014;" horiz-adv-x="1000" d="M40 219V318H960V219H40Z" />
<glyph unicode="&#x2018;" horiz-adv-x="201" d="M12 480Q21 516 35 556T65 637T98 714H189Q180 675 171 632T153 546T140 469H19L12 480Z" />
<glyph unicode="&#x2019;" horiz-adv-x="201" d="M189 703Q180 668 166 628T136 547T103 469H12Q19 498 26 530T40 594T51 657T61 714H182L189 703Z" />
<glyph unicode="&#x201a;" horiz-adv-x="272" d="M208 105Q199 70 185 30T155 -51T122 -129H31Q38 -100 45 -68T59 -4T70 59T80 116H201L208 105Z" />
<glyph unicode="&#x201c;" horiz-adv-x="413" d="M401 714Q392 675 382 631T364 546T351 469H230L223 480Q232 516 246 556T276 637T309 714H401ZM189 714Q180 675 170 631T152 546T139 469H19L12 480Q21 516 35 556T65 637T98 714H189Z" />
<glyph unicode="&#x201d;" horiz-adv-x="413" d="M401 703Q392 668 378 628T348 547T315 469H223Q233 508 242 551T259 637T273 714H394L401 703ZM189 703Q180 668 166 628T136 547T103 469H12Q19 498 26 530T39 594T51 657T61 714H182L189 703Z" />
<glyph unicode="&#x201e;" horiz-adv-x="476" d="M420 105Q411 70 397 30T367 -51T334 -129H242Q252 -90 261 -47T278 39T292 116H413L420 105ZM208 105Q199 70 185 30T155 -51T122 -129H31Q38 -100 45 -68T58 -4T70 59T80 116H201L208 105Z" />
<glyph unicode="&#x2022;" horiz-adv-x="376" d="M59 365Q59 417 76 448T122 494T188 508Q224 508 253 494T299 449T317 365Q317 314 300 283T253 237T188 222Q152 222 123 236T76 282T59 365Z" />
<glyph unicode="&#x2039;" horiz-adv-x="346" d="M40 276L216 490L307 441L169 270L307 100L216 50L40 263V276Z" />
<glyph unicode="&#x203a;" horiz-adv-x="346" d="M130 490L306 276V263L130 50L40 100L177 270L40 441L130 490Z" />
</font>
</defs>
</svg>
