<?xml version="1.0" standalone="no"?>
<!DOCTYPE svg PUBLIC "-//W3C//DTD SVG 1.1//EN" "http://www.w3.org/Graphics/SVG/1.1/DTD/svg11.dtd">
<svg xmlns="http://www.w3.org/2000/svg">
<defs >
<font id="NotoSans" horiz-adv-x="552" ><font-face
    font-family="Noto Sans"
    units-per-em="1000"
    panose-1="2 11 5 2 4 5 4 9 2 4"
    ascent="1069"
    descent="-293"
    alphabetic="0" />
<glyph unicode=" " horiz-adv-x="260" />
<glyph unicode="!" horiz-adv-x="286" d="M69 237L150 714H316L195 237H69ZM88 -13Q46 -13 29 8T12 56Q12 92 34 122T112 153Q145 153 165 135T185 82Q185 41 159 14T88 -13Z" />
<glyph unicode="&quot;" horiz-adv-x="453" d="M295 456L331 714H466L392 456H295ZM98 456L133 714H268L194 456H98Z" />
<glyph unicode="#" horiz-adv-x="646" d="M81 0L136 199H20L29 300H164L198 413H75L84 515H225L283 714H389L332 515H429L486 714H591L534 515H651L642 413H506L472 300H598L589 199H444L387 0H280L337 199H242L186 0H81ZM270 300H366L400 413H304L270 300Z" />
<glyph unicode="$" horiz-adv-x="551" d="M198 40Q147 43 104 53T25 82V212Q63 191 113 174T222 155L257 312Q214 329 179 352T122 408T101 490Q101 550 131 592T213 658T334 686L351 760H419L403 686Q444 681 478 671T547 642L495 529Q467 543 437 553T377 565L346
419Q391 402 427 380T484 326T505 242Q505 188 481 144T403 73T264 39L245 -58H177L198 40ZM290 157Q311 160 326 169T350 192T359 227Q359 242 354 253T339 273T318 285L290 157ZM309 565Q292 563 278 556T254 535T245 499Q245 487 249 477T262 459T284 445L309
565Z" />
<glyph unicode="%" horiz-adv-x="856" d="M113 0L644 714H759L230 0H113ZM194 276Q127 276 92 317T56 432Q56 467 62 507T83 585T122 655T180 705T261 724Q328 724 364 685T401 569Q401 535 395 495T373 417T334 346T276 295T194 276ZM203 377Q217 377 229 389T251
423T267 471T277 524T281 575Q281 599 274 610T253 622Q240 622 228 610T207 578T191 532T180 478T176 424Q176 401 183 389T203 377ZM616 -9Q546 -9 511 29T475 138Q475 180 482 223T504 304T543 373T601 421T680 439Q747 439 783 401T820 288Q820 252 814 211T792
131T754 61T696 10T616 -9ZM622 92Q636 92 648 104T670 138T686 186T696 239T700 290Q700 314 693 325T672 337Q659 337 647 325T626 293T610 247T599 193T595 139Q595 116 602 104T622 92Z" />
<glyph unicode="&amp;" horiz-adv-x="708" d="M244 -10Q143 -10 88 38T33 175Q33 225 51 263T108 333T205 394Q186 426 177 457T168 520Q168 588 196 633T272 702T380 725Q443 725 482 704T539 649T557 575Q557 526 536 487T475 419T379 367L474 239Q502 274 519
308T552 383H698Q678 336 656 293T606 212T547 140L647 0H476L441 48Q402 22 355 6T244 -10ZM266 115Q288 115 307 119T343 129T374 144L264 304Q241 291 224 275T197 239T187 189Q187 170 196 153T223 126T266 115ZM323 449Q343 459 360 470T391 494T412 523T420
558Q420 586 406 598T371 611Q349 611 334 600T311 571T303 530Q303 508 309 486T323 449Z" />
<glyph unicode="&apos;" horiz-adv-x="255" d="M98 456L133 714H268L194 456H98Z" />
<glyph unicode="(" horiz-adv-x="339" d="M109 -158Q85 -115 69 -67T44 32T36 137Q36 224 52 301T99 450T176 586T282 714H410Q357 656 313 591T235 454T184 302T166 132Q166 81 173 31T192 -66T223 -158H109Z" />
<glyph unicode=")" horiz-adv-x="339" d="M-72 -158Q-19 -100 25 -35T103 102T154 254T172 424Q172 475 166 525T146 622T115 714H229Q254 671 270 623T294 524T302 419Q302 332 286 255T239 106T162 -30T56 -158H-72Z" />
<glyph unicode="*" horiz-adv-x="545" d="M350 282L306 447L210 311L109 391L243 512L84 557L126 673L291 588L307 768L432 743L377 571L566 585L557 461L392 482L470 318L350 282Z" />
<glyph unicode="+" horiz-adv-x="572" d="M349 406H538V299H349V111H242V299H53V406H242V596H349V406Z" />
<glyph unicode="," horiz-adv-x="285" d="M-50 -129Q-32 -89 -15 -46T17 40T45 116H184L188 105Q172 70 151 30T107 -51T60 -129H-50Z" />
<glyph unicode="-" horiz-adv-x="322" d="M20 207L46 329H302L276 207H20Z" />
<glyph unicode="." horiz-adv-x="285" d="M88 -13Q46 -13 29 8T12 56Q12 92 34 122T112 153Q145 153 165 135T185 82Q185 41 159 14T88 -13Z" />
<glyph unicode="/" horiz-adv-x="421" d="M-44 0L351 714H495L100 0H-44Z" />
<glyph unicode="0" horiz-adv-x="551" d="M229 -10Q128 -10 80 52T32 228Q32 293 41 355T68 472T112 574T174 654T252 706T347 725Q393 725 429 712T490 670T529 598T542 494Q542 431 534 369T510 251T469 147T409 64T329 10T229 -10ZM241 112Q265 112 285 129T323
177T353 246T375 328T389 416T394 499Q394 553 379 578T334 603Q309 603 288 584T250 533T220 461T198 378T185 296T180 225Q180 170 193 141T241 112Z" />
<glyph unicode="1" horiz-adv-x="551" d="M275 405Q279 422 285 446T298 497T312 545Q303 538 284 524T249 499L154 439L89 544L365 714H487L336 0H187L275 405Z" />
<glyph unicode="2" horiz-adv-x="551" d="M-24 0L-3 104L230 311Q274 350 303 380T351 435T377 481T385 523Q385 560 365 579T311 598Q287 598 264 590T217 566T161 524L90 623Q140 666 199 695T335 724Q405 724 449 699T515 635T536 550Q536 487 509 435T434
337T326 240L195 132V127H472L446 0H-24Z" />
<glyph unicode="3" horiz-adv-x="551" d="M196 -10Q141 -10 92 0T7 29V159Q48 135 96 123T189 110Q225 110 254 117T304 138T337 175T349 227Q349 251 338 270T299 300T223 311H156L178 419H214Q246 419 277 425T333 444T374 479T389 533Q389 562 370 582T309
602Q265 602 230 586T169 553L107 653Q155 685 208 704T341 724Q407 724 451 703T517 645T539 561Q539 512 519 472T460 406T365 369V365Q419 355 457 319T495 215Q495 173 478 133T424 60T332 9T196 -10Z" />
<glyph unicode="4" horiz-adv-x="551" d="M245 0L276 148H-12L11 262L387 714H539L444 265H527L502 148H419L388 0H245ZM149 265H301L329 386Q335 412 342 442T357 497T369 535H364Q357 522 347 507T325 477T302 447L149 265Z" />
<glyph unicode="5" horiz-adv-x="551" d="M199 -10Q161 -10 126 -5T63 9T13 30V161Q49 141 93 127T185 113Q230 113 260 124T310 154T337 196T345 242Q345 280 322 307T236 334Q206 334 178 329T132 318L81 356L182 714H551L524 586H285L242 443Q254 445 269 447T304
450Q358 450 402 430T471 367T497 260Q497 205 480 156T426 70T333 11T199 -10Z" />
<glyph unicode="6" horiz-adv-x="551" d="M252 -10Q183 -10 137 18T67 99T43 229Q43 287 53 345T84 457T134 557T201 637Q234 667 271 686T354 715T454 725Q485 725 514 721T563 712L538 592Q520 597 495 600T445 604Q379 604 331 579T251 505T199 383H203Q220
406 241 424T291 453T355 464Q429 464 472 418T515 283Q515 241 503 191T460 95T380 20T252 -10ZM259 111Q286 111 306 125T340 162T361 213T368 272Q368 307 352 327T302 348Q274 348 250 333T211 296T191 251Q190 244 189 237T188 222T187 206Q187 185 192 168T206
138T228 118T259 111Z" />
<glyph unicode="7" horiz-adv-x="551" d="M38 0L398 587H91L118 714H594L574 619L207 0H38Z" />
<glyph unicode="8" horiz-adv-x="551" d="M251 -10Q177 -10 127 14T52 78T27 171Q27 222 47 261T105 330T197 379Q177 395 159 416T128 464T116 525Q116 580 143 625T222 698T352 725Q419 725 462 703T528 643T550 562Q550 510 529 474T473 413T398 374Q424 357
448 333T488 276T504 196Q504 144 477 97T394 20T251 -10ZM262 101Q296 101 318 114T350 149T361 195Q361 223 351 244T324 282T284 314Q247 300 222 282T185 240T172 187Q172 148 196 125T262 101ZM318 436Q346 447 366 462T397 498T408 544Q408 577 389 596T339
615Q313 615 295 604T268 575T258 534Q258 499 274 475T318 436Z" />
<glyph unicode="9" horiz-adv-x="551" d="M159 -10Q126 -10 94 -5T42 6V131Q61 124 90 118T153 111Q207 111 245 129T308 179T349 249T375 328H371Q355 305 335 288T288 261T227 251Q170 251 133 276T78 344T60 441Q60 481 72 529T115 622T198 696T331 725Q392
725 437 701T508 624T533 489Q533 436 525 380T499 269T457 167T397 83Q376 61 351 44T297 15T234 -3T159 -10ZM277 367Q306 367 328 382T364 421T382 466Q384 477 385 488T386 511Q386 539 379 559T356 592T315 604Q288 604 268 591T234 555T214 506T207 453Q207
411 225 389T277 367Z" />
<glyph unicode=":" horiz-adv-x="285" d="M177 390Q135 390 118 411T101 459Q101 483 111 505T143 542T201 556Q234 556 254 538T274 485Q274 444 248 417T177 390ZM88 -13Q46 -13 29 8T12 56Q12 92 34 122T112 153Q145 153 165 135T185 82Q185 41 159 14T88 -13Z" />
<glyph unicode=";" horiz-adv-x="285" d="M-50 -129Q-32 -89 -15 -46T17 40T45 116H184L188 105Q172 70 151 30T107 -51T60 -129H-50ZM177 390Q135 390 118 411T101 459Q101 483 111 505T143 542T201 556Q234 556 254 538T274 485Q274 444 248 417T177 390Z" />
<glyph unicode="&lt;" horiz-adv-x="572" d="M538 99L53 313V383L538 625V508L204 353L538 216V99Z" />
<glyph unicode="=" horiz-adv-x="572" d="M53 394V500H538V394H53ZM53 204V311H538V204H53Z" />
<glyph unicode="&gt;" horiz-adv-x="572" d="M53 216L387 353L53 508V625L538 383V313L53 99V216Z" />
<glyph unicode="?" horiz-adv-x="459" d="M127 237Q136 283 150 318T189 381T254 437Q287 459 307 475T337 508T347 546Q347 573 332 588T282 604Q247 604 212 590T132 555L87 663Q132 688 186 706T304 724Q392 724 441 681T491 562Q491 512 472 477T420 413T344
357Q315 338 298 322T270 286T253 237H127ZM153 -13Q111 -13 94 8T77 56Q77 92 99 122T177 153Q210 153 230 135T250 82Q250 41 224 14T153 -13Z" />
<glyph unicode="@" horiz-adv-x="856" d="M391 -91Q306 -91 241 -66T133 6T67 113T45 244Q45 335 69 409T138 540T242 636T370 694T514 714Q618 714 692 678T806 574T846 410Q846 363 836 318T805 233T756 164T688 117T604 100Q565 100 536 117T498 172H493Q472
139 444 120T368 100Q313 100 275 135T237 251Q237 291 248 330T281 405T334 466T405 508T492 523Q546 523 584 515T652 496L600 291Q595 269 591 254T587 222Q587 204 595 197T615 189Q636 189 655 201T689 236T715 286T732 346T738 408Q738 474 713 522T635 596T502
622Q443 622 390 606T294 558T220 481T171 379T154 255Q154 187 179 129T259 37T403 2Q465 2 515 13T618 44V-47Q571 -66 515 -78T391 -91ZM394 189Q433 189 457 225T498 321L526 429Q517 431 508 432T486 434Q451 434 425 417T382 372T357 314T348 257Q348 219
362 204T394 189Z" />
<glyph unicode="A" horiz-adv-x="628" d="M-60 0L314 714H496L568 0H423L411 170H180L96 0H-60ZM241 297H404L391 481Q389 510 387 540T386 601H384Q374 574 362 548T335 490L241 297Z" />
<glyph unicode="B" horiz-adv-x="620" d="M26 0L177 714H385Q453 714 504 698T583 647T611 555Q611 506 593 469T540 408T455 372V368Q504 355 533 321T562 233Q562 152 525 101T425 25T281 0H26ZM289 125Q326 125 353 137T395 173T411 232Q411 270 389 290T322
311H241L201 125H289ZM339 431Q375 431 401 440T442 470T457 523Q457 556 437 573T374 590H300L266 431H339Z" />
<glyph unicode="C" horiz-adv-x="612" d="M322 -10Q235 -10 177 24T90 122T60 270Q60 333 74 397T118 520T193 625T300 698T442 725Q510 725 557 713T652 674L594 552Q560 572 524 585T442 599Q394 599 357 580T292 527T247 452T221 365T212 278Q212 197 245 157T352
117Q393 117 434 128T517 155V28Q487 16 437 3T322 -10Z" />
<glyph unicode="D" horiz-adv-x="677" d="M26 0L177 714H370Q501 714 573 645T646 444Q646 363 629 294T579 171T498 78T386 20T246 0H26ZM253 125Q302 125 341 141T408 187T456 255T484 340T493 436Q493 515 457 552T356 590H300L201 125H253Z" />
<glyph unicode="E" horiz-adv-x="542" d="M26 0L177 714H576L550 590H300L267 433H500L473 309H240L201 125H451L425 0H26Z" />
<glyph unicode="F" horiz-adv-x="531" d="M26 0L177 714H574L548 590H300L261 406H492L465 282H234L175 0H26Z" />
<glyph unicode="G" horiz-adv-x="690" d="M324 -10Q200 -10 130 61T60 268Q60 341 77 408T128 533T212 634T329 701T478 725Q534 725 582 714T678 677L622 554Q586 574 550 585T471 597Q405 597 357 569T276 495T228 392T212 280Q212 227 227 191T273 136T356
117Q381 117 399 120T439 129L471 275H341L368 401H643L564 29Q515 13 461 2T324 -10Z" />
<glyph unicode="H" horiz-adv-x="700" d="M26 0L177 714H326L267 434H497L556 714H705L554 0H405L470 308H240L175 0H26Z" />
<glyph unicode="I" horiz-adv-x="383" d="M-29 0L-11 86L80 126L178 588L104 628L122 714H438L420 628L327 588L229 126L305 86L287 0H-29Z" />
<glyph unicode="J" horiz-adv-x="331" d="M-66 -210Q-97 -210 -118 -206T-157 -197V-73Q-140 -77 -121 -80T-77 -83Q-45 -83 -21 -70T19 -30T45 40L188 714H337L189 19Q172 -63 139 -113T56 -187T-66 -210Z" />
<glyph unicode="K" horiz-adv-x="613" d="M26 0L177 714H326L251 369L327 471L529 714H705L415 372L557 0H392L289 289L228 255L175 0H26Z" />
<glyph unicode="L" horiz-adv-x="518" d="M26 0L177 714H326L201 125H451L425 0H26Z" />
<glyph unicode="M" horiz-adv-x="880" d="M26 0L177 714H374L406 180H410L678 714H885L734 0H597L668 338Q675 372 684 410T703 486T721 553H717L439 0H302L272 553H268Q266 532 260 496T247 416T230 332L160 0H26Z" />
<glyph unicode="N" horiz-adv-x="755" d="M26 0L177 714H351L517 188H521Q525 209 530 242T541 312T554 376L626 714H760L609 0H442L268 540H263Q262 534 259 512T252 458T242 395T231 336L160 0H26Z" />
<glyph unicode="O" horiz-adv-x="730" d="M325 -10Q238 -10 179 24T90 119T60 262Q60 318 70 373T100 481T151 577T224 654T319 706T438 725Q568 725 633 652T699 458Q699 400 690 343T660 234T610 137T538 60T443 9T325 -10ZM336 117Q365 117 392 127T442 158T485
208T518 275T539 358T547 454Q547 520 517 559T426 599Q395 599 367 587T316 553T273 499T240 431T219 351T212 262Q212 215 226 183T269 134T336 117Z" />
<glyph unicode="P" horiz-adv-x="610" d="M26 0L177 714H376Q463 714 515 688T591 615T615 506Q615 442 592 395T526 317T427 270T304 254H228L175 0H26ZM316 378Q361 378 394 392T446 435T465 502Q465 547 441 568T370 590H300L255 378H316Z" />
<glyph unicode="Q" horiz-adv-x="730" d="M338 -10Q335 -10 332 -10T325 -10Q238 -10 179 24T90 119T60 262Q60 318 70 373T100 481T151 577T224 654T319 706T438 725Q568 725 633 652T699 458Q699 403 691 349T665 246T621 153T558 77T476 22L600 -170H425L338
-10ZM336 117Q365 117 392 127T442 158T485 208T518 275T539 358T547 454Q547 520 517 559T426 599Q395 599 367 587T316 553T273 499T240 431T219 351T212 262Q212 215 226 183T269 134T336 117Z" />
<glyph unicode="R" horiz-adv-x="609" d="M26 0L177 714H352Q459 714 521 668T584 518Q584 462 564 419T508 348T427 303L554 0H392L291 274H233L175 0H26ZM297 397Q329 397 354 404T396 425T423 460T432 510Q432 550 409 570T336 590H300L259 397H297Z" />
<glyph unicode="S" horiz-adv-x="530" d="M194 -10Q140 -10 96 2T20 34V168Q64 143 107 129T195 115Q220 115 241 119T277 134T302 158T311 193Q311 221 300 240T270 275T225 309Q195 331 167 358T121 421T103 507Q103 555 120 594T169 663T247 708T348 724Q404
724 451 712T542 676L489 562Q451 580 417 589T348 598Q328 598 312 593T283 577T263 551T256 518Q256 493 266 475T296 442T344 407Q384 381 410 352T449 288T462 211Q462 155 441 114T383 45T298 4T194 -10Z" />
<glyph unicode="T" horiz-adv-x="531" d="M130 0L254 588H82L109 714H602L575 588H403L279 0H130Z" />
<glyph unicode="U" horiz-adv-x="691" d="M295 -10Q221 -10 171 15T95 85T69 191Q69 207 70 226T76 263L172 714H321L226 265Q222 248 220 233T218 204Q218 162 241 140T310 117Q354 117 382 133T428 183T456 266L551 714H700L602 252Q586 176 550 117T452 24T295 -10Z" />
<glyph unicode="V" horiz-adv-x="590" d="M152 0L90 714H234L259 284Q260 264 260 239T261 190T258 146H262Q273 179 286 214T316 284L526 714H680L315 0H152Z" />
<glyph unicode="W" horiz-adv-x="894" d="M112 0L90 714H230L233 324Q233 287 232 241T226 155H230Q244 194 261 238T291 314L471 714H603L613 314Q614 297 614 270T612 213T609 155H613Q622 183 633 213T655 273T676 325L837 714H988L672 0H503L495 325Q494 369
494 397T493 449T494 497H490Q477 457 464 421T435 351L277 0H112Z" />
<glyph unicode="X" horiz-adv-x="606" d="M-57 0L224 373L108 714H264L339 461L516 714H684L418 360L549 0H387L303 265L110 0H-57Z" />
<glyph unicode="Y" horiz-adv-x="564" d="M148 0L206 273L91 714H243L306 425L489 714H656L354 273L296 0H148Z" />
<glyph unicode="Z" horiz-adv-x="536" d="M-30 0L-11 98L368 589H103L129 714H586L566 615L184 125H475L449 0H-30Z" />
<glyph unicode="[" horiz-adv-x="331" d="M-18 -158L168 714H399L377 611H272L130 -55H235L213 -158H-18Z" />
<glyph unicode="\" horiz-adv-x="421" d="M214 0L108 714H235L344 0H214Z" />
<glyph unicode="]" horiz-adv-x="331" d="M-67 -158L-45 -55H59L201 611H96L118 714H349L163 -158H-67Z" />
<glyph unicode="^" horiz-adv-x="551" d="M17 254L319 718H391L526 254H417L332 563L136 254H17Z" />
<glyph unicode="_" horiz-adv-x="400" d="M-91 -158L-76 -90H325L310 -158H-91Z" />
<glyph unicode="`" horiz-adv-x="322" d="M263 606Q243 626 220 652T177 706T145 756V766H297Q303 744 311 719T330 669T353 618V606H263Z" />
<glyph unicode="a" horiz-adv-x="594" d="M198 -10Q159 -10 124 9T66 72T44 188Q44 241 55 294T88 394T141 477T211 535T297 556Q332 556 357 546T401 518T432 476H436L464 546H577L461 0H351L358 71H354Q335 47 312 29T261 1T198 -10ZM256 109Q286 109 312 133T356
195T383 275Q387 295 388 314T390 357Q390 392 372 414T322 437Q300 437 281 423T246 385T218 330T200 265T193 195Q193 152 209 131T256 109Z" />
<glyph unicode="b" horiz-adv-x="595" d="M298 -10Q264 -10 238 0T194 28T163 70H159L131 0H18L179 760H326L296 619Q292 599 285 573T270 520T255 473H259Q277 495 296 514T339 544T397 556Q437 556 472 537T529 474T551 358Q551 305 540 252T507 152T454 69T384
11T298 -10ZM273 109Q295 109 314 123T349 161T377 216T395 282T402 351Q402 394 386 415T338 437Q314 437 295 425T262 392T236 346T219 293T209 240T205 195Q205 156 223 133T273 109Z" />
<glyph unicode="c" horiz-adv-x="483" d="M247 -10Q191 -10 145 10T71 75T44 191Q44 250 56 304T92 404T151 484T232 537T333 556Q382 556 420 547T493 521L448 409Q422 420 397 428T339 437Q304 437 277 417T231 363T203 288T193 203Q193 172 203 151T231 120T277
109Q314 109 345 120T411 149V29Q377 11 338 1T247 -10Z" />
<glyph unicode="d" horiz-adv-x="594" d="M198 -10Q159 -10 124 9T66 72T44 189Q44 242 55 295T88 395T141 478T211 535T297 556Q330 556 352 546T391 517T421 476H425Q425 479 426 497T431 540T438 585L475 760H622L461 0H349L358 71H354Q335 47 312 29T261 1T198
-10ZM260 109Q283 109 301 121T334 154T359 201T376 254T386 306T390 351Q390 390 372 413T322 437Q300 437 281 423T246 385T218 330T200 265T193 195Q193 152 210 131T260 109Z" />
<glyph unicode="e" horiz-adv-x="557" d="M260 -10Q196 -10 148 13T72 83T44 201Q44 270 63 333T121 447T217 526T349 556Q441 556 486 514T532 407Q532 364 513 329T455 269T357 231T218 217H193Q192 211 192 207T192 197Q192 153 217 127T289 101Q332 101 367
111T450 143V32Q407 11 363 1T260 -10ZM231 316Q288 316 323 328T374 360T391 404Q391 427 378 438T340 450Q313 450 286 433T239 386T209 316H231Z" />
<glyph unicode="f" horiz-adv-x="373" d="M-22 -240Q-45 -240 -68 -237T-107 -228V-110Q-91 -115 -78 -117T-51 -120Q-21 -120 1 -100T33 -37L133 434H53L68 505L157 546L166 587Q177 637 194 671T237 725T294 755T367 765Q401 765 429 759T482 741L443 632Q429
638 414 642T378 647Q350 647 333 628T310 576L304 546H411L387 434H280L175 -59Q165 -109 142 -150T80 -215T-22 -240Z" />
<glyph unicode="g" horiz-adv-x="594" d="M191 -240Q130 -240 90 -231T13 -205V-77Q39 -90 66 -99T122 -114T183 -119Q234 -119 266 -96T312 -22L316 -7Q321 11 328 34T340 73H336Q319 51 298 32T251 2T191 -10Q152 -10 119 11T65 75T44 188Q44 241 55 294T89
394T141 477T210 535T294 556Q330 556 354 546T397 519T432 476H436L464 546H577L458 -13Q440 -99 403 -148T312 -219T191 -240ZM262 109Q283 109 300 120T331 150T357 193T375 244T386 298T390 351Q390 390 372 413T323 437Q301 437 281 423T245 385T218 330T200
265T193 195Q193 152 211 131T262 109Z" />
<glyph unicode="h" horiz-adv-x="604" d="M18 0L179 760H326L298 628Q294 606 286 577T270 521T255 473H259Q279 498 302 516T352 545T412 556Q459 556 490 537T537 482T553 399Q553 381 550 359T542 311L477 0H330L397 319Q401 336 403 350T405 377Q405 408 392
422T352 437Q319 437 292 409T246 332T213 226L165 0H18Z" />
<glyph unicode="i" horiz-adv-x="297" d="M18 0L134 546H281L165 0H18ZM231 614Q200 614 179 627T157 674Q157 702 167 721T198 750T246 760Q275 760 297 747T319 701Q319 662 298 638T231 614Z" />
<glyph unicode="j" horiz-adv-x="297" d="M-44 -240Q-67 -240 -90 -237T-129 -228V-110Q-113 -115 -100 -117T-73 -120Q-53 -120 -36 -112T-7 -85T11 -37L135 546H282L153 -59Q143 -109 120 -150T58 -215T-44 -240ZM232 614Q201 614 180 627T158 674Q158 702 168
721T199 750T247 760Q276 760 298 747T320 701Q320 662 299 638T232 614Z" />
<glyph unicode="k" horiz-adv-x="568" d="M18 0L179 760H326L254 421Q249 396 239 364T224 314H228L449 546H617L374 300L513 0H349L260 205L201 170L165 0H18Z" />
<glyph unicode="l" horiz-adv-x="297" d="M18 0L179 760H326L165 0H18Z" />
<glyph unicode="m" horiz-adv-x="905" d="M18 0L134 546H246L236 445H240Q261 478 286 503T343 542T412 556Q468 556 499 527T540 445H544Q565 478 590 503T648 542T718 556Q786 556 820 514T854 399Q854 381 851 359T843 311L778 0H631L698 319Q702 336 704 350T706
377Q706 408 694 422T658 437Q633 437 612 421T573 376T542 309T519 227L472 0H325L392 319Q396 336 398 350T400 377Q400 408 388 422T352 437Q327 437 306 421T267 375T236 308T213 226L165 0H18Z" />
<glyph unicode="n" horiz-adv-x="604" d="M18 0L134 546H246L236 445H240Q261 478 286 503T343 542T412 556Q459 556 490 537T537 482T553 399Q553 381 550 359T542 311L477 0H330L397 319Q401 336 403 350T405 377Q405 408 392 422T352 437Q319 437 292 409T246
332T213 226L165 0H18Z" />
<glyph unicode="o" horiz-adv-x="585" d="M253 -10Q192 -10 145 15T71 88T44 200Q44 258 55 311T90 408T148 486T229 537T334 556Q398 556 444 531T515 457T541 340Q541 285 530 233T497 137T440 60T359 9T253 -10ZM265 110Q289 110 309 122T345 157T371 208T387
271T393 340Q393 368 387 389T365 423T323 436Q296 436 275 421T239 382T213 326T197 263T192 200Q192 156 210 133T265 110Z" />
<glyph unicode="p" horiz-adv-x="595" d="M-33 -240L134 546H246L238 463H242Q259 487 281 508T333 542T397 556Q437 556 472 537T529 474T551 357Q551 304 540 251T507 151T454 68T384 11T298 -10Q265 -10 242 0T203 29T174 70H170Q167 30 162 -3T149 -74L114
-240H-33ZM273 109Q295 109 314 123T349 161T377 216T395 282T402 351Q402 394 386 415T338 437Q314 437 295 425T262 393T236 346T219 293T209 241T205 195Q205 156 223 133T273 109Z" />
<glyph unicode="q" horiz-adv-x="594" d="M299 -75Q303 -57 310 -31T325 24T340 73H336Q319 51 298 32T251 2T191 -10Q155 -10 122 9T66 72T44 188Q44 241 55 294T88 394T141 477T211 535T297 556Q330 556 354 547T397 519T432 476H436L464 546H577L410 -240H263L299
-75ZM261 109Q284 109 302 121T335 154T360 201T377 254T387 306T390 351Q390 390 372 413T322 437Q300 437 281 423T246 385T218 330T200 265T193 195Q193 152 211 131T261 109Z" />
<glyph unicode="r" horiz-adv-x="421" d="M18 0L134 546H246L236 445H241Q263 480 289 504T345 542T411 556Q423 556 436 555T458 551L426 409Q418 412 405 414T377 417Q350 417 325 406T279 374T242 320T217 244L165 0H18Z" />
<glyph unicode="s" horiz-adv-x="473" d="M175 -10Q123 -10 84 -3T11 22V143Q48 122 87 111T167 99Q190 99 210 105T243 125T256 158Q256 172 250 182T226 206T174 238Q140 257 117 277T81 322T68 382Q68 439 93 477T164 536T276 556Q323 556 367 546T453 510L405
405Q376 422 344 434T279 446Q255 446 236 435T217 400Q217 387 224 377T247 356T291 330Q324 313 350 293T390 245T405 180Q405 118 377 76T297 12T175 -10Z" />
<glyph unicode="t" horiz-adv-x="410" d="M200 -10Q136 -10 97 17T58 116Q58 128 59 142T64 171L120 434H46L60 506L156 547L220 662H315L291 546H429L405 434H267L211 171Q210 164 209 157T208 145Q208 126 220 118T251 109Q271 109 289 113T330 126V16Q307 5
274 -2T200 -10Z" />
<glyph unicode="u" horiz-adv-x="604" d="M193 -10Q146 -10 115 9T69 64T54 147Q54 165 57 193T66 251L128 546H275L208 227Q204 211 202 196T200 169Q200 138 213 124T253 109Q287 109 313 137T360 214T392 320L440 546H587L471 0H359L369 101H364Q343 69 318
44T262 4T193 -10Z" />
<glyph unicode="v" horiz-adv-x="512" d="M117 0L50 546H194L216 260Q217 248 217 228T218 187T219 147H224Q230 164 237 184T253 224T267 256L412 546H570L275 0H117Z" />
<glyph unicode="w" horiz-adv-x="788" d="M86 0L61 546H198L200 304Q200 264 200 225T195 139H199Q206 164 217 194T237 250T251 284L364 546H524V284Q524 250 524 215T519 139H524Q531 162 541 193T563 254T582 304L689 546H839L580 0H419L416 254Q416 275 416
304T418 365T421 420H415Q407 396 397 367T376 310T358 264L244 0H86Z" />
<glyph unicode="x" horiz-adv-x="531" d="M-49 0L185 280L75 546H232L288 383L407 546H580L352 272L471 0H312L251 167L122 0H-49Z" />
<glyph unicode="y" horiz-adv-x="519" d="M3 -240Q-23 -240 -40 -238T-69 -231V-114Q-56 -116 -43 -118T-12 -120Q35 -120 65 -93T117 -24L130 0L50 546H194L221 293Q224 271 225 245T226 195T227 150H231Q238 167 245 187T261 231T284 283L411 546H571L239 -78Q210
-133 174 -169T95 -222T3 -240Z" />
<glyph unicode="z" horiz-adv-x="455" d="M-23 0L-6 88L275 432H81L106 546H472L451 448L175 114H389L365 0H-23Z" />
<glyph unicode="{" horiz-adv-x="355" d="M231 -158Q141 -158 103 -124T65 -37Q65 -20 67 -5T72 24L91 114Q93 125 95 136T98 156Q98 190 72 207T-4 224L18 336Q77 336 112 356T157 424L187 563Q198 613 220 646T281 697T383 714H424L400 604Q363 603 341 590T309
535L277 390Q265 336 231 309T142 275V271Q183 258 203 231T224 165Q224 152 222 139T217 110L199 23Q198 16 197 10T196 -2Q196 -28 212 -38T257 -48V-158H231Z" />
<glyph unicode="|" horiz-adv-x="551" d="M222 -227V757H329V-227H222Z" />
<glyph unicode="}" horiz-adv-x="355" d="M-49 -48Q-24 -47 -5 -42T27 -22T47 21L79 166Q91 220 125 247T214 281V285Q173 298 153 325T132 391Q132 404 134 417T139 446L157 533Q159 541 159 547T160 558Q160 584 142 594T89 604L109 714H125Q185 714 221 699T274
656T291 593Q291 577 289 562T284 532L265 442Q263 431 261 420T258 400Q258 366 284 349T360 332L338 220Q279 220 245 200T199 132L169 -7Q158 -57 136 -90T75 -141T-27 -158H-49V-48Z" />
<glyph unicode="~" horiz-adv-x="572" d="M278 301Q241 317 216 322T167 328Q139 328 109 311T53 269V382Q78 408 109 421T178 435Q207 435 236 430T313 404Q350 388 376 383T424 377Q453 377 483 394T538 436V323Q513 297 482 284T413 270Q384 270 355 276T278 301Z" />
<glyph unicode="&#xa0;" horiz-adv-x="260" />
<glyph unicode="&#xa1;" horiz-adv-x="286" d="M-36 -181L89 296H207L130 -181H-36ZM168 380Q135 380 115 398T95 451Q95 492 121 519T192 546Q234 546 251 525T268 477Q268 441 246 411T168 380Z" />
<glyph unicode="&#xa2;" horiz-adv-x="551" d="M213 93Q155 109 118 154T80 285Q80 339 90 389T121 484T172 562T241 618T328 647L344 724H436L419 647Q451 643 477 635T529 615L484 503Q458 514 433 522T375 531Q340 531 313 511T267 457T239 382T229 297Q229
251 251 227T313 203Q350 203 381 214T447 243V123Q416 107 381 97T301 84L281 -10H189L213 93Z" />
<glyph unicode="&#xa3;" horiz-adv-x="551" d="M18 120Q47 128 71 143T112 185T137 249L148 300H54L76 407H170L194 528Q207 591 237 635T315 702T426 725Q479 725 525 713T606 683L551 570Q522 584 492 593T435 603Q398 603 375 584T342 519L319 407H465L443
300H297L288 259Q278 210 251 177T186 127H506L479 0H-6L18 120Z" />
<glyph unicode="&#xa4;" horiz-adv-x="551" d="M382 185Q361 174 337 167T286 160Q259 160 235 166T189 185L128 125L57 196L119 257Q106 279 100 303T93 353Q93 379 100 403T119 449L56 511L128 583L190 521Q211 533 236 540T286 547Q312 547 336 541T382 520L444
583L517 513L454 450Q466 430 473 405T480 353Q480 326 474 302T454 256L515 195L444 124L382 185ZM286 261Q312 261 333 273T367 307T380 353Q380 379 368 400T334 433T286 446Q261 446 240 434T207 400T194 353Q194 328 206 307T240 274T286 261Z" />
<glyph unicode="&#xa5;" horiz-adv-x="551" d="M143 0L166 108H43L61 195H184L198 262H75L94 349H190L96 714H241L297 426L478 714H630L383 349H482L463 262H340L326 195H449L431 108H308L285 0H143Z" />
<glyph unicode="&#xa6;" horiz-adv-x="551" d="M222 359V757H329V359H222ZM222 -227V171H329V-227H222Z" />
<glyph unicode="&#xa7;" horiz-adv-x="486" d="M174 -10Q120 -10 80 0T10 27V136Q45 115 88 100T178 85Q226 85 248 102T271 147Q271 161 264 172T239 195T193 221Q155 240 128 261T87 310T73 369Q73 402 85 428T120 476T172 516Q152 533 138 557T124 610Q124
660 151 694T225 747T334 765Q383 765 423 754T502 722L462 628Q435 644 401 656T324 669Q304 669 288 664T263 647T254 617Q254 597 274 581T336 546Q376 529 402 507T441 459T454 400Q454 363 441 336T406 289T360 254Q379 237 391 213T404 159Q404 105 375 67T294
10T174 -10ZM283 299Q302 311 317 332T333 382Q333 400 323 415T294 444T247 468Q231 460 219 448T199 420T192 387Q192 371 201 357T230 328T283 299Z" />
<glyph unicode="&#xa8;" horiz-adv-x="554" d="M452 621Q425 621 408 633T390 675Q390 713 409 732T464 752Q489 752 507 741T525 699Q525 664 508 643T452 621ZM265 621Q238 621 221 633T203 675Q203 713 222 732T277 752Q294 752 307 747T329 731T338 699Q338
664 321 643T265 621Z" />
<glyph unicode="&#xa9;" horiz-adv-x="832" d="M416 -10Q336 -10 269 17T153 93T76 210T49 357Q49 433 76 499T154 616T271 695T416 724Q492 724 558 697T675 621T754 504T783 357Q783 277 756 210T680 94T563 17T416 -10ZM431 128Q329 128 279 191T228 357Q228
424 252 475T322 556T435 586Q466 586 498 578T558 556L529 489Q504 502 481 508T436 515Q377 515 345 473T312 357Q312 281 340 240T435 198Q458 198 486 204T540 221V152Q516 142 491 135T431 128ZM416 54Q478 54 531 76T626 139T690 235T713 357Q713 420 691
475T628 572T534 637T416 661Q352 661 298 639T203 576T140 479T117 357Q117 291 139 236T201 140T295 77T416 54Z" />
<glyph unicode="&#xaa;" horiz-adv-x="377" d="M180 365Q153 365 129 377T89 419T74 496Q74 529 83 567T113 640T165 697T243 720Q275 720 295 707T330 670H334L353 714H428L351 371H279L283 416H279Q261 393 237 379T180 365ZM216 439Q234 439 248 450T272 479T288
517T298 558T302 593Q302 616 292 630T259 645Q240 645 224 632T197 596T180 546T174 493Q174 467 184 453T216 439Z" />
<glyph unicode="&#xab;" horiz-adv-x="562" d="M134 44L35 269V278L231 504L324 428L188 265L254 94L134 44ZM372 44L273 269V278L469 504L562 428L426 265L492 94L372 44Z" />
<glyph unicode="&#xac;" horiz-adv-x="572" d="M538 406V121H431V299H53V406H538Z" />
<glyph unicode="&#xad;" horiz-adv-x="322" d="M20 207L46 329H302L276 207H20Z" />
<glyph unicode="&#xae;" horiz-adv-x="832" d="M274 138V580H407Q489 580 527 546T565 446Q565 399 541 372T487 332L603 138H512L417 306H355V138H274ZM405 373Q444 373 463 393T483 444Q483 479 466 495T404 511H355V373H405ZM416 -10Q336 -10 269 17T153 93T76
210T49 357Q49 433 76 499T154 616T271 695T416 724Q492 724 558 697T675 621T754 504T783 357Q783 277 756 210T680 94T563 17T416 -10ZM416 54Q478 54 531 76T626 139T690 235T713 357Q713 420 691 475T628 572T534 637T416 661Q352 661 298 639T203 576T140
479T117 357Q117 291 139 236T201 140T295 77T416 54Z" />
<glyph unicode="&#xaf;" horiz-adv-x="500" d="M87 760L109 858H615L593 760H87Z" />
<glyph unicode="&#xb0;" horiz-adv-x="428" d="M214 387Q163 387 124 408T62 468T39 555Q39 604 61 642T123 702T214 724Q266 724 305 703T366 643T388 555Q388 506 366 468T305 409T214 387ZM214 480Q246 480 268 500T290 555Q290 591 268 611T214 632Q183 632
161 612T138 555Q138 521 160 501T214 480Z" />
<glyph unicode="&#xb1;" horiz-adv-x="572" d="M53 0V107H538V0H53ZM349 436H538V329H349V141H242V329H53V436H242V626H349V436Z" />
<glyph unicode="&#xb2;" horiz-adv-x="379" d="M56 415L73 496L206 603Q238 629 260 648T293 684T304 719Q304 739 292 749T262 759Q241 759 219 749T170 719L121 796Q157 824 197 838T291 853Q332 853 361 839T407 801T423 744Q423 703 408 674T362 618T286 559L223
513H392L372 415H56Z" />
<glyph unicode="&#xb3;" horiz-adv-x="379" d="M202 407Q165 407 131 414T72 434V528Q101 512 131 503T196 493Q231 493 256 507T281 551Q281 569 269 581T225 594H163L180 672H224Q251 672 271 678T301 696T312 727Q312 747 300 756T265 766Q243 766 220 758T173
734L133 807Q168 830 205 841T286 852Q337 852 367 838T410 800T424 749Q424 698 393 673T318 636V632Q359 623 376 601T393 547Q393 498 366 467T294 422T202 407Z" />
<glyph unicode="&#xb4;" horiz-adv-x="322" d="M113 618Q130 637 149 662T187 715T221 766H385V758Q374 745 354 725T308 682T259 640T215 606H113V618Z" />
<glyph unicode="&#xb5;" horiz-adv-x="610" d="M-33 -240L134 546H281L215 231Q211 214 209 198T207 170Q207 141 222 125T261 109Q296 109 322 138T368 214T398 317L446 546H593L477 0H367L376 86H371Q353 56 333 35T290 2T241 -10Q216 -10 198 0T169 23H164Q162
8 160 -11T155 -48T148 -84L115 -240H-33Z" />
<glyph unicode="&#xb6;" horiz-adv-x="655" d="M348 273Q333 269 316 267T277 264Q231 264 193 276T128 317T87 393T72 509Q72 581 88 629T133 706T202 747T292 760H587V-127H508V662H427V-127H348V273Z" />
<glyph unicode="&#xb7;" horiz-adv-x="285" d="M140 270Q98 270 81 291T64 339Q64 375 86 405T164 436Q197 436 217 418T237 365Q237 324 211 297T140 270Z" />
<glyph unicode="&#xb8;" horiz-adv-x="205" d="M-27 -240Q-50 -240 -70 -237T-101 -229V-147Q-90 -151 -74 -154T-40 -158Q-23 -158 -12 -154T4 -140T10 -118Q10 -101 -5 -90T-59 -75L-12 0H78L59 -35Q88 -45 108 -65T128 -122Q128 -155 112 -182T62 -224T-27 -240Z" />
<glyph unicode="&#xb9;" horiz-adv-x="379" d="M217 609Q224 640 231 666T244 710Q235 703 224 695T205 681L141 641L91 722L286 843H387L296 415H176L217 609Z" />
<glyph unicode="&#xba;" horiz-adv-x="368" d="M215 365Q150 365 117 402T83 505Q83 549 95 587T130 656T188 703T269 720Q339 720 369 681T399 581Q399 549 390 512T361 441T305 386T215 365ZM224 445Q242 445 255 458T278 492T291 539T296 588Q296 614 287 627T259
640Q241 640 227 627T204 592T190 546T185 499Q185 471 195 458T224 445Z" />
<glyph unicode="&#xbb;" horiz-adv-x="562" d="M331 44L238 120L374 283L308 454L428 504L527 279V270L331 44ZM93 44L0 120L136 283L70 454L190 504L289 279V270L93 44Z" />
<glyph unicode="&#xbc;" horiz-adv-x="834" d="M107 0L638 714H753L224 0H107ZM197 479Q204 510 211 536T224 580Q215 573 204 565T185 551L121 511L71 592L266 713H367L276 285H156L197 479ZM591 1L607 75H425L440 160L672 432H799L740 157H798L781 75H723L707
1H591ZM539 157H624L644 237Q649 257 652 269T663 306Q657 297 650 287T635 268T621 252L539 157Z" />
<glyph unicode="&#xbd;" horiz-adv-x="891" d="M105 0L636 714H751L222 0H105ZM197 479Q204 510 211 536T224 580Q215 573 204 565T185 551L121 511L71 592L266 713H367L276 285H156L197 479ZM482 -1L499 80L632 187Q664 213 686 232T719 268T730 303Q730 323
718 333T688 343Q667 343 645 333T596 303L547 380Q583 408 623 422T717 437Q758 437 787 423T833 385T849 328Q849 287 834 258T788 202T712 143L649 97H818L798 -1H482Z" />
<glyph unicode="&#xbe;" horiz-adv-x="863" d="M177 278Q140 278 106 285T47 305V399Q76 383 106 374T171 364Q206 364 231 378T256 422Q256 440 244 452T200 465H138L155 543H199Q226 543 246 549T276 567T287 598Q287 618 275 627T240 637Q218 637 195 629T148
605L108 678Q143 701 180 712T261 723Q312 723 342 709T385 671T399 620Q399 569 368 544T293 507V503Q334 494 351 472T368 418Q368 369 341 338T269 293T177 278ZM136 0L667 714H782L253 0H136ZM620 0L636 74H454L469 159L701 431H828L769 156H827L810 74H752L736
0H620ZM568 156H653L673 236Q678 256 681 268T692 305Q686 296 679 286T664 267T650 251L568 156Z" />
<glyph unicode="&#xbf;" horiz-adv-x="459" d="M336 297Q328 251 314 216T274 153T209 97Q177 75 156 59T126 26T116 -12Q116 -39 131 -54T181 -70Q216 -70 252 -56T331 -21L376 -129Q331 -154 277 -172T159 -190Q71 -190 22 -147T-28 -28Q-28 22 -9 57T44 121T119
177Q149 197 166 213T193 249T210 297H336ZM310 547Q352 547 369 526T386 478Q386 442 364 412T286 381Q253 381 233 399T213 452Q213 493 239 520T310 547Z" />
<glyph unicode="&#xc0;" horiz-adv-x="628" d="M-60 0L314 714H496L568 0H423L411 170H180L96 0H-60ZM241 297H404L391 481Q389 510 387 540T386 601H384Q374 574 362 548T335 490L241 297ZM414 774Q394 794 371 820T328 874T296 924V934H448Q454 912 462 887T481
837T504 786V774H414Z" />
<glyph unicode="&#xc1;" horiz-adv-x="628" d="M-60 0L314 714H496L568 0H423L411 170H180L96 0H-60ZM241 297H404L391 481Q389 510 387 540T386 601H384Q374 574 362 548T335 490L241 297ZM340 786Q357 805 376 830T414 883T448 934H612V926Q601 913 581 893T535
850T486 808T442 774H340V786Z" />
<glyph unicode="&#xc2;" horiz-adv-x="628" d="M-60 0L314 714H496L568 0H423L411 170H180L96 0H-60ZM241 297H404L391 481Q389 510 387 540T386 601H384Q374 574 362 548T335 490L241 297ZM215 786Q235 805 262 831T315 884T359 934H524Q534 911 549 884T580
832T610 786V774H513Q502 784 488 798T460 827T434 856Q405 832 378 813T321 774H215V786Z" />
<glyph unicode="&#xc3;" horiz-adv-x="628" d="M-60 0L314 714H496L568 0H423L411 170H180L96 0H-60ZM241 297H404L391 481Q389 510 387 540T386 601H384Q374 574 362 548T335 490L241 297ZM227 773Q237 826 256 859T303 908T364 924Q388 924 407 917T441 899T471
881T501 873Q518 873 530 885T552 925H636Q625 872 605 839T558 790T496 774Q472 774 454 781T420 799T390 817T359 825Q344 825 332 812T313 773H227Z" />
<glyph unicode="&#xc4;" horiz-adv-x="628" d="M-60 0L314 714H496L568 0H423L411 170H180L96 0H-60ZM241 297H404L391 481Q389 510 387 540T386 601H384Q374 574 362 548T335 490L241 297ZM520 789Q493 789 476 801T458 843Q458 881 477 900T532 920Q557 920
575 909T593 867Q593 832 576 811T520 789ZM333 789Q306 789 289 801T271 843Q271 881 290 900T345 920Q362 920 375 915T397 899T406 867Q406 832 389 811T333 789Z" />
<glyph unicode="&#xc5;" horiz-adv-x="628" d="M-60 0L314 714H496L568 0H423L411 170H180L96 0H-60ZM241 297H404L391 481Q389 510 387 540T386 601H384Q374 574 362 548T335 490L241 297ZM432 773Q378 773 345 804T311 889Q311 943 344 974T432 1005Q484 1005
520 974T556 890Q556 835 521 804T432 773ZM432 842Q452 842 465 854T479 889Q479 911 466 923T432 936Q412 936 399 924T385 889Q385 867 397 855T432 842Z" />
<glyph unicode="&#xc6;" horiz-adv-x="895" d="M-60 0L390 714H929L903 590H653L620 433H853L826 309H593L554 125H804L778 0H379L415 170H207L100 0H-60ZM287 297H442L504 590H465L287 297Z" />
<glyph unicode="&#xc7;" horiz-adv-x="612" d="M322 -10Q235 -10 177 24T90 122T60 270Q60 333 74 397T118 520T193 625T300 698T442 725Q510 725 557 713T652 674L594 552Q560 572 524 585T442 599Q394 599 357 580T292 527T247 452T221 365T212 278Q212 197
245 157T352 117Q393 117 434 128T517 155V28Q487 16 437 3T322 -10ZM264 -240Q241 -240 221 -237T190 -229V-147Q201 -151 217 -154T251 -158Q268 -158 279 -154T295 -140T301 -118Q301 -101 286 -90T232 -75L279 0H369L350 -35Q379 -45 399 -65T419 -122Q419
-155 403 -182T353 -224T264 -240Z" />
<glyph unicode="&#xc8;" horiz-adv-x="542" d="M26 0L177 714H576L550 590H300L267 433H500L473 309H240L201 125H451L425 0H26ZM374 774Q354 794 331 820T288 874T256 924V934H408Q414 912 422 887T441 837T464 786V774H374Z" />
<glyph unicode="&#xc9;" horiz-adv-x="542" d="M26 0L177 714H576L550 590H300L267 433H500L473 309H240L201 125H451L425 0H26ZM300 786Q317 805 336 830T374 883T408 934H572V926Q561 913 541 893T495 850T446 808T402 774H300V786Z" />
<glyph unicode="&#xca;" horiz-adv-x="542" d="M26 0L177 714H576L550 590H300L267 433H500L473 309H240L201 125H451L425 0H26ZM175 786Q195 805 222 831T275 884T319 934H484Q494 911 509 884T540 832T570 786V774H473Q462 784 448 798T420 827T394 856Q365
832 338 813T281 774H175V786Z" />
<glyph unicode="&#xcb;" horiz-adv-x="542" d="M26 0L177 714H576L550 590H300L267 433H500L473 309H240L201 125H451L425 0H26ZM480 789Q453 789 436 801T418 843Q418 881 437 900T492 920Q517 920 535 909T553 867Q553 832 536 811T480 789ZM293 789Q266 789
249 801T231 843Q231 881 250 900T305 920Q322 920 335 915T357 899T366 867Q366 832 349 811T293 789Z" />
<glyph unicode="&#xcc;" horiz-adv-x="383" d="M-29 0L-11 86L80 126L178 588L104 628L122 714H438L420 628L327 588L229 126L305 86L287 0H-29ZM285 774Q265 794 242 820T199 874T167 924V934H319Q325 912 333 887T352 837T375 786V774H285Z" />
<glyph unicode="&#xcd;" horiz-adv-x="383" d="M-29 0L-11 86L80 126L178 588L104 628L122 714H438L420 628L327 588L229 126L305 86L287 0H-29ZM211 786Q228 805 247 830T285 883T319 934H483V926Q472 913 452 893T406 850T357 808T313 774H211V786Z" />
<glyph unicode="&#xce;" horiz-adv-x="383" d="M-29 0L-11 86L80 126L178 588L104 628L122 714H438L420 628L327 588L229 126L305 86L287 0H-29ZM86 786Q106 805 133 831T186 884T230 934H395Q405 911 420 884T451 832T481 786V774H384Q373 784 359 798T331 827T305
856Q276 832 249 813T192 774H86V786Z" />
<glyph unicode="&#xcf;" horiz-adv-x="383" d="M-29 0L-11 86L80 126L178 588L104 628L122 714H438L420 628L327 588L229 126L305 86L287 0H-29ZM391 789Q364 789 347 801T329 843Q329 881 348 900T403 920Q428 920 446 909T464 867Q464 832 447 811T391 789ZM204
789Q177 789 160 801T142 843Q142 881 161 900T216 920Q233 920 246 915T268 899T277 867Q277 832 260 811T204 789Z" />
<glyph unicode="&#xd0;" horiz-adv-x="677" d="M18 291L45 415H379L353 291H18ZM26 0L177 714H370Q501 714 573 645T646 444Q646 363 629 294T579 171T498 78T386 20T246 0H26ZM253 125Q302 125 341 141T408 187T456 255T484 340T493 436Q493 515 457 552T356
590H300L201 125H253Z" />
<glyph unicode="&#xd1;" horiz-adv-x="755" d="M26 0L177 714H351L517 188H521Q525 209 530 242T541 312T554 376L626 714H760L609 0H442L268 540H263Q262 534 259 512T252 458T242 395T231 336L160 0H26ZM296 773Q306 826 325 859T372 908T433 924Q457 924 476
917T510 899T540 881T570 873Q587 873 599 885T621 925H705Q694 872 674 839T627 790T565 774Q541 774 523 781T489 799T459 817T428 825Q413 825 401 812T382 773H296Z" />
<glyph unicode="&#xd2;" horiz-adv-x="730" d="M325 -10Q238 -10 179 24T90 119T60 262Q60 318 70 373T100 481T151 577T224 654T319 706T438 725Q568 725 633 652T699 458Q699 400 690 343T660 234T610 137T538 60T443 9T325 -10ZM336 117Q365 117 392 127T442
158T485 208T518 275T539 358T547 454Q547 520 517 559T426 599Q395 599 367 587T316 553T273 499T240 431T219 351T212 262Q212 215 226 183T269 134T336 117ZM465 774Q445 794 422 820T379 874T347 924V934H499Q505 912 513 887T532 837T555 786V774H465Z" />
<glyph unicode="&#xd3;" horiz-adv-x="730" d="M325 -10Q238 -10 179 24T90 119T60 262Q60 318 70 373T100 481T151 577T224 654T319 706T438 725Q568 725 633 652T699 458Q699 400 690 343T660 234T610 137T538 60T443 9T325 -10ZM336 117Q365 117 392 127T442
158T485 208T518 275T539 358T547 454Q547 520 517 559T426 599Q395 599 367 587T316 553T273 499T240 431T219 351T212 262Q212 215 226 183T269 134T336 117ZM391 786Q408 805 427 830T465 883T499 934H663V926Q652 913 632 893T586 850T537 808T493 774H391V786Z"
/>
<glyph unicode="&#xd4;" horiz-adv-x="730" d="M325 -10Q238 -10 179 24T90 119T60 262Q60 318 70 373T100 481T151 577T224 654T319 706T438 725Q568 725 633 652T699 458Q699 400 690 343T660 234T610 137T538 60T443 9T325 -10ZM336 117Q365 117 392 127T442
158T485 208T518 275T539 358T547 454Q547 520 517 559T426 599Q395 599 367 587T316 553T273 499T240 431T219 351T212 262Q212 215 226 183T269 134T336 117ZM266 786Q286 805 313 831T366 884T410 934H575Q585 911 600 884T631 832T661 786V774H564Q553 784
539 798T511 827T485 856Q456 832 429 813T372 774H266V786Z" />
<glyph unicode="&#xd5;" horiz-adv-x="730" d="M325 -10Q238 -10 179 24T90 119T60 262Q60 318 70 373T100 481T151 577T224 654T319 706T438 725Q568 725 633 652T699 458Q699 400 690 343T660 234T610 137T538 60T443 9T325 -10ZM336 117Q365 117 392 127T442
158T485 208T518 275T539 358T547 454Q547 520 517 559T426 599Q395 599 367 587T316 553T273 499T240 431T219 351T212 262Q212 215 226 183T269 134T336 117ZM278 773Q288 826 307 859T354 908T415 924Q439 924 458 917T492 899T522 881T552 873Q569 873 581
885T603 925H687Q676 872 656 839T609 790T547 774Q523 774 505 781T471 799T441 817T410 825Q395 825 383 812T364 773H278Z" />
<glyph unicode="&#xd6;" horiz-adv-x="730" d="M325 -10Q238 -10 179 24T90 119T60 262Q60 318 70 373T100 481T151 577T224 654T319 706T438 725Q568 725 633 652T699 458Q699 400 690 343T660 234T610 137T538 60T443 9T325 -10ZM336 117Q365 117 392 127T442
158T485 208T518 275T539 358T547 454Q547 520 517 559T426 599Q395 599 367 587T316 553T273 499T240 431T219 351T212 262Q212 215 226 183T269 134T336 117ZM577 789Q550 789 533 801T515 843Q515 881 534 900T589 920Q614 920 632 909T650 867Q650 832 633
811T577 789ZM390 789Q363 789 346 801T328 843Q328 881 347 900T402 920Q419 920 432 915T454 899T463 867Q463 832 446 811T390 789Z" />
<glyph unicode="&#xd7;" horiz-adv-x="572" d="M443 575L518 502L369 353L516 205L443 131L294 278L147 132L74 206L219 353L73 500L147 575L294 429L443 575Z" />
<glyph unicode="&#xd8;" horiz-adv-x="730" d="M124 -42L49 14L108 88Q84 122 72 166T60 262Q60 318 70 373T100 481T151 577T224 654T319 706T438 725Q483 725 520 716T587 688L638 752L712 695L655 624Q678 590 688 549T699 458Q699 400 690 343T660 234T610
137T538 60T443 9T325 -10Q281 -10 244 -1T177 25L124 -42ZM338 114Q368 114 396 125T447 156T490 207T524 275T545 358T553 454Q553 462 553 473T551 493L263 132Q277 124 296 119T338 114ZM502 581Q488 590 469 596T425 602Q392 602 363 590T310 555T267 501T234
431T214 351T207 262Q207 251 208 239T211 213L502 581Z" />
<glyph unicode="&#xd9;" horiz-adv-x="691" d="M295 -10Q221 -10 171 15T95 85T69 191Q69 207 70 226T76 263L172 714H321L226 265Q222 248 220 233T218 204Q218 162 241 140T310 117Q354 117 382 133T428 183T456 266L551 714H700L602 252Q586 176 550 117T452
24T295 -10ZM442 774Q422 794 399 820T356 874T324 924V934H476Q482 912 490 887T509 837T532 786V774H442Z" />
<glyph unicode="&#xda;" horiz-adv-x="691" d="M295 -10Q221 -10 171 15T95 85T69 191Q69 207 70 226T76 263L172 714H321L226 265Q222 248 220 233T218 204Q218 162 241 140T310 117Q354 117 382 133T428 183T456 266L551 714H700L602 252Q586 176 550 117T452
24T295 -10ZM368 786Q385 805 404 830T442 883T476 934H640V926Q629 913 609 893T563 850T514 808T470 774H368V786Z" />
<glyph unicode="&#xdb;" horiz-adv-x="691" d="M295 -10Q221 -10 171 15T95 85T69 191Q69 207 70 226T76 263L172 714H321L226 265Q222 248 220 233T218 204Q218 162 241 140T310 117Q354 117 382 133T428 183T456 266L551 714H700L602 252Q586 176 550 117T452
24T295 -10ZM243 786Q263 805 290 831T343 884T387 934H552Q562 911 577 884T608 832T638 786V774H541Q530 784 516 798T488 827T462 856Q433 832 406 813T349 774H243V786Z" />
<glyph unicode="&#xdc;" horiz-adv-x="691" d="M295 -10Q221 -10 171 15T95 85T69 191Q69 207 70 226T76 263L172 714H321L226 265Q222 248 220 233T218 204Q218 162 241 140T310 117Q354 117 382 133T428 183T456 266L551 714H700L602 252Q586 176 550 117T452
24T295 -10ZM554 789Q527 789 510 801T492 843Q492 881 511 900T566 920Q591 920 609 909T627 867Q627 832 610 811T554 789ZM367 789Q340 789 323 801T305 843Q305 881 324 900T379 920Q396 920 409 915T431 899T440 867Q440 832 423 811T367 789Z" />
<glyph unicode="&#xdd;" horiz-adv-x="564" d="M148 0L206 273L91 714H243L306 425L489 714H656L354 273L296 0H148ZM298 786Q315 805 334 830T372 883T406 934H570V926Q559 913 539 893T493 850T444 808T400 774H298V786Z" />
<glyph unicode="&#xde;" horiz-adv-x="606" d="M26 0L177 714H326L302 602H343Q430 602 482 576T558 503T582 394Q582 330 559 283T493 205T394 159T271 143H205L175 0H26ZM283 267Q328 267 361 281T413 323T432 390Q432 435 408 456T337 478H277L232 267H283Z" />
<glyph unicode="&#xdf;" horiz-adv-x="659" d="M-49 -240Q-67 -240 -89 -237T-127 -228V-110Q-111 -115 -98 -117T-71 -120Q-41 -120 -20 -100T12 -33L136 556Q151 627 184 673T273 742T413 765Q516 765 575 721T635 604Q635 562 623 533T586 480T524 436Q499
421 483 408T466 376Q466 369 470 361T486 342T515 318Q556 287 580 254T604 171Q604 119 579 78T503 14T379 -10Q333 -10 297 -3T234 20V137Q261 121 293 110T360 99Q410 99 432 115T455 157Q455 171 449 182T429 208T389 241Q351 270 330 299T309 366Q309 399
322 422T357 464T410 499Q432 511 447 523T471 550T480 583Q480 613 461 631T400 649Q360 649 337 634T301 594T282 540L158 -55Q147 -109 123 -151T58 -216T-49 -240Z" />
<glyph unicode="&#xe0;" horiz-adv-x="594" d="M198 -10Q159 -10 124 9T66 72T44 188Q44 241 55 294T88 394T141 477T211 535T297 556Q332 556 357 546T401 518T432 476H436L464 546H577L461 0H351L358 71H354Q335 47 312 29T261 1T198 -10ZM256 109Q286 109 312
133T356 195T383 275Q387 295 388 314T390 357Q390 392 372 414T322 437Q300 437 281 423T246 385T218 330T200 265T193 195Q193 152 209 131T256 109ZM361 606Q341 626 318 652T275 706T243 756V766H395Q401 744 409 719T428 669T451 618V606H361Z" />
<glyph unicode="&#xe1;" horiz-adv-x="594" d="M198 -10Q159 -10 124 9T66 72T44 188Q44 241 55 294T88 394T141 477T211 535T297 556Q332 556 357 546T401 518T432 476H436L464 546H577L461 0H351L358 71H354Q335 47 312 29T261 1T198 -10ZM256 109Q286 109 312
133T356 195T383 275Q387 295 388 314T390 357Q390 392 372 414T322 437Q300 437 281 423T246 385T218 330T200 265T193 195Q193 152 209 131T256 109ZM287 618Q304 637 323 662T361 715T395 766H559V758Q548 745 528 725T482 682T433 640T389 606H287V618Z" />
<glyph unicode="&#xe2;" horiz-adv-x="594" d="M198 -10Q159 -10 124 9T66 72T44 188Q44 241 55 294T88 394T141 477T211 535T297 556Q332 556 357 546T401 518T432 476H436L464 546H577L461 0H351L358 71H354Q335 47 312 29T261 1T198 -10ZM256 109Q286 109 312
133T356 195T383 275Q387 295 388 314T390 357Q390 392 372 414T322 437Q300 437 281 423T246 385T218 330T200 265T193 195Q193 152 209 131T256 109ZM162 618Q182 637 209 663T262 716T306 766H471Q481 743 496 716T527 664T557 618V606H460Q449 616 435 630T407
659T381 688Q352 664 325 645T268 606H162V618Z" />
<glyph unicode="&#xe3;" horiz-adv-x="594" d="M198 -10Q159 -10 124 9T66 72T44 188Q44 241 55 294T88 394T141 477T211 535T297 556Q332 556 357 546T401 518T432 476H436L464 546H577L461 0H351L358 71H354Q335 47 312 29T261 1T198 -10ZM256 109Q286 109 312
133T356 195T383 275Q387 295 388 314T390 357Q390 392 372 414T322 437Q300 437 281 423T246 385T218 330T200 265T193 195Q193 152 209 131T256 109ZM174 605Q184 658 203 691T250 740T311 756Q335 756 354 749T388 731T418 713T448 705Q465 705 477 717T499
757H583Q572 704 552 671T505 622T443 606Q419 606 401 613T367 631T337 649T306 657Q291 657 279 644T260 605H174Z" />
<glyph unicode="&#xe4;" horiz-adv-x="594" d="M198 -10Q159 -10 124 9T66 72T44 188Q44 241 55 294T88 394T141 477T211 535T297 556Q332 556 357 546T401 518T432 476H436L464 546H577L461 0H351L358 71H354Q335 47 312 29T261 1T198 -10ZM256 109Q286 109 312
133T356 195T383 275Q387 295 388 314T390 357Q390 392 372 414T322 437Q300 437 281 423T246 385T218 330T200 265T193 195Q193 152 209 131T256 109ZM467 621Q440 621 423 633T405 675Q405 713 424 732T479 752Q504 752 522 741T540 699Q540 664 523 643T467
621ZM280 621Q253 621 236 633T218 675Q218 713 237 732T292 752Q309 752 322 747T344 731T353 699Q353 664 336 643T280 621Z" />
<glyph unicode="&#xe5;" horiz-adv-x="594" d="M198 -10Q159 -10 124 9T66 72T44 188Q44 241 55 294T88 394T141 477T211 535T297 556Q332 556 357 546T401 518T432 476H436L464 546H577L461 0H351L358 71H354Q335 47 312 29T261 1T198 -10ZM256 109Q286 109 312
133T356 195T383 275Q387 295 388 314T390 357Q390 392 372 414T322 437Q300 437 281 423T246 385T218 330T200 265T193 195Q193 152 209 131T256 109ZM379 605Q325 605 292 636T258 721Q258 775 291 806T379 837Q431 837 467 806T503 722Q503 667 468 636T379
605ZM379 674Q399 674 412 686T426 721Q426 743 413 755T379 768Q359 768 346 756T332 721Q332 699 344 687T379 674Z" />
<glyph unicode="&#xe6;" horiz-adv-x="872" d="M195 -10Q150 -10 116 12T63 79T44 188Q44 245 56 299T90 399T142 481T211 536T294 556Q328 556 351 547T393 520T426 476H431L459 546H551L542 502Q565 528 603 542T683 556Q762 556 804 514T847 407Q847 364 828
329T770 269T672 231T533 217H508Q507 211 507 207T507 198Q507 159 530 130T612 101Q649 101 690 113T765 143V32Q727 14 682 2T589 -10Q536 -10 502 3T444 46L436 0H344L351 71H346Q327 47 305 29T257 1T195 -10ZM253 109Q274 109 293 120T327 152T355 200T374
259Q379 281 382 304T385 351Q385 390 369 413T319 437Q297 437 278 423T243 385T216 330T199 265T193 195Q193 149 211 129T253 109ZM546 316Q603 316 638 328T689 360T706 404Q706 427 693 438T655 450Q628 450 601 433T554 386T524 316H546Z" />
<glyph unicode="&#xe7;" horiz-adv-x="483" d="M247 -10Q191 -10 145 10T71 75T44 191Q44 250 56 304T92 404T151 484T232 537T333 556Q382 556 420 547T493 521L448 409Q422 420 397 428T339 437Q304 437 277 417T231 363T203 288T193 203Q193 172 203 151T231
120T277 109Q314 109 345 120T411 149V29Q377 11 338 1T247 -10ZM171 -240Q148 -240 128 -237T97 -229V-147Q108 -151 124 -154T158 -158Q175 -158 186 -154T202 -140T208 -118Q208 -101 193 -90T139 -75L186 0H276L257 -35Q286 -45 306 -65T326 -122Q326 -155
310 -182T260 -224T171 -240Z" />
<glyph unicode="&#xe8;" horiz-adv-x="557" d="M260 -10Q196 -10 148 13T72 83T44 201Q44 270 63 333T121 447T217 526T349 556Q441 556 486 514T532 407Q532 364 513 329T455 269T357 231T218 217H193Q192 211 192 207T192 197Q192 153 217 127T289 101Q332 101
367 111T450 143V32Q407 11 363 1T260 -10ZM231 316Q288 316 323 328T374 360T391 404Q391 427 378 438T340 450Q313 450 286 433T239 386T209 316H231ZM349 606Q329 626 306 652T263 706T231 756V766H383Q389 744 397 719T416 669T439 618V606H349Z" />
<glyph unicode="&#xe9;" horiz-adv-x="557" d="M260 -10Q196 -10 148 13T72 83T44 201Q44 270 63 333T121 447T217 526T349 556Q441 556 486 514T532 407Q532 364 513 329T455 269T357 231T218 217H193Q192 211 192 207T192 197Q192 153 217 127T289 101Q332 101
367 111T450 143V32Q407 11 363 1T260 -10ZM231 316Q288 316 323 328T374 360T391 404Q391 427 378 438T340 450Q313 450 286 433T239 386T209 316H231ZM275 618Q292 637 311 662T349 715T383 766H547V758Q536 745 516 725T470 682T421 640T377 606H275V618Z" />
<glyph unicode="&#xea;" horiz-adv-x="557" d="M260 -10Q196 -10 148 13T72 83T44 201Q44 270 63 333T121 447T217 526T349 556Q441 556 486 514T532 407Q532 364 513 329T455 269T357 231T218 217H193Q192 211 192 207T192 197Q192 153 217 127T289 101Q332 101
367 111T450 143V32Q407 11 363 1T260 -10ZM231 316Q288 316 323 328T374 360T391 404Q391 427 378 438T340 450Q313 450 286 433T239 386T209 316H231ZM150 618Q170 637 197 663T250 716T294 766H459Q469 743 484 716T515 664T545 618V606H448Q437 616 423 630T395
659T369 688Q340 664 313 645T256 606H150V618Z" />
<glyph unicode="&#xeb;" horiz-adv-x="557" d="M260 -10Q196 -10 148 13T72 83T44 201Q44 270 63 333T121 447T217 526T349 556Q441 556 486 514T532 407Q532 364 513 329T455 269T357 231T218 217H193Q192 211 192 207T192 197Q192 153 217 127T289 101Q332 101
367 111T450 143V32Q407 11 363 1T260 -10ZM231 316Q288 316 323 328T374 360T391 404Q391 427 378 438T340 450Q313 450 286 433T239 386T209 316H231ZM455 621Q428 621 411 633T393 675Q393 713 412 732T467 752Q492 752 510 741T528 699Q528 664 511 643T455
621ZM268 621Q241 621 224 633T206 675Q206 713 225 732T280 752Q297 752 310 747T332 731T341 699Q341 664 324 643T268 621Z" />
<glyph unicode="&#xec;" horiz-adv-x="297" d="M18 0L134 546H281L165 0H18ZM469 606Q449 626 426 652T383 706T351 756V766H503Q509 744 517 719T536 669T559 618V606H469Z" />
<glyph unicode="&#xed;" horiz-adv-x="297" d="M18 0L134 546H281L165 0H18ZM139 618Q156 637 175 662T213 715T247 766H411V758Q400 745 380 725T334 682T285 640T241 606H139V618Z" />
<glyph unicode="&#xee;" horiz-adv-x="297" d="M18 0L134 546H281L165 0H18ZM270 618Q290 637 317 663T370 716T414 766H579Q589 743 604 716T635 664T665 618V606H568Q557 616 543 630T515 659T489 688Q460 664 433 645T376 606H270V618Z" />
<glyph unicode="&#xef;" horiz-adv-x="297" d="M18 0L134 546H281L165 0H18ZM319 621Q292 621 275 633T257 675Q257 713 276 732T331 752Q356 752 374 741T392 699Q392 664 375 643T319 621ZM132 621Q105 621 88 633T70 675Q70 713 89 732T144 752Q161 752 174
747T196 731T205 699Q205 664 188 643T132 621Z" />
<glyph unicode="&#xf0;" horiz-adv-x="577" d="M251 -10Q188 -10 140 11T63 79T35 198Q35 256 52 308T101 400T179 463T284 486Q334 486 364 468T412 425H417Q413 466 401 505T360 572L247 508L204 580L302 635Q291 646 275 655T241 674L299 765Q332 750 361 732T412
697L528 761L565 687L471 635Q498 601 513 563T535 481T542 388Q542 323 532 264T499 155T442 68T361 11T251 -10ZM258 100Q279 100 297 111T330 141T355 185T371 238T377 294Q377 311 373 326T359 352T337 369T305 376Q275 376 252 359T214 314T191 252T183 184Q183
145 202 123T258 100Z" />
<glyph unicode="&#xf1;" horiz-adv-x="604" d="M18 0L134 546H246L236 445H240Q261 478 286 503T343 542T412 556Q459 556 490 537T537 482T553 399Q553 381 550 359T542 311L477 0H330L397 319Q401 336 403 350T405 377Q405 408 392 422T352 437Q319 437 292
409T246 332T213 226L165 0H18ZM181 605Q191 658 210 691T257 740T318 756Q342 756 361 749T395 731T425 713T455 705Q472 705 484 717T506 757H590Q579 704 559 671T512 622T450 606Q426 606 408 613T374 631T344 649T313 657Q298 657 286 644T267 605H181Z" />
<glyph unicode="&#xf2;" horiz-adv-x="585" d="M253 -10Q192 -10 145 15T71 88T44 200Q44 258 55 311T90 408T148 486T229 537T334 556Q398 556 444 531T515 457T541 340Q541 285 530 233T497 137T440 60T359 9T253 -10ZM265 110Q289 110 309 122T345 157T371
208T387 271T393 340Q393 368 387 389T365 423T323 436Q296 436 275 421T239 382T213 326T197 263T192 200Q192 156 210 133T265 110ZM349 606Q329 626 306 652T263 706T231 756V766H383Q389 744 397 719T416 669T439 618V606H349Z" />
<glyph unicode="&#xf3;" horiz-adv-x="585" d="M253 -10Q192 -10 145 15T71 88T44 200Q44 258 55 311T90 408T148 486T229 537T334 556Q398 556 444 531T515 457T541 340Q541 285 530 233T497 137T440 60T359 9T253 -10ZM265 110Q289 110 309 122T345 157T371
208T387 271T393 340Q393 368 387 389T365 423T323 436Q296 436 275 421T239 382T213 326T197 263T192 200Q192 156 210 133T265 110ZM275 618Q292 637 311 662T349 715T383 766H547V758Q536 745 516 725T470 682T421 640T377 606H275V618Z" />
<glyph unicode="&#xf4;" horiz-adv-x="585" d="M253 -10Q192 -10 145 15T71 88T44 200Q44 258 55 311T90 408T148 486T229 537T334 556Q398 556 444 531T515 457T541 340Q541 285 530 233T497 137T440 60T359 9T253 -10ZM265 110Q289 110 309 122T345 157T371
208T387 271T393 340Q393 368 387 389T365 423T323 436Q296 436 275 421T239 382T213 326T197 263T192 200Q192 156 210 133T265 110ZM150 618Q170 637 197 663T250 716T294 766H459Q469 743 484 716T515 664T545 618V606H448Q437 616 423 630T395 659T369 688Q340
664 313 645T256 606H150V618Z" />
<glyph unicode="&#xf5;" horiz-adv-x="585" d="M253 -10Q192 -10 145 15T71 88T44 200Q44 258 55 311T90 408T148 486T229 537T334 556Q398 556 444 531T515 457T541 340Q541 285 530 233T497 137T440 60T359 9T253 -10ZM265 110Q289 110 309 122T345 157T371
208T387 271T393 340Q393 368 387 389T365 423T323 436Q296 436 275 421T239 382T213 326T197 263T192 200Q192 156 210 133T265 110ZM162 605Q172 658 191 691T238 740T299 756Q323 756 342 749T376 731T406 713T436 705Q453 705 465 717T487 757H571Q560 704
540 671T493 622T431 606Q407 606 389 613T355 631T325 649T294 657Q279 657 267 644T248 605H162Z" />
<glyph unicode="&#xf6;" horiz-adv-x="585" d="M253 -10Q192 -10 145 15T71 88T44 200Q44 258 55 311T90 408T148 486T229 537T334 556Q398 556 444 531T515 457T541 340Q541 285 530 233T497 137T440 60T359 9T253 -10ZM265 110Q289 110 309 122T345 157T371
208T387 271T393 340Q393 368 387 389T365 423T323 436Q296 436 275 421T239 382T213 326T197 263T192 200Q192 156 210 133T265 110ZM455 621Q428 621 411 633T393 675Q393 713 412 732T467 752Q492 752 510 741T528 699Q528 664 511 643T455 621ZM268 621Q241
621 224 633T206 675Q206 713 225 732T280 752Q297 752 310 747T332 731T341 699Q341 664 324 643T268 621Z" />
<glyph unicode="&#xf7;" horiz-adv-x="572" d="M53 299V406H538V299H53ZM295 108Q267 108 247 125T227 182Q227 223 247 239T295 256Q322 256 342 240T363 182Q363 143 343 126T295 108ZM295 449Q267 449 247 466T227 523Q227 564 247 580T295 597Q322 597 342
581T363 523Q363 484 343 467T295 449Z" />
<glyph unicode="&#xf8;" horiz-adv-x="585" d="M90 -50L21 3L79 75Q62 101 53 132T44 200Q44 258 55 311T90 408T148 486T229 537T334 556Q366 556 394 550T445 529L479 572L550 518L509 467Q525 442 533 410T541 340Q541 285 530 233T497 137T440 60T359 9T253
-10Q222 -10 194 -3T143 16L90 -50ZM265 105Q292 105 313 118T349 154T374 203T389 259T397 313Q398 318 398 323T398 333L223 116Q228 112 240 109T265 105ZM366 429Q360 434 348 437T323 441Q294 441 273 428T236 393T211 344T196 288T189 232Q188 226 188 220T188
208L366 429Z" />
<glyph unicode="&#xf9;" horiz-adv-x="604" d="M193 -10Q146 -10 115 9T69 64T54 147Q54 165 57 193T66 251L128 546H275L208 227Q204 211 202 196T200 169Q200 138 213 124T253 109Q287 109 313 137T360 214T392 320L440 546H587L471 0H359L369 101H364Q343 69
318 44T262 4T193 -10ZM366 606Q346 626 323 652T280 706T248 756V766H400Q406 744 414 719T433 669T456 618V606H366Z" />
<glyph unicode="&#xfa;" horiz-adv-x="604" d="M193 -10Q146 -10 115 9T69 64T54 147Q54 165 57 193T66 251L128 546H275L208 227Q204 211 202 196T200 169Q200 138 213 124T253 109Q287 109 313 137T360 214T392 320L440 546H587L471 0H359L369 101H364Q343 69
318 44T262 4T193 -10ZM292 618Q309 637 328 662T366 715T400 766H564V758Q553 745 533 725T487 682T438 640T394 606H292V618Z" />
<glyph unicode="&#xfb;" horiz-adv-x="604" d="M193 -10Q146 -10 115 9T69 64T54 147Q54 165 57 193T66 251L128 546H275L208 227Q204 211 202 196T200 169Q200 138 213 124T253 109Q287 109 313 137T360 214T392 320L440 546H587L471 0H359L369 101H364Q343 69
318 44T262 4T193 -10ZM167 618Q187 637 214 663T267 716T311 766H476Q486 743 501 716T532 664T562 618V606H465Q454 616 440 630T412 659T386 688Q357 664 330 645T273 606H167V618Z" />
<glyph unicode="&#xfc;" horiz-adv-x="604" d="M193 -10Q146 -10 115 9T69 64T54 147Q54 165 57 193T66 251L128 546H275L208 227Q204 211 202 196T200 169Q200 138 213 124T253 109Q287 109 313 137T360 214T392 320L440 546H587L471 0H359L369 101H364Q343 69
318 44T262 4T193 -10ZM472 621Q445 621 428 633T410 675Q410 713 429 732T484 752Q509 752 527 741T545 699Q545 664 528 643T472 621ZM285 621Q258 621 241 633T223 675Q223 713 242 732T297 752Q314 752 327 747T349 731T358 699Q358 664 341 643T285 621Z"
/>
<glyph unicode="&#xfd;" horiz-adv-x="519" d="M3 -240Q-23 -240 -40 -238T-69 -231V-114Q-56 -116 -43 -118T-12 -120Q35 -120 65 -93T117 -24L130 0L50 546H194L221 293Q224 271 225 245T226 195T227 150H231Q238 167 245 187T261 231T284 283L411 546H571L239
-78Q210 -133 174 -169T95 -222T3 -240ZM231 618Q248 637 267 662T305 715T339 766H503V758Q492 745 472 725T426 682T377 640T333 606H231V618Z" />
<glyph unicode="&#xfe;" horiz-adv-x="595" d="M-33 -240L179 760H326L294 610Q287 579 276 541T255 473H259Q280 501 302 519T349 546T397 556Q465 556 508 507T551 357Q551 309 542 258T513 159T464 73T396 13T306 -10Q273 -10 248 0T205 29T174 70H170Q167
30 162 -3T149 -74L114 -240H-33ZM273 109Q296 109 316 123T352 161T379 216T396 282T402 351Q402 394 384 415T333 437Q302 437 278 414T238 354T212 273Q210 260 209 247T206 221T205 195Q205 156 221 133T273 109Z" />
<glyph unicode="&#xff;" horiz-adv-x="519" d="M3 -240Q-23 -240 -40 -238T-69 -231V-114Q-56 -116 -43 -118T-12 -120Q35 -120 65 -93T117 -24L130 0L50 546H194L221 293Q224 271 225 245T226 195T227 150H231Q238 167 245 187T261 231T284 283L411 546H571L239
-78Q210 -133 174 -169T95 -222T3 -240ZM667 621Q640 621 623 633T605 675Q605 713 624 732T679 752Q704 752 722 741T740 699Q740 664 723 643T667 621ZM480 621Q453 621 436 633T418 675Q418 713 437 732T492 752Q509 752 522 747T544 731T553 699Q553 664 536
643T480 621Z" />
<glyph unicode="&#x2013;" horiz-adv-x="480" d="M20 213L44 325H460L436 213H20Z" />
<glyph unicode="&#x2014;" horiz-adv-x="960" d="M20 213L44 325H940L916 213H20Z" />
<glyph unicode="&#x2018;" horiz-adv-x="215" d="M56 480Q72 515 92 555T137 636T184 714H294Q281 684 268 652T243 588T220 525T199 469H60L56 480Z" />
<glyph unicode="&#x2019;" horiz-adv-x="215" d="M52 469Q69 509 86 552T119 638T147 714H286L290 703Q275 669 254 629T210 547T162 469H52Z" />
<glyph unicode="&#x201a;" horiz-adv-x="278" d="M-50 -129Q-33 -89 -16 -46T17 40T45 116H184L188 105Q173 71 152 31T108 -51T60 -129H-50Z" />
<glyph unicode="&#x201c;" horiz-adv-x="433" d="M274 480Q290 515 310 555T355 636T402 714H512Q495 675 478 631T446 546T417 469H278L274 480ZM56 480Q72 515 92 555T137 636T184 714H294Q281 684 268 652T243 588T220 525T199 469H60L56 480Z" />
<glyph unicode="&#x201d;" horiz-adv-x="433" d="M270 469Q287 509 304 552T337 638T365 714H504L508 703Q493 669 472 629T428 547T380 469H270ZM52 469Q69 509 86 552T119 638T147 714H286L290 703Q275 669 254 629T210 547T162 469H52Z" />
<glyph unicode="&#x201e;" horiz-adv-x="497" d="M169 -129Q186 -89 203 -46T236 40T264 116H403L407 105Q392 71 371 31T327 -51T279 -129H169ZM-50 -129Q-33 -89 -16 -46T17 40T45 116H184L188 105Q173 71 152 31T108 -51T60 -129H-50Z" />
<glyph unicode="&#x2022;" horiz-adv-x="376" d="M208 210Q149 210 109 246T68 365Q68 421 86 455T137 504T208 520Q247 520 278 505T329 455T348 365Q348 310 329 276T279 226T208 210Z" />
<glyph unicode="&#x2039;" horiz-adv-x="324" d="M134 44L35 269V278L231 504L324 428L188 265L254 94L134 44Z" />
<glyph unicode="&#x203a;" horiz-adv-x="324" d="M93 44L0 120L136 283L70 454L190 504L289 279V270L93 44Z" />
</font>
</defs>
</svg>
