<?xml version="1.0" standalone="no"?>
<!DOCTYPE svg PUBLIC "-//W3C//DTD SVG 1.1//EN" "http://www.w3.org/Graphics/SVG/1.1/DTD/svg11.dtd">
<svg xmlns="http://www.w3.org/2000/svg">
<defs >
<font id="NotoSans" horiz-adv-x="575" ><font-face
    font-family="Noto Sans ExtraBold"
    units-per-em="1000"
    panose-1="2 11 5 2 4 5 4 2 2 4"
    ascent="1069"
    descent="-293"
    alphabetic="0" />
<glyph unicode=" " horiz-adv-x="260" />
<glyph unicode="!" horiz-adv-x="288" d="M214 244H75L50 714H239L214 244ZM50 75Q50 124 77 143T144 163Q182 163 209 144T236 75Q236 29 209 8T144 -13Q105 -13 78 8T50 75Z" />
<glyph unicode="&quot;" horiz-adv-x="496" d="M216 714L196 456H82L62 714H216ZM434 714L414 456H300L280 714H434Z" />
<glyph unicode="#" horiz-adv-x="653" d="M498 405L478 306H601V195H458L420 0H302L339 195H250L214 0H98L133 195H20V306H155L174 405H54V519H195L231 713H349L312 519H402L439 713H556L519 519H633V405H498ZM272 306H361L380 405H291L272 306Z" />
<glyph unicode="$" horiz-adv-x="574" d="M248 32Q183 34 134 44T43 73V213Q87 193 143 179T248 160V298Q178 323 131 349T59 413T35 507Q35 562 62 600T137 661T248 687V759H326V689Q385 686 434 674T528 643L483 520Q445 537 405 546T326 559V425Q388 405 437
382T514 322T543 226Q543 150 490 98T326 34V-58H248V32ZM326 163Q358 168 373 181T388 215Q388 229 382 238T362 256T326 274V163ZM248 557Q229 555 216 549T196 534T189 511Q189 498 195 488T214 469T248 452V557Z" />
<glyph unicode="%" horiz-adv-x="923" d="M199 724Q284 724 330 666T377 501Q377 395 333 336T200 276Q118 276 72 335T25 501Q25 607 68 665T199 724ZM201 614Q178 614 169 585T159 500Q159 445 168 415T201 384Q224 384 233 414T243 500Q243 556 233 585T201
614ZM723 714L327 0H197L593 714H723ZM719 439Q803 439 850 381T897 216Q897 110 853 51T719 -9Q638 -9 592 50T545 216Q545 322 588 380T719 439ZM721 330Q698 330 689 301T679 215Q679 160 688 130T721 100Q743 100 753 129T763 215Q763 271 753 300T721 330Z"
/>
<glyph unicode="&amp;" horiz-adv-x="773" d="M319 724Q382 724 428 705T501 650T528 562Q528 496 489 450T391 369L511 254Q529 284 543 319T566 391H741Q726 327 696 262T624 146L775 0H562L510 53Q481 34 451 20T384 -2T297 -10Q215 -10 157 16T69 90T38 195Q38
243 53 279T98 343T170 395Q146 421 131 446T109 499T102 556Q102 607 128 644T203 703T319 724ZM264 298Q248 286 237 272T219 243T213 209Q213 172 240 150T310 127Q341 127 365 135T408 155L264 298ZM317 604Q295 604 276 592T256 548Q256 524 269 503T301 462Q336
482 355 504T374 553Q374 580 357 592T317 604Z" />
<glyph unicode="&apos;" horiz-adv-x="278" d="M216 714L196 456H82L62 714H216Z" />
<glyph unicode="(" horiz-adv-x="348" d="M38 279Q38 361 52 440T99 591T181 723H320Q252 629 219 514T186 280Q186 203 200 125T244 -24T319 -158H181Q131 -99 99 -29T53 120T38 279Z" />
<glyph unicode=")" horiz-adv-x="348" d="M310 279Q310 199 296 121T250 -28T168 -158H30Q75 -96 104 -25T148 124T163 280Q163 359 149 437T104 588T29 723H168Q219 663 250 591T295 440T310 279Z" />
<glyph unicode="*" horiz-adv-x="541" d="M339 760L320 584L498 634L515 501L355 490L460 349L342 286L269 433L205 287L82 349L186 490L27 503L47 634L222 584L202 760H339Z" />
<glyph unicode="+" horiz-adv-x="578" d="M348 412H534V293H348V111H230V293H44V412H230V596H348V412Z" />
<glyph unicode="," horiz-adv-x="296" d="M236 119Q227 84 213 39T183 -51T150 -134H30Q40 -91 49 -44T66 48T78 130H229L236 119Z" />
<glyph unicode="-" horiz-adv-x="320" d="M26 200V336H294V200H26Z" />
<glyph unicode="." horiz-adv-x="287" d="M50 75Q50 124 77 143T144 163Q182 163 209 144T236 75Q236 29 209 8T144 -13Q105 -13 78 8T50 75Z" />
<glyph unicode="/" horiz-adv-x="426" d="M423 719L157 -5H6L272 719H423Z" />
<glyph unicode="0" horiz-adv-x="578" d="M542 357Q542 270 529 203T485 88T407 15T289 -10Q201 -10 145 34T63 160T36 357Q36 473 60 555T140 681T289 725Q376 725 432 681T515 555T542 357ZM205 357Q205 280 212 230T238 153T289 127Q322 127 340 152T365 229T373
357Q373 433 366 484T340 562T289 588Q256 588 238 562T213 485T205 357Z" />
<glyph unicode="1" horiz-adv-x="578" d="M435 0H263V385Q263 399 263 424T264 479T266 531Q258 521 244 508T218 484L136 417L51 523L288 714H435V0Z" />
<glyph unicode="2" horiz-adv-x="578" d="M543 0H35V115L212 294Q266 350 298 386T343 449T357 508Q357 546 335 563T278 581Q241 581 204 562T124 507L31 616Q62 644 97 668T180 708T294 724Q366 724 417 699T497 630T526 530Q526 470 503 421T435 324T325 216L251
148V142H543V0Z" />
<glyph unicode="3" horiz-adv-x="578" d="M517 556Q517 506 496 470T440 411T361 376V373Q447 363 492 321T538 206Q538 146 507 97T412 19T245 -10Q182 -10 132 0T36 29V172Q83 148 132 137T224 125Q300 125 329 149T359 217Q359 244 345 263T296 292T196 302H147V431H197Q258
431 291 442T338 472T351 517Q351 551 328 569T259 587Q226 587 198 578T148 558T112 538L37 653Q80 683 137 703T279 724Q389 724 453 680T517 556Z" />
<glyph unicode="4" horiz-adv-x="578" d="M562 143H480V0H313V143H17V265L323 714H480V273H562V143ZM313 376Q313 391 313 411T314 452T316 488T318 508H313Q304 487 295 471T273 434L166 273H313V376Z" />
<glyph unicode="5" horiz-adv-x="578" d="M311 462Q374 462 424 436T503 361T532 239Q532 160 500 105T405 20T245 -10Q186 -10 136 0T48 29V172Q85 154 137 140T235 126Q276 126 303 137T346 171T361 229Q361 276 329 301T229 327Q202 327 174 322T126 311L61
344L88 714H484V571H234L223 452Q240 455 258 458T311 462Z" />
<glyph unicode="6" horiz-adv-x="578" d="M35 303Q35 364 44 424T75 538T139 633T244 699T400 723Q421 723 450 721T499 715V581Q479 585 456 587T403 590Q342 590 302 576T238 534T203 470T190 387H196Q209 411 228 429T276 459T344 470Q407 470 452 443T521
365T546 241Q546 162 516 106T431 20T299 -10Q243 -10 195 9T111 66T55 164T35 303ZM296 126Q334 126 357 153T381 238Q381 285 361 311T298 338Q269 338 248 325T216 292T204 249Q204 227 210 205T227 165T255 137T296 126Z" />
<glyph unicode="7" horiz-adv-x="578" d="M107 0L364 572H32V714H545V610L284 0H107Z" />
<glyph unicode="8" horiz-adv-x="578" d="M290 723Q356 723 408 704T492 647T523 551Q523 508 507 476T462 419T397 377Q433 357 467 331T522 270T544 187Q544 129 515 85T428 15T289 -10Q205 -10 148 14T63 82T34 184Q34 234 52 269T100 329T168 373Q137 393
112 418T71 476T56 552Q56 609 87 647T172 704T290 723ZM191 193Q191 158 216 136T287 114Q338 114 362 134T387 190Q387 215 373 234T338 269T298 294L285 302Q258 289 237 273T203 238T191 193ZM289 600Q258 600 237 584T216 537Q216 517 225 501T252 472T289
449Q308 458 325 470T352 498T363 537Q363 567 342 583T289 600Z" />
<glyph unicode="9" horiz-adv-x="578" d="M543 405Q543 337 532 275T496 161T429 71T325 11T178 -10Q157 -10 129 -9T81 -4V132Q101 128 122 126T169 123Q233 123 274 137T340 179T375 244T388 326H382Q369 303 350 284T303 254T231 243Q170 243 126 270T57 348T32
473Q32 552 61 607T147 693T279 723Q335 723 382 704T466 646T523 547T543 405ZM283 587Q244 587 220 560T196 475Q196 428 217 401T281 374Q309 374 329 387T362 421T374 464Q374 485 369 507T352 548T324 576T283 587Z" />
<glyph unicode=":" horiz-adv-x="287" d="M50 75Q50 124 77 143T144 163Q182 163 209 144T236 75Q236 29 209 8T144 -13Q105 -13 78 8T50 75ZM50 470Q50 519 77 538T144 558Q182 558 209 539T236 470Q236 424 209 403T144 382Q105 382 78 403T50 470Z" />
<glyph unicode=";" horiz-adv-x="291" d="M236 119Q227 84 213 39T183 -51T150 -134H30Q37 -102 44 -68T57 2T69 69T78 130H229L236 119ZM51 470Q51 519 78 538T145 558Q183 558 210 539T238 470Q238 423 211 403T145 382Q106 382 79 402T51 470Z" />
<glyph unicode="&lt;" horiz-adv-x="578" d="M533 93L44 310V386L533 631V501L213 353L533 223V93Z" />
<glyph unicode="=" horiz-adv-x="578" d="M44 396V513H534V396H44ZM44 191V309H534V191H44Z" />
<glyph unicode="&gt;" horiz-adv-x="578" d="M44 223L364 353L44 501V631L533 386V310L44 93V223Z" />
<glyph unicode="?" horiz-adv-x="490" d="M139 283Q139 314 147 339T176 387T230 433Q262 455 279 471T303 502T310 535Q310 561 289 575T231 590Q191 590 149 577T62 540L2 659Q53 689 113 706T243 724Q350 724 409 675T469 547Q469 507 457 476T419 419T352
364Q323 344 307 330T284 303T278 271V244H139V283ZM121 75Q121 124 148 143T215 163Q252 163 279 144T307 75Q307 29 280 8T215 -13Q175 -13 148 8T121 75Z" />
<glyph unicode="@" horiz-adv-x="897" d="M852 363Q852 317 841 272T806 190T749 131T669 109Q632 109 603 125T558 170H550Q529 145 497 127T420 109Q329 109 282 163T234 305Q234 372 263 423T346 505T476 535Q524 535 573 526T652 507L642 302Q641 294 641
282T641 262Q641 229 650 218T672 206Q692 206 706 227T727 285T734 364Q734 444 703 500T615 587T478 618Q401 618 343 594T245 526T185 422T165 292Q165 207 196 146T288 53T439 21Q496 21 561 34T682 67V-35Q632 -56 572 -68T444 -80Q319 -80 230 -36T93 92T45
291Q45 382 75 459T162 595T298 685T476 718Q559 718 628 694T747 623T824 512T852 363ZM358 304Q358 252 378 229T433 206Q479 206 497 240T520 341L526 434Q515 436 505 437T481 438Q437 438 410 419T371 370T358 304Z" />
<glyph unicode="A" horiz-adv-x="707" d="M521 0L477 153H230L186 0H0L243 717H461L707 0H521ZM397 438Q392 456 384 486T367 549T353 603Q349 581 341 549T324 486T311 438L269 295H439L397 438Z" />
<glyph unicode="B" horiz-adv-x="673" d="M318 714Q467 714 537 671T607 534Q607 491 592 459T552 406T496 379V374Q528 367 557 350T604 298T623 208Q623 143 591 96T498 25T356 0H84V714H318ZM329 435Q386 435 409 455T432 511Q432 546 406 563T322 580H254V435H329ZM254
305V136H339Q399 136 422 160T446 223Q446 247 436 265T402 294T335 305H254Z" />
<glyph unicode="C" horiz-adv-x="643" d="M394 583Q355 583 325 568T273 522T241 450T230 355Q230 283 248 233T303 157T399 131Q444 131 488 142T581 172V28Q534 8 486 -1T382 -10Q269 -10 197 35T90 163T55 356Q55 437 77 504T142 621T249 697T395 724Q447 724
502 711T609 674L556 538Q516 557 476 570T394 583Z" />
<glyph unicode="D" horiz-adv-x="737" d="M682 368Q682 246 636 164T504 41T299 0H84V714H319Q432 714 513 674T638 558T682 368ZM506 362Q506 435 486 482T425 552T324 575H254V140H309Q410 140 458 195T506 362Z" />
<glyph unicode="E" horiz-adv-x="555" d="M501 0H84V714H501V576H254V439H483V301H254V140H501V0Z" />
<glyph unicode="F" horiz-adv-x="544" d="M252 0H84V714H499V576H252V414H481V276H252V0Z" />
<glyph unicode="G" horiz-adv-x="731" d="M362 409H657V32Q601 13 536 2T393 -10Q288 -10 212 31T96 154T55 358Q55 470 98 552T224 679T429 724Q490 724 547 712T649 680L594 545Q559 563 517 573T429 583Q364 583 320 554T253 473T231 355Q231 286 250 236T307
159T406 131Q431 131 454 134T494 140V272H362V409Z" />
<glyph unicode="H" horiz-adv-x="765" d="M681 0H511V300H255V0H84V714H255V441H511V714H681V0Z" />
<glyph unicode="I" horiz-adv-x="413" d="M380 0H33V97L121 134V580L33 617V714H380V617L292 580V134L380 97V0Z" />
<glyph unicode="J" horiz-adv-x="341" d="M18 -216Q-13 -216 -36 -213T-76 -206V-69Q-60 -72 -43 -75T-5 -79Q25 -79 45 -67T76 -27T86 49V714H257V57Q257 -42 227 -102T143 -189T18 -216Z" />
<glyph unicode="K" horiz-adv-x="675" d="M675 0H481L316 288L255 248V0H84V714H255V395Q268 417 283 439T314 482L488 714H675L437 396L675 0Z" />
<glyph unicode="L" horiz-adv-x="573" d="M84 0V714H254V139H537V0H84Z" />
<glyph unicode="M" horiz-adv-x="954" d="M390 0L230 539H226Q228 519 230 482T234 402T236 322V0H84V714H314L473 186H477L641 714H870V0H712V326Q712 360 713 401T716 480T719 538H715L550 0H390Z" />
<glyph unicode="N" horiz-adv-x="823" d="M739 0H519L231 523H227Q229 494 230 461T233 394T236 330V0H84V714H303L590 197H593Q592 225 591 257T588 322T586 383V714H739V0Z" />
<glyph unicode="O" horiz-adv-x="796" d="M741 358Q741 275 721 208T659 91T552 16T398 -10Q310 -10 245 16T138 91T76 208T55 359Q55 470 91 552T204 679T399 725Q518 725 593 680T705 552T741 358ZM234 358Q234 288 251 238T304 160T398 133Q457 133 493 160T545
237T562 358Q562 464 525 524T399 584Q341 584 305 557T251 479T234 358Z" />
<glyph unicode="P" horiz-adv-x="630" d="M321 714Q458 714 523 655T589 489Q589 441 575 398T529 320T444 266T314 246H254V0H84V714H321ZM315 575H254V385H299Q334 385 360 395T402 427T417 484Q417 528 392 551T315 575Z" />
<glyph unicode="Q" horiz-adv-x="796" d="M741 358Q741 281 724 216T670 103T575 26L748 -170H533L407 -10Q405 -10 403 -10T398 -10Q310 -10 245 16T138 91T76 208T55 359Q55 470 91 552T204 679T399 725Q518 725 593 680T705 552T741 358ZM234 358Q234 288 251
238T304 160T398 133Q457 133 493 160T545 237T562 358Q562 464 525 524T399 584Q341 584 305 557T251 479T234 358Z" />
<glyph unicode="R" horiz-adv-x="668" d="M304 714Q401 714 464 691T560 620T592 501Q592 455 575 419T530 356T464 311L673 0H482L321 268H254V0H84V714H304ZM297 580H254V401H297Q358 401 388 423T419 495Q419 524 406 542T366 570T297 580Z" />
<glyph unicode="S" horiz-adv-x="563" d="M526 207Q526 146 496 97T406 19T255 -10Q213 -10 177 -5T109 9T45 34V189Q99 164 155 147T264 130Q297 130 317 138T347 161T357 195Q357 218 342 234T296 266T223 302Q191 316 161 334T106 377T67 436T52 518Q52 585
83 630T172 700T306 724Q369 724 422 710T525 674L471 541Q423 562 382 573T301 585Q274 585 256 578T229 557T220 525Q220 504 234 489T278 457T357 418Q410 394 448 366T506 301T526 207Z" />
<glyph unicode="T" horiz-adv-x="585" d="M377 0H207V573H22V714H562V573H377V0Z" />
<glyph unicode="U" horiz-adv-x="756" d="M677 267Q677 185 644 123T544 25T375 -10Q231 -10 155 64T79 266V714H250V285Q250 203 282 168T379 133Q424 133 452 149T493 199T507 286V714H677V267Z" />
<glyph unicode="V" horiz-adv-x="670" d="M670 714L431 0H238L0 714H183L299 318Q304 303 311 273T325 210T335 156Q338 177 344 209T358 271T370 317L488 714H670Z" />
<glyph unicode="W" horiz-adv-x="1000" d="M993 714L814 0H616L533 345Q530 356 526 377T517 425T507 476T501 516Q499 501 495 477T485 426T476 378T468 345L384 0H187L7 714H173L258 339Q262 324 267 300T277 248T286 195T293 151Q296 175 301 206T313 269T325
329T336 374L421 714H580L665 374Q668 357 674 329T687 269T699 205T707 151Q710 176 716 211T730 282T742 338L827 714H993Z" />
<glyph unicode="X" horiz-adv-x="693" d="M691 0H495L342 248L189 0H1L238 367L15 714H204L347 474L485 714H674L450 355L691 0Z" />
<glyph unicode="Y" horiz-adv-x="642" d="M321 433L458 714H642L406 278V0H236V273L0 714H185L321 433Z" />
<glyph unicode="Z" horiz-adv-x="594" d="M569 0H27V108L354 575H35V714H561V606L234 139H569V0Z" />
<glyph unicode="[" horiz-adv-x="328" d="M304 -163H64V723H304V611H204V-50H304V-163Z" />
<glyph unicode="\" horiz-adv-x="426" d="M155 719L421 -5H271L5 719H155Z" />
<glyph unicode="]" horiz-adv-x="328" d="M24 -50H124V611H24V723H264V-163H24V-50Z" />
<glyph unicode="^" horiz-adv-x="550" d="M9 250L223 718H299L544 250H414L265 549L135 250H9Z" />
<glyph unicode="_" horiz-adv-x="452" d="M454 -170H-2V-78H454V-170Z" />
<glyph unicode="`" horiz-adv-x="388" d="M227 766Q243 744 265 717T309 664T348 619V606H236Q216 619 190 638T135 680T81 722T40 756V766H227Z" />
<glyph unicode="a" horiz-adv-x="613" d="M318 560Q425 560 484 511T543 364V0H426L393 74H389Q366 45 342 26T286 -1T208 -10Q160 -10 122 9T61 67T39 166Q39 254 100 296T281 343L375 346V362Q375 402 355 420T298 438Q262 438 223 427T144 398L93 510Q138 534
195 547T318 560ZM324 248Q261 246 236 226T211 170Q211 139 229 125T275 111Q317 111 346 136T375 206V250L324 248Z" />
<glyph unicode="b" horiz-adv-x="638" d="M241 585Q241 555 239 527T234 478H241Q262 512 298 535T392 559Q481 559 537 487T594 276Q594 182 568 118T495 22T387 -10Q328 -10 295 11T241 57H230L203 0H72V760H241V585ZM334 426Q301 426 281 412T251 368T241 294V273Q241
201 261 164T336 126Q376 126 399 165T422 278Q422 351 399 388T334 426Z" />
<glyph unicode="c" horiz-adv-x="526" d="M308 -10Q226 -10 167 19T76 111T44 272Q44 372 79 435T178 529T322 559Q376 559 419 548T497 520L448 393Q413 407 383 416T322 425Q288 425 264 409T228 358T215 273Q215 222 228 190T265 141T323 125Q367 125 405 138T479
173V35Q445 13 405 2T308 -10Z" />
<glyph unicode="d" horiz-adv-x="638" d="M245 -10Q157 -10 101 62T44 274Q44 415 101 487T250 559Q288 559 317 549T366 520T402 479H406Q403 497 400 530T396 597V760H565V0H437L403 71H396Q383 49 362 31T313 1T245 -10ZM309 124Q364 124 386 157T409 257V272Q409
345 388 384T307 423Q265 423 240 385T214 271Q214 196 239 160T309 124Z" />
<glyph unicode="e" horiz-adv-x="603" d="M309 559Q387 559 443 531T530 447T561 309V231H214Q216 177 249 145T343 113Q396 113 439 123T528 155V30Q488 9 442 0T329 -10Q246 -10 182 20T81 112T44 271Q44 369 77 432T170 527T309 559ZM312 442Q273 442 248 418T217
340H406Q406 369 396 392T364 428T312 442Z" />
<glyph unicode="f" horiz-adv-x="399" d="M391 423H267V0H99V423H21V505L101 548V574Q101 645 122 686T186 746T291 765Q335 765 370 758T435 741L395 625Q380 629 361 633T319 637Q292 637 280 621T267 574V549H391V423Z" />
<glyph unicode="g" horiz-adv-x="638" d="M249 559Q303 559 341 538T404 480H408L421 549H565V-1Q565 -79 534 -132T440 -212T282 -240Q220 -240 170 -233T72 -208V-71Q122 -92 172 -102T282 -113Q340 -113 368 -87T397 -8V3Q397 18 398 36T402 71H397Q373 32
336 11T246 -10Q153 -10 99 64T44 274Q44 411 100 485T249 559ZM308 426Q277 426 256 409T225 357T215 271Q215 194 238 158T310 121Q337 121 355 128T385 152T403 194T409 254V275Q409 326 399 359T367 409T308 426Z" />
<glyph unicode="h" horiz-adv-x="663" d="M241 627Q241 577 238 538T233 480H242Q260 509 283 526T335 551T397 559Q454 559 498 538T567 473T593 358V0H424V311Q424 369 406 397T346 426Q306 426 283 406T251 346T241 250V0H72V760H241V627Z" />
<glyph unicode="i" horiz-adv-x="314" d="M241 549V0H73V549H241ZM158 767Q194 767 221 751T248 689Q248 644 221 628T158 611Q120 611 94 627T67 689Q67 735 93 751T158 767Z" />
<glyph unicode="j" horiz-adv-x="314" d="M42 -240Q18 -240 -10 -237T-58 -228V-96Q-41 -100 -26 -102T7 -105Q34 -105 53 -89T72 -22V549H241V-53Q241 -103 222 -145T159 -214T42 -240ZM67 689Q67 735 93 751T157 767Q194 767 221 751T248 689Q248 644 221 628T157
611Q119 611 93 627T67 689Z" />
<glyph unicode="k" horiz-adv-x="638" d="M241 439Q241 407 239 372T232 303H235Q244 317 254 331T275 361T297 388L437 549H625L420 313L638 0H445L304 210L241 161V0H72V760H241V439Z" />
<glyph unicode="l" horiz-adv-x="313" d="M241 0H72V760H241V0Z" />
<glyph unicode="m" horiz-adv-x="990" d="M729 559Q823 559 871 512T920 358V0H752V311Q752 371 734 398T677 426Q624 426 602 385T580 266V0H412V311Q412 350 404 375T380 413T338 426Q301 426 280 406T250 346T241 250V0H72V549H200L224 480H231Q247 506 271
523T326 550T393 559Q453 559 494 539T558 481H568Q594 520 637 539T729 559Z" />
<glyph unicode="n" horiz-adv-x="663" d="M399 559Q486 559 539 512T593 358V0H425V311Q425 368 406 397T346 426Q285 426 263 381T241 250V0H72V549H200L223 478H231Q249 505 274 523T331 550T399 559Z" />
<glyph unicode="o" horiz-adv-x="627" d="M583 276Q583 207 565 154T511 64T426 9T312 -10Q254 -10 205 8T120 63T64 153T44 276Q44 367 76 430T170 526T315 559Q394 559 454 526T548 430T583 276ZM215 276Q215 225 225 190T257 138T314 120Q350 120 371 137T402
190T412 276Q412 327 402 361T371 412T313 429Q262 429 239 391T215 276Z" />
<glyph unicode="p" horiz-adv-x="638" d="M392 559Q484 559 539 487T594 276Q594 182 567 118T494 22T387 -10Q348 -10 321 0T274 25T241 57H234Q237 38 239 17T241 -28V-240H72V549H209L233 479H241Q255 501 275 519T325 548T392 559ZM333 426Q299 426 280 411T251
367T241 292V277Q241 228 249 195T278 144T335 126Q364 126 383 142T412 193T422 278Q422 355 400 390T333 426Z" />
<glyph unicode="q" horiz-adv-x="638" d="M397 -11Q397 9 398 30T403 71H397Q377 37 341 14T246 -10Q156 -10 100 62T44 274Q44 367 70 430T142 526T249 559Q308 559 344 537T404 480H408L421 549H565V-240H397V-11ZM310 121Q347 121 368 136T399 180T409 254V275Q409
348 388 387T308 426Q261 426 238 387T215 271Q215 194 238 158T310 121Z" />
<glyph unicode="r" horiz-adv-x="461" d="M391 559Q404 559 420 558T445 554L431 396Q422 398 408 399T377 401Q353 401 329 396T285 377T253 339T241 275V0H72V549H199L225 459H232Q248 487 272 509T326 545T391 559Z" />
<glyph unicode="s" horiz-adv-x="506" d="M467 166Q467 112 443 73T366 12T234 -10Q176 -10 133 -3T45 22V158Q93 137 145 125T233 113Q271 113 288 123T305 151Q305 164 297 174T263 197T187 230Q138 251 107 273T60 326T44 402Q44 480 104 519T265 559Q318 559
365 548T462 514L414 400Q374 418 335 429T265 440Q237 440 222 433T207 410Q207 399 215 390T248 369T320 338Q367 319 400 298T450 246T467 166Z" />
<glyph unicode="t" horiz-adv-x="446" d="M321 124Q347 124 369 129T414 142V18Q387 6 352 -2T269 -10Q218 -10 179 6T117 63T94 176V423H24V493L108 547L154 663H262V549H408V423H262V182Q262 153 278 139T321 124Z" />
<glyph unicode="u" horiz-adv-x="663" d="M591 549V0H463L441 70H431Q414 42 388 25T330 -1T264 -10Q208 -10 164 11T95 76T70 191V549H239V238Q239 182 257 153T317 124Q358 124 381 144T413 203T422 299V549H591Z" />
<glyph unicode="v" horiz-adv-x="588" d="M209 0L0 549H176L276 231Q279 220 282 205T288 174T291 145H295Q295 159 297 174T303 203T311 230L413 549H588L379 0H209Z" />
<glyph unicode="w" horiz-adv-x="881" d="M485 215Q481 232 475 261T462 322T450 380T441 420H437Q435 407 430 381T417 322T404 260T393 210L343 0H164L11 549H177L232 321Q238 297 243 263T253 196T260 141H263Q264 157 267 182T275 232T284 278T289 305L349
549H535L591 304Q595 288 600 258T611 195T617 141H620Q622 162 626 195T637 263T649 321L706 549H870L715 0H534L485 215Z" />
<glyph unicode="x" horiz-adv-x="602" d="M187 280L14 549H205L301 384L398 549H589L414 280L597 0H406L301 178L196 0H5L187 280Z" />
<glyph unicode="y" horiz-adv-x="588" d="M0 549H180L279 238Q283 226 285 214T290 188T293 159H296Q299 182 303 201T313 237L412 549H588L362 -54Q340 -115 307 -156T227 -219T118 -240Q93 -240 74 -238T41 -232V-99Q52 -101 67 -103T100 -105Q132 -105 153
-92T188 -58T211 -11L217 6L0 549Z" />
<glyph unicode="z" horiz-adv-x="497" d="M469 0H26V98L268 420H40V549H459V443L226 129H469V0Z" />
<glyph unicode="{" horiz-adv-x="412" d="M376 -163Q283 -163 233 -147T164 -98T145 -12V127Q145 158 129 177T86 204T22 212V343Q58 343 85 351T129 378T145 428V569Q145 621 163 654T232 703T376 719V597Q352 597 332 592T300 575T287 535V396Q287 343 258 316T172
281V275Q228 267 257 240T287 161V21Q287 -6 299 -18T332 -35T376 -41V-163Z" />
<glyph unicode="|" horiz-adv-x="532" d="M207 758H325V-223H207V758Z" />
<glyph unicode="}" horiz-adv-x="412" d="M36 -41Q60 -40 80 -36T112 -19T125 21V161Q125 213 154 240T240 275V281Q185 289 155 316T125 396V535Q125 562 113 574T80 592T36 597V719Q131 719 180 703T248 654T267 569V428Q267 398 283 379T326 351T390 343V212Q355
212 327 204T283 177T267 127V-12Q267 -64 249 -97T180 -147T36 -163V-41Z" />
<glyph unicode="~" horiz-adv-x="578" d="M271 295Q234 311 208 316T158 322Q130 322 100 305T44 263V388Q69 414 100 427T171 441Q200 441 229 436T307 410Q344 394 371 389T420 383Q449 383 479 400T534 442V317Q509 292 477 278T407 264Q378 264 349 270T271 295Z" />
<glyph unicode="&#xa0;" horiz-adv-x="260" />
<glyph unicode="&#xa1;" horiz-adv-x="288" d="M74 297H213L238 -172H49L74 297ZM238 466Q238 418 211 398T144 378Q107 378 79 397T51 466Q51 513 79 533T144 554Q183 554 210 534T238 466Z" />
<glyph unicode="&#xa2;" horiz-adv-x="578" d="M369 648Q415 646 452 636T520 610L471 483Q436 497 406 506T345 515Q311 515 287 498T251 448T238 363Q238 311 251 279T288 231T346 215Q390 215 427 226T503 258V121Q473 104 441 94T369 80V-10H275V84Q211 93
164 126T92 217T67 362Q67 451 93 509T166 600T275 643V724H369V648Z" />
<glyph unicode="&#xa3;" horiz-adv-x="578" d="M347 724Q401 724 450 713T541 684L492 559Q456 573 424 580T363 588Q335 588 315 572T295 512V437H471V318H295V258Q295 225 284 202T255 165T219 142H560V0H45V136Q73 150 91 164T119 199T129 257V318H45V437H129V515Q129
590 157 636T235 703T347 724Z" />
<glyph unicode="&#xa4;" horiz-adv-x="569" d="M90 353Q90 378 96 401T113 444L51 505L131 584L192 523Q212 534 236 540T282 547Q307 547 329 541T374 522L434 584L515 507L453 445Q464 426 470 402T476 353Q476 327 471 305T453 261L513 201L434 123L374 183Q354
173 331 167T282 160Q257 160 234 165T190 182L131 124L52 202L113 262Q102 283 96 305T90 353ZM202 353Q202 331 213 313T242 284T282 273Q305 273 323 284T353 313T365 353Q365 376 354 394T324 423T282 434Q260 434 242 423T213 394T202 353Z" />
<glyph unicode="&#xa5;" horiz-adv-x="578" d="M289 442L402 714H574L392 357H487V262H367V200H487V106H367V0H210V106H89V200H210V262H89V357H182L3 714H176L289 442Z" />
<glyph unicode="&#xa6;" horiz-adv-x="532" d="M207 758H325V355H207V758ZM207 181H325V-223H207V181Z" />
<glyph unicode="&#xa7;" horiz-adv-x="492" d="M56 391Q56 432 78 461T128 509Q95 531 78 559T61 625Q61 688 114 727T259 767Q309 767 354 756T438 726L394 626Q361 642 327 654T257 667Q224 667 208 657T191 627Q191 613 200 601T231 576T287 549Q338 529 373
505T426 452T444 386Q444 337 425 308T378 260Q407 241 423 213T439 148Q439 78 383 34T225 -11Q174 -11 132 -1T54 29V139Q82 125 112 114T172 95T226 88Q273 88 290 103T308 141Q308 156 302 167T275 191T216 220Q166 242 131 264T76 316T56 391ZM180 404Q180
386 190 371T223 341T280 311L289 306Q300 315 309 330T319 368Q319 387 310 402T279 433T217 463Q203 457 192 442T180 404Z" />
<glyph unicode="&#xa8;" horiz-adv-x="605" d="M124 688Q124 725 145 742T198 759Q229 759 251 742T274 688Q274 652 252 635T198 618Q167 618 146 635T124 688ZM338 688Q338 725 359 742T413 759Q444 759 466 742T489 688Q489 652 467 635T414 618Q382 618 360
635T338 688Z" />
<glyph unicode="&#xa9;" horiz-adv-x="828" d="M423 128Q318 128 266 191T213 358Q213 425 237 476T307 557T423 586Q460 586 495 577T561 552L525 470Q500 483 476 489T427 496Q377 496 350 460T322 357Q322 287 347 252T428 217Q455 217 485 224T543 245V155Q516
142 488 135T423 128ZM414 -10Q334 -10 267 17T151 93T74 210T47 357Q47 435 74 501T151 618T268 696T414 724Q492 724 558 697T675 621T753 504T781 357Q781 277 754 210T678 94T561 17T414 -10ZM414 61Q476 61 528 83T619 144T680 238T702 357Q702 420 681 474T621
568T529 630T414 653Q351 653 298 632T206 571T146 477T124 357Q124 292 145 238T205 145T297 83T414 61Z" />
<glyph unicode="&#xaa;" horiz-adv-x="389" d="M206 722Q274 722 311 687T348 585V368H276L258 426Q237 395 208 379T140 362Q106 362 80 374T38 411T23 474Q23 515 43 538T101 573T193 587L239 589V595Q239 616 225 627T182 638Q158 638 133 631T78 610L43 682Q78
699 115 710T206 722ZM194 524Q156 521 145 507T134 477Q134 460 144 452T170 443Q203 443 221 463T239 512V527L194 524Z" />
<glyph unicode="&#xab;" horiz-adv-x="645" d="M38 283L223 512L344 447L210 277L344 107L223 43L38 270V283ZM301 283L486 512L607 447L472 277L607 107L486 43L301 270V283Z" />
<glyph unicode="&#xac;" horiz-adv-x="578" d="M534 412V119H415V293H44V412H534Z" />
<glyph unicode="&#xad;" horiz-adv-x="320" d="M26 200V336H294V200H26Z" />
<glyph unicode="&#xae;" horiz-adv-x="828" d="M264 145V580H399Q491 580 532 546T573 447Q573 398 551 371T499 331L605 145H494L410 307H368V145H264ZM398 383Q432 383 450 398T468 444Q468 474 451 486T398 499H368V383H398ZM414 -10Q334 -10 267 17T151 93T74
210T47 357Q47 435 74 501T151 618T268 696T414 724Q492 724 558 697T675 621T753 504T781 357Q781 277 754 210T678 94T561 17T414 -10ZM414 61Q476 61 528 83T619 144T680 238T702 357Q702 420 681 474T621 568T529 630T414 653Q351 653 298 632T206 571T146
477T124 357Q124 292 145 238T205 145T297 83T414 61Z" />
<glyph unicode="&#xaf;" horiz-adv-x="500" d="M503 760H-3V868H503V760Z" />
<glyph unicode="&#xb0;" horiz-adv-x="425" d="M213 377Q161 377 121 399T58 460T35 550Q35 600 58 639T121 701T213 724Q265 724 304 702T366 640T389 550Q389 499 367 460T305 399T213 377ZM213 481Q243 481 263 500T283 550Q283 583 263 602T213 621Q183 621
163 602T142 550Q142 519 162 500T213 481Z" />
<glyph unicode="&#xb1;" horiz-adv-x="578" d="M44 0V118H534V0H44ZM348 448H534V329H348V147H230V329H44V448H230V632H348V448Z" />
<glyph unicode="&#xb2;" horiz-adv-x="388" d="M354 416H32V507L139 612Q168 641 184 660T207 694T214 722Q214 739 204 747T177 756Q159 756 138 747T90 713L26 790Q59 819 99 836T198 854Q266 854 304 823T343 735Q343 701 329 673T288 617T225 557L183 520H354V416Z" />
<glyph unicode="&#xb3;" horiz-adv-x="388" d="M190 853Q257 853 297 823T338 744Q338 708 320 683T257 642V637Q306 626 329 599T352 534Q352 474 307 441T173 408Q133 408 98 416T31 442V545Q63 524 97 514T169 503Q201 503 217 513T233 546Q233 563 219 576T159
590H106V676H148Q195 676 209 690T223 722Q223 738 212 749T176 760Q152 760 131 752T83 723L30 799Q60 822 99 837T190 853Z" />
<glyph unicode="&#xb4;" horiz-adv-x="388" d="M348 756Q332 742 307 722T254 680T198 639T152 606H40V619Q56 638 79 663T124 716T161 766H348V756Z" />
<glyph unicode="&#xb5;" horiz-adv-x="666" d="M593 549V0H466L443 73H435Q423 46 406 28T369 0T322 -10Q293 -10 273 1T238 33H235Q237 21 238 0T240 -43T241 -84V-240H72V549H241V239Q241 182 260 153T321 124Q361 124 383 144T415 203T424 299V549H593Z" />
<glyph unicode="&#xb6;" horiz-adv-x="649" d="M574 -127H489V656H410V-127H324V273Q309 269 294 267T258 264Q196 264 150 287T79 364T53 509Q53 605 80 659T158 737T273 760H574V-127Z" />
<glyph unicode="&#xb7;" horiz-adv-x="287" d="M50 352Q50 401 77 420T144 440Q182 440 209 421T236 352Q236 306 209 285T144 264Q105 264 78 285T50 352Z" />
<glyph unicode="&#xb8;" horiz-adv-x="243" d="M232 -122Q232 -177 198 -208T89 -240Q61 -240 39 -236T0 -227V-139Q16 -144 34 -147T68 -150Q84 -150 94 -143T105 -121Q105 -103 88 -91T29 -72L63 0H158L147 -30Q167 -35 186 -46T219 -76T232 -122Z" />
<glyph unicode="&#xb9;" horiz-adv-x="388" d="M292 844V416H166V614Q166 626 167 647T169 689T171 717Q166 709 156 698T137 680L98 649L37 720L193 844H292Z" />
<glyph unicode="&#xba;" horiz-adv-x="390" d="M364 542Q364 456 318 409T194 362Q121 362 74 409T26 542Q26 629 71 675T196 722Q244 722 282 701T342 640T364 542ZM136 542Q136 497 150 474T195 451Q225 451 239 474T253 542Q253 588 239 611T195 634Q165 634
151 611T136 542Z" />
<glyph unicode="&#xbb;" horiz-adv-x="645" d="M607 270L423 43L301 107L436 277L301 447L423 512L607 283V270ZM345 270L160 43L39 107L173 277L39 447L160 512L345 283V270Z" />
<glyph unicode="&#xbc;" horiz-adv-x="856" d="M164 0L547 714H678L295 0H164ZM138 484Q138 495 138 515T140 555T143 587Q138 581 129 571T110 551L70 519L9 590L165 714H264V286H138V484ZM662 0V71H478V154L658 431H786V161H847V71H786V0H662ZM574 161H662V241Q662
260 663 280T665 320Q658 301 648 281T631 249L574 161Z" />
<glyph unicode="&#xbd;" horiz-adv-x="898" d="M170 0L553 714H684L301 0H170ZM138 484Q138 491 138 506T140 538T141 569T143 587Q138 581 128 570T108 550L70 519L9 590L165 714H264V286H138V484ZM541 0V91L649 196Q678 225 694 244T717 277T724 306Q724 323
714 331T686 340Q667 340 646 330T600 297L536 374Q571 406 612 422T708 438Q775 438 813 407T852 319Q852 291 843 267T813 219T765 168L693 104H863V0H541Z" />
<glyph unicode="&#xbe;" horiz-adv-x="881" d="M208 0L591 714H722L338 0H208ZM185 278Q145 278 111 286T44 312V415Q75 395 109 384T182 373Q215 373 230 384T246 416Q246 436 230 448T172 460H119V546H161Q205 546 220 559T235 592Q235 608 224 619T188 630Q165
630 144 622T96 593L43 669Q76 694 115 708T203 723Q269 723 310 694T351 614Q351 578 332 553T270 512V507Q319 496 342 469T365 404Q365 345 320 312T185 278ZM686 0V71H502V154L682 431H811V161H872V71H811V0H686ZM598 161H686V241Q686 260 687 280T689 320Q682
301 672 281T655 249L598 161Z" />
<glyph unicode="&#xbf;" horiz-adv-x="490" d="M352 258Q352 226 344 201T316 154T261 108Q230 87 213 71T189 39T182 6Q182 -20 203 -34T261 -49Q300 -49 342 -36T430 0L490 -119Q438 -147 379 -165T248 -183Q141 -183 82 -134T23 -6Q23 34 35 65T73 123T139
177Q169 197 185 211T207 238T214 270V297H352V258ZM371 466Q371 417 344 398T277 378Q240 378 212 397T184 466Q184 512 212 532T277 553Q316 553 343 533T371 466Z" />
<glyph unicode="&#xc0;" horiz-adv-x="707" d="M521 0L477 153H230L186 0H0L243 717H461L707 0H521ZM397 438Q392 456 384 486T367 549T353 603Q349 581 341 549T324 486T311 438L269 295H439L397 438ZM365 931Q381 909 403 882T447 829T486 784V771H374Q354 784
328 803T273 845T219 887T178 921V931H365Z" />
<glyph unicode="&#xc1;" horiz-adv-x="707" d="M521 0L477 153H230L186 0H0L243 717H461L707 0H521ZM397 438Q392 456 384 486T367 549T353 603Q349 581 341 549T324 486T311 438L269 295H439L397 438ZM577 921Q561 907 536 887T483 845T427 804T381 771H269V784Q285
803 308 828T353 881T390 931H577V921Z" />
<glyph unicode="&#xc2;" horiz-adv-x="707" d="M521 0L477 153H230L186 0H0L243 717H461L707 0H521ZM397 438Q392 456 384 486T367 549T353 603Q349 581 341 549T324 486T311 438L269 295H439L397 438ZM445 931Q460 909 482 882T528 828T570 784V771H459Q433 787
406 806T353 851Q327 826 301 807T248 771H137V784Q156 803 179 828T225 881T262 931H445Z" />
<glyph unicode="&#xc3;" horiz-adv-x="707" d="M521 0L477 153H230L186 0H0L243 717H461L707 0H521ZM397 438Q392 456 384 486T367 549T353 603Q349 581 341 549T324 486T311 438L269 295H439L397 438ZM150 770Q153 812 163 842T191 891T230 919T278 928Q298 928
318 921T358 903T397 886T435 879Q447 879 459 890T477 929H558Q552 846 516 809T431 771Q410 771 390 778T349 795T310 812T272 820Q260 820 248 809T230 770H150Z" />
<glyph unicode="&#xc4;" horiz-adv-x="707" d="M521 0L477 153H230L186 0H0L243 717H461L707 0H521ZM397 438Q392 456 384 486T367 549T353 603Q349 581 341 549T324 486T311 438L269 295H439L397 438ZM171 853Q171 890 192 907T245 924Q276 924 298 907T321 853Q321
817 299 800T245 783Q214 783 193 800T171 853ZM385 853Q385 890 406 907T460 924Q491 924 513 907T536 853Q536 817 514 800T461 783Q429 783 407 800T385 853Z" />
<glyph unicode="&#xc5;" horiz-adv-x="707" d="M521 0L477 153H230L186 0H0L243 717H461L707 0H521ZM397 438Q392 456 384 486T367 549T353 603Q349 581 341 549T324 486T311 438L269 295H439L397 438ZM352 643Q296 643 262 674T227 762Q227 818 261 849T352 881Q405
881 442 850T480 763Q480 706 443 675T352 643ZM352 718Q370 718 383 730T396 762Q396 782 383 794T352 806Q333 806 320 794T307 762Q307 742 318 730T352 718Z" />
<glyph unicode="&#xc6;" horiz-adv-x="949" d="M895 0H470V153H242L180 0H-2L312 714H895V576H641V439H878V301H641V140H895V0ZM299 296H470V569H411L299 296Z" />
<glyph unicode="&#xc7;" horiz-adv-x="643" d="M394 583Q355 583 325 568T273 522T241 450T230 355Q230 283 248 233T303 157T399 131Q444 131 488 142T581 172V28Q534 8 486 -1T382 -10Q269 -10 197 35T90 163T55 356Q55 437 77 504T142 621T249 697T395 724Q447
724 502 711T609 674L556 538Q516 557 476 570T394 583ZM490 -122Q490 -177 456 -208T347 -240Q319 -240 297 -236T258 -227V-139Q274 -144 292 -147T326 -150Q342 -150 352 -143T363 -121Q363 -103 346 -91T287 -72L321 0H416L405 -30Q425 -35 444 -46T477 -76T490
-122Z" />
<glyph unicode="&#xc8;" horiz-adv-x="555" d="M501 0H84V714H501V576H254V439H483V301H254V140H501V0ZM307 931Q323 909 345 882T389 829T428 784V771H316Q296 784 270 803T215 845T161 887T120 921V931H307Z" />
<glyph unicode="&#xc9;" horiz-adv-x="555" d="M501 0H84V714H501V576H254V439H483V301H254V140H501V0ZM520 921Q504 907 479 887T426 845T370 804T324 771H212V784Q228 803 251 828T296 881T333 931H520V921Z" />
<glyph unicode="&#xca;" horiz-adv-x="555" d="M501 0H84V714H501V576H254V439H483V301H254V140H501V0ZM387 931Q402 909 424 882T470 828T512 784V771H401Q375 787 348 806T295 851Q269 826 243 807T190 771H79V784Q98 803 121 828T167 881T204 931H387Z" />
<glyph unicode="&#xcb;" horiz-adv-x="555" d="M501 0H84V714H501V576H254V439H483V301H254V140H501V0ZM113 853Q113 890 134 907T187 924Q218 924 240 907T263 853Q263 817 241 800T187 783Q156 783 135 800T113 853ZM327 853Q327 890 348 907T402 924Q433 924
455 907T478 853Q478 817 456 800T403 783Q371 783 349 800T327 853Z" />
<glyph unicode="&#xcc;" horiz-adv-x="413" d="M380 0H33V97L121 134V580L33 617V714H380V617L292 580V134L380 97V0ZM218 931Q234 909 256 882T300 829T339 784V771H227Q207 784 181 803T126 845T72 887T31 921V931H218Z" />
<glyph unicode="&#xcd;" horiz-adv-x="413" d="M380 0H33V97L121 134V580L33 617V714H380V617L292 580V134L380 97V0ZM431 921Q415 907 390 887T337 845T281 804T235 771H123V784Q139 803 162 828T207 881T244 931H431V921Z" />
<glyph unicode="&#xce;" horiz-adv-x="413" d="M380 0H33V97L121 134V580L33 617V714H380V617L292 580V134L380 97V0ZM298 931Q313 909 335 882T381 828T423 784V771H312Q286 787 259 806T206 851Q180 826 154 807T101 771H-10V784Q9 803 32 828T78 881T115 931H298Z" />
<glyph unicode="&#xcf;" horiz-adv-x="413" d="M380 0H33V97L121 134V580L33 617V714H380V617L292 580V134L380 97V0ZM24 853Q24 890 45 907T98 924Q129 924 151 907T174 853Q174 817 152 800T98 783Q67 783 46 800T24 853ZM238 853Q238 890 259 907T313 924Q344
924 366 907T389 853Q389 817 367 800T314 783Q282 783 260 800T238 853Z" />
<glyph unicode="&#xd0;" horiz-adv-x="737" d="M318 714Q432 714 513 674T638 558T682 368Q682 246 636 164T504 41T299 0H84V284H19V422H84V714H318ZM323 575H254V422H364V284H254V140H309Q409 140 457 195T506 362Q506 435 485 482T423 552T323 575Z" />
<glyph unicode="&#xd1;" horiz-adv-x="823" d="M739 0H519L231 523H227Q229 494 230 461T233 394T236 330V0H84V714H303L590 197H593Q592 225 591 257T588 322T586 383V714H739V0ZM208 770Q211 812 221 842T249 891T288 919T336 928Q356 928 376 921T416 903T455
886T493 879Q505 879 517 890T535 929H616Q610 846 574 809T489 771Q468 771 448 778T407 795T368 812T330 820Q318 820 306 809T288 770H208Z" />
<glyph unicode="&#xd2;" horiz-adv-x="796" d="M741 358Q741 275 721 208T659 91T552 16T398 -10Q310 -10 245 16T138 91T76 208T55 359Q55 470 91 552T204 679T399 725Q518 725 593 680T705 552T741 358ZM234 358Q234 288 251 238T304 160T398 133Q457 133 493
160T545 237T562 358Q562 464 525 524T399 584Q341 584 305 557T251 479T234 358ZM410 931Q426 909 448 882T492 829T531 784V771H419Q399 784 373 803T318 845T264 887T223 921V931H410Z" />
<glyph unicode="&#xd3;" horiz-adv-x="796" d="M741 358Q741 275 721 208T659 91T552 16T398 -10Q310 -10 245 16T138 91T76 208T55 359Q55 470 91 552T204 679T399 725Q518 725 593 680T705 552T741 358ZM234 358Q234 288 251 238T304 160T398 133Q457 133 493
160T545 237T562 358Q562 464 525 524T399 584Q341 584 305 557T251 479T234 358ZM623 921Q607 907 582 887T529 845T473 804T427 771H315V784Q331 803 354 828T399 881T436 931H623V921Z" />
<glyph unicode="&#xd4;" horiz-adv-x="796" d="M741 358Q741 275 721 208T659 91T552 16T398 -10Q310 -10 245 16T138 91T76 208T55 359Q55 470 91 552T204 679T399 725Q518 725 593 680T705 552T741 358ZM234 358Q234 288 251 238T304 160T398 133Q457 133 493
160T545 237T562 358Q562 464 525 524T399 584Q341 584 305 557T251 479T234 358ZM490 931Q505 909 527 882T573 828T615 784V771H504Q478 787 451 806T398 851Q372 826 346 807T293 771H182V784Q201 803 224 828T270 881T307 931H490Z" />
<glyph unicode="&#xd5;" horiz-adv-x="796" d="M741 358Q741 275 721 208T659 91T552 16T398 -10Q310 -10 245 16T138 91T76 208T55 359Q55 470 91 552T204 679T399 725Q518 725 593 680T705 552T741 358ZM234 358Q234 288 251 238T304 160T398 133Q457 133 493
160T545 237T562 358Q562 464 525 524T399 584Q341 584 305 557T251 479T234 358ZM195 770Q198 812 208 842T236 891T275 919T323 928Q343 928 363 921T403 903T442 886T480 879Q492 879 504 890T522 929H603Q597 846 561 809T476 771Q455 771 435 778T394 795T355
812T317 820Q305 820 293 809T275 770H195Z" />
<glyph unicode="&#xd6;" horiz-adv-x="796" d="M741 358Q741 275 721 208T659 91T552 16T398 -10Q310 -10 245 16T138 91T76 208T55 359Q55 470 91 552T204 679T399 725Q518 725 593 680T705 552T741 358ZM234 358Q234 288 251 238T304 160T398 133Q457 133 493
160T545 237T562 358Q562 464 525 524T399 584Q341 584 305 557T251 479T234 358ZM216 853Q216 890 237 907T290 924Q321 924 343 907T366 853Q366 817 344 800T290 783Q259 783 238 800T216 853ZM430 853Q430 890 451 907T505 924Q536 924 558 907T581 853Q581
817 559 800T506 783Q474 783 452 800T430 853Z" />
<glyph unicode="&#xd7;" horiz-adv-x="578" d="M429 575L512 495L370 353L510 212L429 131L287 271L147 132L67 213L204 353L66 493L147 575L287 437L429 575Z" />
<glyph unicode="&#xd8;" horiz-adv-x="796" d="M741 358Q741 275 721 208T659 91T552 16T398 -10Q352 -10 313 -3T240 17L198 -48L112 9L155 72Q104 121 80 194T55 359Q55 470 91 552T204 679T399 725Q448 725 489 718T564 694L603 754L688 701L646 638Q695 590
718 519T741 358ZM562 358Q562 434 544 484L324 146Q340 140 358 137T398 133Q457 133 493 160T545 237T562 358ZM234 358Q234 318 239 284T255 223L479 566Q462 575 442 579T399 584Q341 584 305 557T251 479T234 358Z" />
<glyph unicode="&#xd9;" horiz-adv-x="756" d="M677 267Q677 185 644 123T544 25T375 -10Q231 -10 155 64T79 266V714H250V285Q250 203 282 168T379 133Q424 133 452 149T493 199T507 286V714H677V267ZM390 931Q406 909 428 882T472 829T511 784V771H399Q379 784
353 803T298 845T244 887T203 921V931H390Z" />
<glyph unicode="&#xda;" horiz-adv-x="756" d="M677 267Q677 185 644 123T544 25T375 -10Q231 -10 155 64T79 266V714H250V285Q250 203 282 168T379 133Q424 133 452 149T493 199T507 286V714H677V267ZM603 921Q587 907 562 887T509 845T453 804T407 771H295V784Q311
803 334 828T379 881T416 931H603V921Z" />
<glyph unicode="&#xdb;" horiz-adv-x="756" d="M677 267Q677 185 644 123T544 25T375 -10Q231 -10 155 64T79 266V714H250V285Q250 203 282 168T379 133Q424 133 452 149T493 199T507 286V714H677V267ZM470 931Q485 909 507 882T553 828T595 784V771H484Q458 787
431 806T378 851Q352 826 326 807T273 771H162V784Q181 803 204 828T250 881T287 931H470Z" />
<glyph unicode="&#xdc;" horiz-adv-x="756" d="M677 267Q677 185 644 123T544 25T375 -10Q231 -10 155 64T79 266V714H250V285Q250 203 282 168T379 133Q424 133 452 149T493 199T507 286V714H677V267ZM196 853Q196 890 217 907T270 924Q301 924 323 907T346 853Q346
817 324 800T270 783Q239 783 218 800T196 853ZM410 853Q410 890 431 907T485 924Q516 924 538 907T561 853Q561 817 539 800T486 783Q454 783 432 800T410 853Z" />
<glyph unicode="&#xdd;" horiz-adv-x="642" d="M321 433L458 714H642L406 278V0H236V273L0 714H185L321 433ZM545 921Q529 907 504 887T451 845T395 804T349 771H237V784Q253 803 276 828T321 881T358 931H545V921Z" />
<glyph unicode="&#xde;" horiz-adv-x="628" d="M589 379Q589 332 575 289T530 212T447 158T320 138H254V0H84V714H254V606H326Q460 606 524 546T589 379ZM297 277Q334 277 360 287T401 320T416 379Q416 423 391 445T310 467H254V277H297Z" />
<glyph unicode="&#xdf;" horiz-adv-x="729" d="M630 594Q630 559 617 533T583 486T543 451T508 425T494 402Q494 390 505 380T538 357T596 321Q629 300 651 278T685 228T697 161Q697 105 672 67T597 10T474 -10Q417 -10 379 -3T310 20V149Q327 139 350 130T400
115T447 109Q481 109 502 122T523 160Q523 175 517 186T491 211T431 247Q390 270 366 289T332 330T322 378Q322 409 335 430T369 468T410 499T444 531T458 571Q458 599 430 617T355 635Q319 635 294 624T255 591T241 535V0H72V547Q72 620 109 668T211 740T355 765Q434
765 496 746T594 689T630 594Z" />
<glyph unicode="&#xe0;" horiz-adv-x="613" d="M318 560Q425 560 484 511T543 364V0H426L393 74H389Q366 45 342 26T286 -1T208 -10Q160 -10 122 9T61 67T39 166Q39 254 100 296T281 343L375 346V362Q375 402 355 420T298 438Q262 438 223 427T144 398L93 510Q138
534 195 547T318 560ZM324 248Q261 246 236 226T211 170Q211 139 229 125T275 111Q317 111 346 136T375 206V250L324 248ZM318 766Q334 744 356 717T400 664T439 619V606H327Q307 619 281 638T226 680T172 722T131 756V766H318Z" />
<glyph unicode="&#xe1;" horiz-adv-x="613" d="M318 560Q425 560 484 511T543 364V0H426L393 74H389Q366 45 342 26T286 -1T208 -10Q160 -10 122 9T61 67T39 166Q39 254 100 296T281 343L375 346V362Q375 402 355 420T298 438Q262 438 223 427T144 398L93 510Q138
534 195 547T318 560ZM324 248Q261 246 236 226T211 170Q211 139 229 125T275 111Q317 111 346 136T375 206V250L324 248ZM531 756Q515 742 490 722T437 680T381 639T335 606H223V619Q239 638 262 663T307 716T344 766H531V756Z" />
<glyph unicode="&#xe2;" horiz-adv-x="613" d="M318 560Q425 560 484 511T543 364V0H426L393 74H389Q366 45 342 26T286 -1T208 -10Q160 -10 122 9T61 67T39 166Q39 254 100 296T281 343L375 346V362Q375 402 355 420T298 438Q262 438 223 427T144 398L93 510Q138
534 195 547T318 560ZM324 248Q261 246 236 226T211 170Q211 139 229 125T275 111Q317 111 346 136T375 206V250L324 248ZM398 766Q413 744 435 717T481 663T523 619V606H412Q386 622 359 641T306 686Q280 661 254 642T201 606H90V619Q109 638 132 663T178 716T215
766H398Z" />
<glyph unicode="&#xe3;" horiz-adv-x="613" d="M318 560Q425 560 484 511T543 364V0H426L393 74H389Q366 45 342 26T286 -1T208 -10Q160 -10 122 9T61 67T39 166Q39 254 100 296T281 343L375 346V362Q375 402 355 420T298 438Q262 438 223 427T144 398L93 510Q138
534 195 547T318 560ZM324 248Q261 246 236 226T211 170Q211 139 229 125T275 111Q317 111 346 136T375 206V250L324 248ZM103 605Q106 647 116 677T144 726T183 754T231 763Q251 763 271 756T311 738T350 721T388 714Q400 714 412 725T430 764H511Q505 681 469
644T384 606Q363 606 343 613T302 630T263 647T225 655Q213 655 201 644T183 605H103Z" />
<glyph unicode="&#xe4;" horiz-adv-x="613" d="M318 560Q425 560 484 511T543 364V0H426L393 74H389Q366 45 342 26T286 -1T208 -10Q160 -10 122 9T61 67T39 166Q39 254 100 296T281 343L375 346V362Q375 402 355 420T298 438Q262 438 223 427T144 398L93 510Q138
534 195 547T318 560ZM324 248Q261 246 236 226T211 170Q211 139 229 125T275 111Q317 111 346 136T375 206V250L324 248ZM124 688Q124 725 145 742T198 759Q229 759 251 742T274 688Q274 652 252 635T198 618Q167 618 146 635T124 688ZM338 688Q338 725 359 742T413
759Q444 759 466 742T489 688Q489 652 467 635T414 618Q382 618 360 635T338 688Z" />
<glyph unicode="&#xe5;" horiz-adv-x="613" d="M318 560Q425 560 484 511T543 364V0H426L393 74H389Q366 45 342 26T286 -1T208 -10Q160 -10 122 9T61 67T39 166Q39 254 100 296T281 343L375 346V362Q375 402 355 420T298 438Q262 438 223 427T144 398L93 510Q138
534 195 547T318 560ZM324 248Q261 246 236 226T211 170Q211 139 229 125T275 111Q317 111 346 136T375 206V250L324 248ZM305 605Q249 605 215 636T180 724Q180 780 214 811T305 843Q358 843 395 812T433 725Q433 668 396 637T305 605ZM305 680Q323 680 336 692T349
724Q349 744 336 756T305 768Q286 768 273 756T260 724Q260 704 271 692T305 680Z" />
<glyph unicode="&#xe6;" horiz-adv-x="925" d="M647 559Q716 559 769 531T852 447T883 308V231H536Q538 179 572 146T668 113Q712 113 757 122T850 155V30Q809 9 765 0T652 -10Q609 -10 570 0T498 32T441 87Q409 52 379 31T311 0T214 -10Q168 -10 128 9T64 67T39
167Q39 227 67 264T149 321T278 343L370 346V372Q370 409 349 423T296 438Q259 438 221 428T145 400L94 511Q139 535 193 547T307 560Q359 560 400 546T473 504Q506 532 547 545T647 559ZM322 248Q259 247 236 225T212 168Q212 137 228 124T274 111Q301 111 322
122T357 155T370 206V250L322 248ZM640 442Q597 442 570 418T539 340H728Q728 368 718 391T688 428T640 442Z" />
<glyph unicode="&#xe7;" horiz-adv-x="526" d="M308 -10Q226 -10 167 19T76 111T44 272Q44 372 79 435T178 529T322 559Q376 559 419 548T497 520L448 393Q413 407 383 416T322 425Q288 425 264 409T228 358T215 273Q215 222 228 190T265 141T323 125Q367 125
405 138T479 173V35Q445 13 405 2T308 -10ZM418 -122Q418 -177 384 -208T275 -240Q247 -240 225 -236T186 -227V-139Q202 -144 220 -147T254 -150Q270 -150 280 -143T291 -121Q291 -103 274 -91T215 -72L249 0H344L333 -30Q353 -35 372 -46T405 -76T418 -122Z"
/>
<glyph unicode="&#xe8;" horiz-adv-x="603" d="M309 559Q387 559 443 531T530 447T561 309V231H214Q216 177 249 145T343 113Q396 113 439 123T528 155V30Q488 9 442 0T329 -10Q246 -10 182 20T81 112T44 271Q44 369 77 432T170 527T309 559ZM312 442Q273 442
248 418T217 340H406Q406 369 396 392T364 428T312 442ZM314 766Q330 744 352 717T396 664T435 619V606H323Q303 619 277 638T222 680T168 722T127 756V766H314Z" />
<glyph unicode="&#xe9;" horiz-adv-x="603" d="M309 559Q387 559 443 531T530 447T561 309V231H214Q216 177 249 145T343 113Q396 113 439 123T528 155V30Q488 9 442 0T329 -10Q246 -10 182 20T81 112T44 271Q44 369 77 432T170 527T309 559ZM312 442Q273 442
248 418T217 340H406Q406 369 396 392T364 428T312 442ZM526 756Q510 742 485 722T432 680T376 639T330 606H218V619Q234 638 257 663T302 716T339 766H526V756Z" />
<glyph unicode="&#xea;" horiz-adv-x="603" d="M309 559Q387 559 443 531T530 447T561 309V231H214Q216 177 249 145T343 113Q396 113 439 123T528 155V30Q488 9 442 0T329 -10Q246 -10 182 20T81 112T44 271Q44 369 77 432T170 527T309 559ZM312 442Q273 442
248 418T217 340H406Q406 369 396 392T364 428T312 442ZM394 766Q409 744 431 717T477 663T519 619V606H408Q382 622 355 641T302 686Q276 661 250 642T197 606H86V619Q105 638 128 663T174 716T211 766H394Z" />
<glyph unicode="&#xeb;" horiz-adv-x="603" d="M309 559Q387 559 443 531T530 447T561 309V231H214Q216 177 249 145T343 113Q396 113 439 123T528 155V30Q488 9 442 0T329 -10Q246 -10 182 20T81 112T44 271Q44 369 77 432T170 527T309 559ZM312 442Q273 442
248 418T217 340H406Q406 369 396 392T364 428T312 442ZM375 688Q375 725 396 742T449 759Q480 759 502 742T525 688Q525 652 503 635T449 618Q418 618 397 635T375 688ZM589 688Q589 725 610 742T664 759Q695 759 717 742T740 688Q740 652 718 635T665 618Q633
618 611 635T589 688Z" />
<glyph unicode="&#xec;" horiz-adv-x="314" d="M241 0H73V549H241V0ZM425 766Q441 744 463 717T507 664T546 619V606H434Q414 619 388 638T333 680T279 722T238 756V766H425Z" />
<glyph unicode="&#xed;" horiz-adv-x="314" d="M241 0H73V549H241V0ZM382 756Q366 742 341 722T288 680T232 639T186 606H74V619Q90 638 113 663T158 716T195 766H382V756Z" />
<glyph unicode="&#xee;" horiz-adv-x="314" d="M241 0H73V549H241V0ZM505 766Q520 744 542 717T588 663T630 619V606H519Q493 622 466 641T413 686Q387 661 361 642T308 606H197V619Q216 638 239 663T285 716T322 766H505Z" />
<glyph unicode="&#xef;" horiz-adv-x="314" d="M241 0H73V549H241V0ZM-25 688Q-25 725 -4 742T49 759Q80 759 102 742T125 688Q125 652 103 635T49 618Q18 618 -3 635T-25 688ZM189 688Q189 725 210 742T264 759Q295 759 317 742T340 688Q340 652 318 635T265
618Q233 618 211 635T189 688Z" />
<glyph unicode="&#xf0;" horiz-adv-x="629" d="M229 766Q265 750 297 734T356 699L463 766L515 685L438 636Q486 591 518 539T566 424T583 281Q583 190 550 125T457 25T312 -10Q235 -10 174 19T79 104T44 241Q44 322 74 377T158 461T279 490Q312 490 336 485T378
470T406 445L410 447Q395 481 375 510T327 567L225 503L173 585L251 634Q235 645 216 656T178 679L229 766ZM314 368Q279 368 258 354T226 312T216 241Q216 203 226 174T257 128T314 112Q367 112 389 150T411 263Q411 283 406 302T388 335T358 359T314 368Z" />
<glyph unicode="&#xf1;" horiz-adv-x="663" d="M399 559Q486 559 539 512T593 358V0H425V311Q425 368 406 397T346 426Q285 426 263 381T241 250V0H72V549H200L223 478H231Q249 505 274 523T331 550T399 559ZM128 605Q131 647 141 677T169 726T208 754T256 763Q276
763 296 756T336 738T375 721T413 714Q425 714 437 725T455 764H536Q530 681 494 644T409 606Q388 606 368 613T327 630T288 647T250 655Q238 655 226 644T208 605H128Z" />
<glyph unicode="&#xf2;" horiz-adv-x="627" d="M583 276Q583 207 565 154T511 64T426 9T312 -10Q254 -10 205 8T120 63T64 153T44 276Q44 367 76 430T170 526T315 559Q394 559 454 526T548 430T583 276ZM215 276Q215 225 225 190T257 138T314 120Q350 120 371
137T402 190T412 276Q412 327 402 361T371 412T313 429Q262 429 239 391T215 276ZM326 766Q342 744 364 717T408 664T447 619V606H335Q315 619 289 638T234 680T180 722T139 756V766H326Z" />
<glyph unicode="&#xf3;" horiz-adv-x="627" d="M583 276Q583 207 565 154T511 64T426 9T312 -10Q254 -10 205 8T120 63T64 153T44 276Q44 367 76 430T170 526T315 559Q394 559 454 526T548 430T583 276ZM215 276Q215 225 225 190T257 138T314 120Q350 120 371
137T402 190T412 276Q412 327 402 361T371 412T313 429Q262 429 239 391T215 276ZM538 756Q522 742 497 722T444 680T388 639T342 606H230V619Q246 638 269 663T314 716T351 766H538V756Z" />
<glyph unicode="&#xf4;" horiz-adv-x="627" d="M583 276Q583 207 565 154T511 64T426 9T312 -10Q254 -10 205 8T120 63T64 153T44 276Q44 367 76 430T170 526T315 559Q394 559 454 526T548 430T583 276ZM215 276Q215 225 225 190T257 138T314 120Q350 120 371
137T402 190T412 276Q412 327 402 361T371 412T313 429Q262 429 239 391T215 276ZM406 766Q421 744 443 717T489 663T531 619V606H420Q394 622 367 641T314 686Q288 661 262 642T209 606H98V619Q117 638 140 663T186 716T223 766H406Z" />
<glyph unicode="&#xf5;" horiz-adv-x="627" d="M583 276Q583 207 565 154T511 64T426 9T312 -10Q254 -10 205 8T120 63T64 153T44 276Q44 367 76 430T170 526T315 559Q394 559 454 526T548 430T583 276ZM215 276Q215 225 225 190T257 138T314 120Q350 120 371
137T402 190T412 276Q412 327 402 361T371 412T313 429Q262 429 239 391T215 276ZM111 605Q114 647 124 677T152 726T191 754T239 763Q259 763 279 756T319 738T358 721T396 714Q408 714 420 725T438 764H519Q513 681 477 644T392 606Q371 606 351 613T310 630T271
647T233 655Q221 655 209 644T191 605H111Z" />
<glyph unicode="&#xf6;" horiz-adv-x="627" d="M583 276Q583 207 565 154T511 64T426 9T312 -10Q254 -10 205 8T120 63T64 153T44 276Q44 367 76 430T170 526T315 559Q394 559 454 526T548 430T583 276ZM215 276Q215 225 225 190T257 138T314 120Q350 120 371
137T402 190T412 276Q412 327 402 361T371 412T313 429Q262 429 239 391T215 276ZM131 688Q131 725 152 742T205 759Q236 759 258 742T281 688Q281 652 259 635T205 618Q174 618 153 635T131 688ZM345 688Q345 725 366 742T420 759Q451 759 473 742T496 688Q496
652 474 635T421 618Q389 618 367 635T345 688Z" />
<glyph unicode="&#xf7;" horiz-adv-x="578" d="M44 293V412H534V293H44ZM288 95Q259 95 238 113T217 173Q217 217 238 234T288 251Q317 251 338 234T360 173Q360 132 339 114T288 95ZM288 454Q259 454 238 472T217 532Q217 576 238 593T288 610Q317 610 338 593T360
532Q360 491 339 473T288 454Z" />
<glyph unicode="&#xf8;" horiz-adv-x="640" d="M596 276Q596 184 563 120T467 23T319 -10Q288 -10 260 -5T206 10L169 -46L90 5L126 59Q87 96 66 150T44 276Q44 412 118 485T322 559Q354 559 383 554T439 537L470 583L548 531L517 486Q555 450 575 397T596 276ZM210
276Q210 253 212 235T218 199L366 425Q357 429 345 431T320 434Q261 434 236 395T210 276ZM430 276Q430 295 429 311T424 343L279 121Q288 118 298 117T321 116Q361 116 385 134T419 187T430 276Z" />
<glyph unicode="&#xf9;" horiz-adv-x="663" d="M591 549V0H463L441 70H431Q414 42 388 25T330 -1T264 -10Q208 -10 164 11T95 76T70 191V549H239V238Q239 182 257 153T317 124Q358 124 381 144T413 203T422 299V549H591ZM343 766Q359 744 381 717T425 664T464
619V606H352Q332 619 306 638T251 680T197 722T156 756V766H343Z" />
<glyph unicode="&#xfa;" horiz-adv-x="663" d="M591 549V0H463L441 70H431Q414 42 388 25T330 -1T264 -10Q208 -10 164 11T95 76T70 191V549H239V238Q239 182 257 153T317 124Q358 124 381 144T413 203T422 299V549H591ZM556 756Q540 742 515 722T462 680T406
639T360 606H248V619Q264 638 287 663T332 716T369 766H556V756Z" />
<glyph unicode="&#xfb;" horiz-adv-x="663" d="M591 549V0H463L441 70H431Q414 42 388 25T330 -1T264 -10Q208 -10 164 11T95 76T70 191V549H239V238Q239 182 257 153T317 124Q358 124 381 144T413 203T422 299V549H591ZM424 766Q439 744 461 717T507 663T549
619V606H438Q412 622 385 641T332 686Q306 661 280 642T227 606H116V619Q135 638 158 663T204 716T241 766H424Z" />
<glyph unicode="&#xfc;" horiz-adv-x="663" d="M591 549V0H463L441 70H431Q414 42 388 25T330 -1T264 -10Q208 -10 164 11T95 76T70 191V549H239V238Q239 182 257 153T317 124Q358 124 381 144T413 203T422 299V549H591ZM149 688Q149 725 170 742T223 759Q254
759 276 742T299 688Q299 652 277 635T223 618Q192 618 171 635T149 688ZM363 688Q363 725 384 742T438 759Q469 759 491 742T514 688Q514 652 492 635T439 618Q407 618 385 635T363 688Z" />
<glyph unicode="&#xfd;" horiz-adv-x="588" d="M0 549H180L279 238Q283 226 285 214T290 188T293 159H296Q299 182 303 201T313 237L412 549H588L362 -54Q340 -115 307 -156T227 -219T118 -240Q93 -240 74 -238T41 -232V-99Q52 -101 67 -103T100 -105Q132 -105
153 -92T188 -58T211 -11L217 6L0 549ZM518 756Q502 742 477 722T424 680T368 639T322 606H210V619Q226 638 249 663T294 716T331 766H518V756Z" />
<glyph unicode="&#xfe;" horiz-adv-x="638" d="M594 276Q594 182 568 118T495 22T389 -10Q352 -10 324 -1T276 23T241 55H234Q236 45 237 32T240 5T241 -20V-240H72V760H241V580Q241 548 238 521T233 478H241Q254 501 275 519T325 548T392 559Q481 559 537 487T594
276ZM422 278Q422 351 402 388T334 426Q283 426 263 393T241 292V277Q241 204 261 165T336 126Q366 126 385 143T413 195T422 278Z" />
<glyph unicode="&#xff;" horiz-adv-x="588" d="M0 549H180L279 238Q283 226 285 214T290 188T293 159H296Q299 182 303 201T313 237L412 549H588L362 -54Q340 -115 307 -156T227 -219T118 -240Q93 -240 74 -238T41 -232V-99Q52 -101 67 -103T100 -105Q132 -105
153 -92T188 -58T211 -11L217 6L0 549ZM367 688Q367 725 388 742T441 759Q472 759 494 742T517 688Q517 652 495 635T441 618Q410 618 389 635T367 688ZM581 688Q581 725 602 742T656 759Q687 759 709 742T732 688Q732 652 710 635T657 618Q625 618 603 635T581
688Z" />
<glyph unicode="&#x2013;" horiz-adv-x="500" d="M38 208V331H462V208H38Z" />
<glyph unicode="&#x2014;" horiz-adv-x="1000" d="M38 208V331H961V208H38Z" />
<glyph unicode="&#x2018;" horiz-adv-x="232" d="M11 461Q20 497 34 541T64 631T97 714H217Q208 672 199 625T182 532T169 450H18L11 461Z" />
<glyph unicode="&#x2019;" horiz-adv-x="232" d="M221 703Q212 667 198 622T168 532T135 450H15Q22 482 29 516T42 586T54 653T63 714H214L221 703Z" />
<glyph unicode="&#x201a;" horiz-adv-x="296" d="M236 119Q227 83 213 38T183 -52T150 -134H30Q37 -102 44 -68T57 2T69 69T78 130H229L236 119Z" />
<glyph unicode="&#x201c;" horiz-adv-x="470" d="M455 714Q446 672 437 625T420 532T407 450H256L249 461Q258 497 272 541T302 631T335 714H455ZM217 714Q208 672 199 625T182 532T169 450H18L11 461Q20 497 34 541T64 631T97 714H217Z" />
<glyph unicode="&#x201d;" horiz-adv-x="470" d="M459 702Q450 667 436 622T406 532T373 450H252Q262 493 271 539T288 631T301 714H452L459 702ZM221 702Q212 667 198 622T168 532T135 450H15Q22 482 29 516T42 585T54 653T63 714H214L221 702Z" />
<glyph unicode="&#x201e;" horiz-adv-x="534" d="M474 118Q465 83 451 38T421 -52T388 -134H267Q277 -91 286 -45T303 47T316 130H467L474 118ZM236 118Q227 83 213 38T183 -52T150 -134H30Q37 -102 44 -68T57 1T69 69T78 130H229L236 118Z" />
<glyph unicode="&#x2022;" horiz-adv-x="383" d="M42 365Q42 425 62 461T116 513T191 530Q233 530 267 514T321 461T341 365Q341 307 321 271T267 217T191 200Q150 200 116 217T62 270T42 365Z" />
<glyph unicode="&#x2039;" horiz-adv-x="383" d="M38 283L223 512L344 447L210 277L344 107L223 43L38 270V283Z" />
<glyph unicode="&#x203a;" horiz-adv-x="383" d="M160 512L345 283V270L160 43L39 107L173 277L39 447L160 512Z" />
</font>
</defs>
</svg>
