<?xml version="1.0" standalone="no"?>
<!DOCTYPE svg PUBLIC "-//W3C//DTD SVG 1.1//EN" "http://www.w3.org/Graphics/SVG/1.1/DTD/svg11.dtd">
<svg xmlns="http://www.w3.org/2000/svg">
<defs >
<font id="NotoSans" horiz-adv-x="552" ><font-face
    font-family="Noto Sans ExtraBold"
    units-per-em="1000"
    panose-1="2 11 5 2 4 5 4 9 2 4"
    ascent="1069"
    descent="-293"
    alphabetic="0" />
<glyph unicode=" " horiz-adv-x="260" />
<glyph unicode="!" horiz-adv-x="294" d="M65 244L144 714H329L207 244H65ZM92 -13Q46 -13 28 9T9 59Q9 100 35 132T118 164Q155 164 176 145T198 90Q198 42 169 15T92 -13Z" />
<glyph unicode="&quot;" horiz-adv-x="453" d="M299 456L335 714H485L410 456H299ZM94 456L129 714H279L203 456H94Z" />
<glyph unicode="#" horiz-adv-x="646" d="M71 0L126 196H14L23 304H156L187 410H68L78 519H218L274 714H392L336 519H426L482 714H599L544 519H657L647 410H513L482 304H604L595 196H451L395 0H277L333 196H244L188 0H71ZM274 304H364L395 410H305L274 304Z" />
<glyph unicode="$" horiz-adv-x="564" d="M198 37Q143 41 101 52T27 81L26 219Q70 197 121 182T225 163L257 310Q211 329 175 352T118 410T97 491Q97 552 127 594T211 661T337 690L352 760H427L411 689Q452 685 488 675T559 646L509 524Q481 538 448 548T384 561L354
420Q405 399 440 375T495 319T514 241Q514 183 486 139T404 68T271 36L252 -58H178L198 37ZM299 165Q320 169 334 177T355 198T362 227Q362 241 357 251T344 269T324 282L299 165ZM310 560Q292 557 280 550T260 530T253 499Q253 487 256 478T268 462T286 450L310
560Z" />
<glyph unicode="%" horiz-adv-x="890" d="M127 0L658 714H785L257 0H127ZM203 276Q132 276 94 317T56 438Q56 473 62 512T84 589T124 657T184 706T266 724Q338 724 375 683T413 563Q413 529 407 490T385 413T346 344T287 295T203 276ZM212 385Q225 385 236 397T257
429T272 473T281 523T284 570Q284 593 278 604T257 615Q245 615 234 604T214 573T199 529T190 479T186 429Q186 407 192 396T212 385ZM652 -9Q579 -9 541 31T503 147Q503 186 510 227T532 305T573 373T632 421T713 439Q785 439 822 398T860 280Q860 245 854 205T832
127T793 59T734 10T652 -9ZM659 99Q672 99 683 111T704 143T719 188T728 237T731 285Q731 308 725 318T704 329Q692 329 682 318T662 287T646 243T637 193T633 144Q633 122 639 111T659 99Z" />
<glyph unicode="&amp;" horiz-adv-x="720" d="M250 -10Q143 -10 82 39T20 181Q20 233 39 272T97 342T193 396Q174 425 164 459T154 520Q154 587 182 632T260 701T377 725Q437 725 479 706T543 652T566 571Q566 523 545 485T486 417T393 362L473 251Q497 280 515
316T546 391H711Q693 340 670 294T619 208T559 134L655 0H464L435 40Q399 18 353 4T250 -10ZM272 127Q290 127 306 130T336 137T361 148L258 297Q236 286 221 271T199 238T191 197Q191 180 200 164T227 137T272 127ZM329 455Q346 464 361 473T387 495T406 523T413
556Q413 579 400 591T368 604Q349 604 335 595T314 569T306 531Q306 515 311 494T329 455Z" />
<glyph unicode="&apos;" horiz-adv-x="247" d="M94 456L129 714H279L203 456H94Z" />
<glyph unicode="(" horiz-adv-x="355" d="M108 -158Q85 -116 68 -65T43 40T35 147Q35 233 51 310T98 459T176 595T282 723H424Q371 665 326 601T248 464T197 312T178 141Q178 92 185 40T204 -62T235 -158H108Z" />
<glyph unicode=")" horiz-adv-x="355" d="M-69 -158Q-16 -100 28 -36T106 101T157 254T175 424Q175 474 169 525T149 627T118 723H246Q271 680 287 629T311 525T319 418Q319 332 304 255T257 106T180 -30T74 -158H-69Z" />
<glyph unicode="*" horiz-adv-x="544" d="M344 276L303 433L214 305L103 390L232 506L79 550L125 675L285 592L301 768L438 740L382 573L566 587L557 453L398 473L473 315L344 276Z" />
<glyph unicode="+" horiz-adv-x="578" d="M353 412H539V293H353V111H235V293H49V412H235V596H353V412Z" />
<glyph unicode="," horiz-adv-x="295" d="M-50 -129Q-32 -89 -16 -46T16 40T43 116H196L200 105Q185 70 164 30T121 -51T74 -129H-50Z" />
<glyph unicode="-" horiz-adv-x="325" d="M16 200L44 336H307L278 200H16Z" />
<glyph unicode="." horiz-adv-x="295" d="M87 -13Q46 -13 26 7T6 59Q6 105 34 134T115 164Q151 164 173 146T195 90Q195 39 166 13T87 -13Z" />
<glyph unicode="/" horiz-adv-x="442" d="M-44 -5L357 719H513L111 -5H-44Z" />
<glyph unicode="0" horiz-adv-x="564" d="M234 -10Q134 -10 83 51T32 228Q32 291 40 352T66 468T110 570T172 652T253 706T352 725Q403 725 440 708T503 660T540 585T553 488Q553 424 545 363T519 245T476 143T415 62T334 9T234 -10ZM249 127Q270 127 288 143T321
188T348 253T368 331T381 413T385 492Q385 540 373 564T334 588Q314 588 297 571T264 524T237 456T216 377T204 297T199 224Q199 176 209 152T249 127Z" />
<glyph unicode="1" horiz-adv-x="564" d="M274 398Q278 416 284 439T297 487T311 531Q300 521 281 507T248 483L151 423L82 536L370 714H506L355 0H187L274 398Z" />
<glyph unicode="2" horiz-adv-x="564" d="M-26 0L-3 114L232 323Q272 359 299 387T341 439T364 482T371 519Q371 550 355 565T311 581Q288 581 266 573T219 549T167 508L86 620Q138 666 200 695T340 724Q405 724 449 701T517 637T540 547Q540 492 518 444T451
349T340 245L224 147V142H483L454 0H-26Z" />
<glyph unicode="3" horiz-adv-x="564" d="M196 -10Q141 -10 91 0T7 29V174Q49 149 96 137T190 125Q223 125 250 131T296 149T327 181T338 228Q338 251 327 268T288 294T207 304H152L176 427H213Q246 427 276 433T329 451T364 482T377 528Q377 551 361 569T304
588Q265 588 231 574T168 543L99 653Q149 685 203 704T338 724Q403 724 449 703T519 645T544 558Q544 508 524 469T465 405T373 370V366Q433 355 469 316T505 213Q505 163 484 122T423 52T326 6T196 -10Z" />
<glyph unicode="4" horiz-adv-x="564" d="M240 0L270 143H-9L15 262L389 714H552L459 273H538L510 143H432L402 0H240ZM168 273H297L323 382Q329 404 336 430T349 478T358 510H354Q347 498 337 483T317 452T295 423L168 273Z" />
<glyph unicode="5" horiz-adv-x="564" d="M205 -10Q168 -10 131 -5T63 9T12 30V174Q48 153 94 140T186 126Q225 126 253 135T299 159T326 194T335 239Q335 275 312 301T234 327Q206 327 178 322T132 311L77 352L180 714H562L532 572H297L261 454Q273 456 285 457T311
458Q366 458 410 436T481 370T507 258Q507 198 488 148T430 63T336 9T205 -10Z" />
<glyph unicode="6" horiz-adv-x="564" d="M261 -10Q187 -10 138 20T65 106T41 238Q41 293 51 349T80 458T126 556T189 633Q227 667 267 687T355 716T463 725Q493 725 522 721T575 711L547 578Q528 583 503 586T456 590Q385 590 338 568T261 501T211 388H215Q231
410 251 429T300 459T367 470Q441 470 484 424T527 282Q527 231 512 180T465 85T383 16T261 -10ZM266 124Q289 124 306 136T335 170T353 216T359 269Q359 301 345 320T302 339Q280 339 261 328T229 297T211 257Q209 249 208 241T206 224T205 206Q205 187 209 172T221
147T240 130T266 124Z" />
<glyph unicode="7" horiz-adv-x="564" d="M28 0L384 572H89L119 714H608L586 611L220 0H28Z" />
<glyph unicode="8" horiz-adv-x="564" d="M256 -10Q180 -10 129 14T52 78T26 168Q26 219 45 258T101 326T192 374Q172 390 154 411T125 459T113 523Q113 578 140 624T221 697T353 725Q420 725 465 703T534 644T557 562Q557 516 538 480T487 418T412 378Q440 358
462 333T498 275T511 200Q511 141 483 93T397 18T256 -10ZM264 113Q292 113 312 124T342 155T353 198Q353 223 344 242T320 277T284 306Q254 293 232 276T198 237T186 187Q186 153 208 133T264 113ZM323 444Q348 454 365 469T391 502T400 542Q400 571 384 586T342
602Q321 602 305 592T280 566T271 528Q271 500 285 479T323 444Z" />
<glyph unicode="9" horiz-adv-x="564" d="M157 -10Q125 -10 97 -6T47 6V143Q68 135 94 130T152 124Q202 125 239 140T301 183T343 246T370 324H366Q351 302 332 284T285 255T221 244Q167 244 131 268T76 337T57 437Q57 486 71 536T116 629T200 698T327 725Q398
725 446 696T518 613T543 478Q543 426 535 372T511 265T468 166T407 84Q385 62 359 45T302 15T235 -3T157 -10ZM283 375Q306 375 323 387T353 418T371 457Q374 469 376 481T378 507Q378 532 372 550T352 579T317 590Q295 590 278 579T249 547T231 503T225 454Q225
415 240 395T283 375Z" />
<glyph unicode=":" horiz-adv-x="295" d="M178 382Q138 382 118 402T98 453Q98 485 111 508T148 545T207 558Q243 558 265 540T287 485Q287 433 258 408T178 382ZM87 -13Q46 -13 26 7T6 59Q6 105 34 134T115 164Q151 164 173 146T195 90Q195 39 166 13T87 -13Z" />
<glyph unicode=";" horiz-adv-x="295" d="M-53 -129Q-35 -89 -19 -46T13 40T40 116H194L198 105Q182 70 162 30T118 -51T71 -129H-53ZM178 382Q138 382 118 402T98 453Q98 485 111 508T148 545T207 558Q243 558 265 540T287 485Q287 433 258 408T178 382Z" />
<glyph unicode="&lt;" horiz-adv-x="578" d="M538 93L49 310V386L538 631V501L219 353L538 223V93Z" />
<glyph unicode="=" horiz-adv-x="578" d="M49 396V513H539V396H49ZM49 191V309H539V191H49Z" />
<glyph unicode="&gt;" horiz-adv-x="578" d="M49 223L369 353L49 501V631L538 386V310L49 93V223Z" />
<glyph unicode="?" horiz-adv-x="472" d="M125 244Q134 294 148 328T188 390T254 445Q287 467 306 482T333 512T341 543Q341 564 329 577T286 590Q254 590 217 577T134 539L83 661Q129 687 185 705T304 724Q397 724 450 681T503 561Q503 508 484 473T433 411T362
360Q329 339 311 323T284 290T266 244H125ZM158 -13Q111 -13 93 9T75 59Q75 100 100 132T183 164Q221 164 242 145T263 90Q263 42 234 15T158 -13Z" />
<glyph unicode="@" horiz-adv-x="875" d="M386 -91Q306 -91 242 -67T134 2T66 108T43 244Q43 336 67 411T135 543T237 640T364 699T507 719Q615 719 693 682T813 576T855 407Q855 358 844 313T811 229T759 162T690 117T606 100Q567 100 539 116T500 168H495Q473
136 444 118T367 100Q311 100 274 138T237 251Q237 290 248 329T280 404T333 467T405 511T498 527Q546 527 585 519T659 497L609 293Q604 271 601 256T597 225Q597 211 603 205T621 198Q639 198 656 208T689 237T715 282T732 339T738 405Q738 470 712 517T632 591T495
617Q437 617 387 601T295 554T223 479T177 378T160 255Q160 182 187 127T267 42T392 11Q447 11 504 22T616 55V-45Q571 -64 512 -77T386 -91ZM402 198Q436 198 458 229T497 323L523 424Q516 426 508 427T490 429Q457 429 432 412T391 369T368 313T360 258Q360 225
372 212T402 198Z" />
<glyph unicode="A" horiz-adv-x="650" d="M-60 0L309 714H521L587 0H423L415 153H189L116 0H-60ZM254 292H408L398 486Q396 512 395 539T395 593H392Q384 568 374 544T350 492L254 292Z" />
<glyph unicode="B" horiz-adv-x="626" d="M21 0L172 714H394Q466 714 515 696T590 643T615 556Q615 507 598 471T547 410T464 373V369Q510 355 537 321T565 233Q565 152 528 100T426 24T282 0H21ZM284 136Q318 136 342 147T381 181T395 232Q395 268 376 286T314
305H255L219 136H284ZM337 435Q372 435 395 445T429 474T441 521Q441 550 423 565T368 580H313L282 435H337Z" />
<glyph unicode="C" horiz-adv-x="620" d="M319 -10Q231 -10 173 24T85 122T56 269Q56 333 70 397T113 520T187 625T294 698T436 725Q506 725 558 711T658 668L594 534Q554 557 517 570T436 584Q394 584 361 566T302 518T260 448T235 365T227 278Q227 204 257 168T351
131Q393 131 434 142T523 172V31Q483 14 432 2T319 -10Z" />
<glyph unicode="D" horiz-adv-x="680" d="M21 0L172 714H370Q501 714 575 645T649 444Q649 362 632 293T581 170T498 78T386 20T246 0H21ZM263 140Q305 140 339 155T399 196T442 260T469 341T478 435Q478 506 446 540T358 575H312L219 140H263Z" />
<glyph unicode="E" horiz-adv-x="551" d="M21 0L172 714H583L554 576H312L284 439H509L479 301H253L219 140H461L432 0H21Z" />
<glyph unicode="F" horiz-adv-x="549" d="M21 0L172 714H580L551 576H312L278 414H500L470 275H247L190 0H21Z" />
<glyph unicode="G" horiz-adv-x="694" d="M322 -10Q199 -10 128 61T56 271Q56 342 72 409T122 533T206 633T323 701T474 725Q533 725 585 713T683 675L619 539Q586 558 549 570T469 583Q405 583 359 555T284 481T241 382T227 279Q227 230 240 197T281 148T351
132Q374 132 390 134T426 141L455 272H333L363 409H649L568 29Q518 13 461 2T322 -10Z" />
<glyph unicode="H" horiz-adv-x="706" d="M21 0L172 714H341L284 441H486L543 714H711L560 0H392L455 300H253L190 0H21Z" />
<glyph unicode="I" horiz-adv-x="403" d="M-32 0L-12 97L80 136L174 576L98 617L118 714H458L438 617L342 576L249 136L326 97L306 0H-32Z" />
<glyph unicode="J" horiz-adv-x="350" d="M-61 -217Q-90 -217 -114 -213T-158 -203V-65Q-141 -69 -121 -72T-76 -76Q-45 -76 -21 -64T19 -25T45 48L187 714H355L208 25Q190 -62 157 -115T70 -193T-61 -217Z" />
<glyph unicode="K" horiz-adv-x="639" d="M21 0L172 714H341L270 387L344 489L524 714H723L442 378L580 0H392L297 286L243 255L190 0H21Z" />
<glyph unicode="L" horiz-adv-x="522" d="M21 0L172 714H341L219 139H461L432 0H21Z" />
<glyph unicode="M" horiz-adv-x="893" d="M21 0L172 714H395L412 192H416L668 714H898L746 0H594L658 306Q669 359 680 401T700 477T715 534H711L452 0H295L279 534H275Q270 500 264 460T250 378T235 300L172 0H21Z" />
<glyph unicode="N" horiz-adv-x="771" d="M21 0L172 714H369L523 209H527Q530 231 535 264T546 332T557 394L626 714H776L625 0H433L274 522H269Q268 515 266 492T259 438T250 376T239 318L172 0H21Z" />
<glyph unicode="O" horiz-adv-x="733" d="M325 -10Q236 -10 176 24T86 119T56 263Q56 319 66 374T96 481T148 577T222 654T319 706T438 725Q569 725 635 651T702 454Q702 398 693 342T663 233T612 137T539 60T444 9T325 -10ZM339 131Q365 131 390 141T436 172T475
221T505 285T524 363T531 451Q531 513 504 548T424 584Q395 584 369 572T321 538T282 486T252 420T233 345T227 264Q227 221 240 192T278 147T339 131Z" />
<glyph unicode="P" horiz-adv-x="616" d="M21 0L172 714H364Q454 714 509 687T588 612T613 503Q613 439 590 391T525 311T426 263T301 246H241L190 0H21ZM318 385Q356 385 384 399T428 438T444 498Q444 534 424 554T363 575H312L271 385H318Z" />
<glyph unicode="Q" horiz-adv-x="733" d="M331 -10Q328 -10 325 -10T319 -10Q233 -10 175 24T86 119T56 263Q56 319 66 374T97 481T149 577T222 654T319 706T439 725Q569 725 635 651T702 454Q702 402 694 351T669 251T626 161T566 85T487 28L607 -170H414L331
-10ZM335 133Q362 133 387 143T435 174T474 222T505 287T524 364T531 452Q531 514 504 548T426 583Q397 583 371 572T323 539T283 489T253 423T234 347T227 262Q227 220 239 191T276 148T335 133Z" />
<glyph unicode="R" horiz-adv-x="628" d="M21 0L172 714H354Q468 714 532 667T596 518Q596 458 575 415T520 344T448 301L576 0H392L294 268H246L190 0H21ZM307 401Q333 401 354 407T392 426T417 460T426 508Q426 542 407 561T344 580H312L275 401H307Z" />
<glyph unicode="S" horiz-adv-x="538" d="M199 -10Q146 -10 100 2T20 35V186Q62 162 109 146T202 130Q224 130 241 134T272 147T292 168T299 199Q299 222 288 239T258 272T215 306Q184 331 158 359T115 422T99 505Q99 553 116 593T167 662T246 708T348 724Q405
724 455 712T549 674L490 546Q454 563 418 574T349 585Q329 585 314 580T289 565T274 543T269 517Q269 497 278 481T305 448T353 411Q393 384 418 354T456 290T469 215Q469 160 450 118T394 48T309 5T199 -10Z" />
<glyph unicode="T" horiz-adv-x="541" d="M123 0L243 573H79L109 714H607L576 573H412L291 0H123Z" />
<glyph unicode="U" horiz-adv-x="696" d="M296 -10Q222 -10 171 16T92 88T65 194Q65 209 66 227T72 263L168 714H337L242 266Q238 251 236 236T234 208Q234 172 254 152T313 132Q350 132 374 147T415 193T441 272L535 714H704L606 255Q589 174 553 115T454 23T296 -10Z" />
<glyph unicode="V" horiz-adv-x="602" d="M139 0L82 714H246L265 316Q266 294 266 265T265 207T261 158H265Q275 194 289 233T317 301L509 714H685L325 0H139Z" />
<glyph unicode="W" horiz-adv-x="913" d="M106 0L83 714H242L241 339Q240 299 239 253T233 170H237Q250 206 266 248T297 325L469 714H616L621 320Q622 303 622 277T620 221T617 167H621Q629 194 640 226T663 290T685 347L834 714H1003L690 0H495L490 301Q490
337 490 365T490 418T493 469H489Q475 427 460 387T428 309L292 0H106Z" />
<glyph unicode="X" horiz-adv-x="632" d="M-59 0L219 376L107 714H284L352 472L517 714H709L444 360L574 0H389L311 255L131 0H-59Z" />
<glyph unicode="Y" horiz-adv-x="582" d="M143 0L201 275L86 714H259L313 436L482 714H670L369 275L311 0H143Z" />
<glyph unicode="Z" horiz-adv-x="537" d="M-37 0L-16 107L344 575H93L122 714H590L568 605L204 139H483L454 0H-37Z" />
<glyph unicode="[" horiz-adv-x="344" d="M-22 -163L167 723H411L387 611H282L141 -50H246L222 -163H-22Z" />
<glyph unicode="\" horiz-adv-x="442" d="M219 -5L108 719H246L361 -5H219Z" />
<glyph unicode="]" horiz-adv-x="344" d="M-66 -163L-42 -50H62L202 611H97L122 723H365L176 -163H-66Z" />
<glyph unicode="^" horiz-adv-x="544" d="M8 250L313 716H390L527 250H406L326 545L139 250H8Z" />
<glyph unicode="_" horiz-adv-x="423" d="M-91 -170L-70 -78H356L335 -170H-91Z" />
<glyph unicode="`" horiz-adv-x="336" d="M265 606Q244 626 221 652T177 706T145 756V766H315Q321 744 328 719T345 669T367 618V606H265Z" />
<glyph unicode="a" horiz-adv-x="600" d="M198 -10Q158 -10 122 9T65 74T43 194Q43 241 53 292T84 390T134 476T205 536T292 559Q326 559 350 550T393 522T424 480H428L455 549H586L469 0H340L346 66H342Q326 44 305 27T258 0T198 -10ZM265 124Q292 124 314 146T352
203T375 277Q378 295 379 312T381 350Q381 383 367 404T326 425Q307 425 291 412T259 377T234 327T218 267T212 203Q212 164 225 144T265 124Z" />
<glyph unicode="b" horiz-adv-x="601" d="M309 -10Q277 -10 253 -2T210 24T175 66H171L145 0H15L176 760H342L315 632Q310 607 303 580T287 528T273 485H277Q292 505 309 522T348 549T403 559Q444 559 479 540T536 475T558 355Q558 308 548 257T517 159T466 73T396
13T309 -10ZM274 124Q293 124 310 137T341 172T366 222T383 283T389 346Q389 385 376 405T335 425Q315 425 299 414T271 385T248 344T232 296T223 247T220 203Q220 168 234 146T274 124Z" />
<glyph unicode="c" horiz-adv-x="493" d="M247 -10Q191 -10 145 11T71 80T43 203Q43 262 56 315T93 412T152 490T234 541T335 559Q385 559 425 550T504 522L452 397Q426 408 399 417T342 426Q310 426 286 407T244 356T219 287T211 215Q211 183 219 163T244 134T284
124Q320 124 352 135T420 165V31Q383 12 342 1T247 -10Z" />
<glyph unicode="d" horiz-adv-x="599" d="M198 -10Q158 -10 122 9T65 74T43 195Q43 242 53 293T84 391T134 476T204 536T292 559Q324 559 345 550T382 523T412 482H416Q416 486 417 506T422 551T429 598L463 760H630L469 0H339L346 66H342Q326 44 306 27T259 0T198
-10ZM267 124Q287 124 302 135T330 164T353 205T369 254T378 303T381 346Q381 382 367 403T327 425Q307 425 291 412T260 377T235 327T218 267T212 203Q212 164 226 144T267 124Z" />
<glyph unicode="e" horiz-adv-x="567" d="M260 -10Q193 -10 145 14T70 87T43 205Q43 273 62 336T120 450T217 529T353 559Q446 559 495 517T544 408Q544 364 525 328T469 266T374 226T237 212H211Q210 208 210 205T210 197Q210 157 233 135T299 113Q342 113 378
124T460 157V36Q416 14 371 2T260 -10ZM246 320Q297 320 327 331T371 362T385 401Q385 421 373 432T339 443Q314 443 291 426T252 381T228 320H246Z" />
<glyph unicode="f" horiz-adv-x="390" d="M-12 -240Q-37 -240 -63 -237T-105 -228V-96Q-90 -100 -76 -102T-48 -105Q-15 -105 5 -88T34 -32L131 423H50L68 505L158 548L167 587Q178 636 195 669T238 724T296 755T370 765Q407 765 439 758T496 739L453 621Q439
627 423 631T389 636Q366 636 351 622T331 582L324 549H429L402 423H297L194 -58Q184 -109 160 -150T94 -216T-12 -240Z" />
<glyph unicode="g" horiz-adv-x="600" d="M191 -240Q130 -240 90 -231T13 -207V-66Q39 -79 66 -88T123 -103T184 -108Q233 -108 263 -86T304 -20L308 -2Q312 13 317 32T327 64H323Q308 45 290 29T247 2T189 -8Q149 -8 116 12T63 77T43 193Q43 241 53 292T84 390T135
476T204 536T290 559Q324 559 347 550T389 524T424 480H428L455 549H586L466 -13Q448 -99 409 -148T314 -219T191 -240ZM268 124Q287 124 302 134T329 161T352 201T368 248T377 298T381 346Q381 382 367 403T327 425Q308 425 291 412T259 377T235 327T218 267T212
203Q212 164 227 144T268 124Z" />
<glyph unicode="h" horiz-adv-x="612" d="M15 0L176 760H342L315 633Q311 610 303 583T287 530T272 485H276Q295 509 316 525T364 550T420 559Q469 559 501 539T548 483T563 402Q563 380 560 355T552 303L488 0H322L387 311Q390 326 392 343T395 374Q395 401 383
413T350 426Q324 426 302 404T262 342T233 246L181 0H15Z" />
<glyph unicode="i" horiz-adv-x="310" d="M15 0L131 549H298L181 0H15ZM237 610Q202 610 178 624T154 674Q154 705 166 725T200 757T253 768Q286 768 310 754T335 704Q335 662 311 636T237 610Z" />
<glyph unicode="j" horiz-adv-x="310" d="M-37 -240Q-61 -240 -87 -237T-129 -228V-96Q-112 -101 -100 -103T-73 -105Q-53 -105 -36 -98T-7 -73T11 -27L134 549H300L172 -53Q162 -103 138 -145T72 -214T-37 -240ZM239 610Q204 610 181 624T157 674Q157 705 168
725T202 757T255 768Q288 768 313 754T338 704Q338 662 314 636T239 610Z" />
<glyph unicode="k" horiz-adv-x="591" d="M15 0L175 760H341L271 428Q266 402 256 370T241 320H245L452 549H642L400 301L537 0H350L271 199L216 168L181 0H15Z" />
<glyph unicode="l" horiz-adv-x="310" d="M15 0L176 760H342L181 0H15Z" />
<glyph unicode="m" horiz-adv-x="915" d="M15 0L131 549H261L252 453H256Q277 488 301 511T355 547T423 559Q479 559 510 531T552 453H556Q577 487 602 510T659 546T728 559Q796 559 831 517T866 399Q866 380 863 356T855 306L791 0H625L690 314Q693 328 695 343T698
375Q698 401 687 413T656 426Q634 426 616 413T583 376T557 319T537 245L487 0H320L386 314Q389 328 391 344T394 372Q394 401 383 413T352 426Q332 426 315 414T282 379T255 323T234 246L181 0H15Z" />
<glyph unicode="n" horiz-adv-x="612" d="M15 0L131 549H261L253 459H257Q277 491 300 513T353 547T420 559Q469 559 501 539T548 483T563 402Q563 380 560 355T552 303L488 0H322L387 311Q390 326 392 343T395 374Q395 401 383 413T350 426Q324 426 302 404T262
341T233 246L181 0H15Z" />
<glyph unicode="o" horiz-adv-x="595" d="M253 -10Q189 -10 142 15T69 88T43 201Q43 259 55 312T91 410T151 488T235 540T343 559Q409 559 455 534T527 461T553 345Q553 289 541 237T505 139T446 61T362 9T253 -10ZM270 120Q290 120 308 132T340 167T363 218T378
280T384 347Q384 373 378 391T360 419T327 429Q304 429 286 415T255 378T231 325T216 263T211 199Q211 160 226 140T270 120Z" />
<glyph unicode="p" horiz-adv-x="601" d="M-36 -240L131 549H261L254 476H258Q274 500 295 518T342 548T400 559Q444 559 480 538T537 472T558 358Q558 304 547 251T514 151T462 68T392 11T307 -10Q278 -10 256 0T218 27T188 66H184Q181 26 176 -9T161 -95L130
-240H-36ZM276 124Q295 124 312 137T343 172T367 222T383 283T389 346Q389 385 376 405T335 425Q315 425 299 415T271 386T248 345T232 297T223 248T220 203Q220 168 235 146T276 124Z" />
<glyph unicode="q" horiz-adv-x="600" d="M286 -85Q291 -61 298 -34T314 20T328 64H324Q309 45 290 28T247 0T190 -10Q154 -10 121 10T65 74T43 193Q43 241 53 292T84 390T134 476T204 536T292 559Q324 559 347 551T389 525T424 480H428L455 549H586L418 -240H251L286
-85ZM268 124Q287 124 303 135T331 164T353 205T369 254T378 303T381 346Q381 382 367 403T327 425Q307 425 291 412T260 377T235 327T218 267T212 203Q212 164 226 144T268 124Z" />
<glyph unicode="r" horiz-adv-x="428" d="M15 0L131 549H261L252 452H256Q279 489 304 512T358 547T424 559Q436 559 449 558T468 555L432 392Q423 396 409 398T377 401Q353 401 331 392T290 364T257 315T233 244L181 0H15Z" />
<glyph unicode="s" horiz-adv-x="486" d="M181 -10Q128 -10 87 -3T13 22V157Q54 134 92 124T172 113Q190 113 208 117T238 132T250 160Q250 173 244 183T222 205T171 236Q137 255 114 276T80 323T68 385Q68 439 93 478T166 538T285 559Q335 559 379 548T466 510L413
397Q385 415 352 427T287 440Q267 440 252 431T237 400Q237 389 243 380T265 362T307 338Q342 321 367 299T405 249T419 186Q419 121 390 77T307 12T181 -10Z" />
<glyph unicode="t" horiz-adv-x="432" d="M200 -10Q132 -10 94 19T56 119Q56 135 58 154T64 191L114 423H39L56 505L156 547L222 663H331L307 549H447L419 423H280L231 195Q229 185 228 175T226 158Q226 140 236 132T263 124Q283 124 303 129T347 144V19Q320 6
284 -2T200 -10Z" />
<glyph unicode="u" horiz-adv-x="612" d="M193 -10Q144 -10 113 10T66 66T51 147Q51 170 54 198T63 255L125 549H291L226 239Q222 224 220 207T218 175Q218 149 230 137T263 124Q289 124 311 146T350 209T380 303L432 549H598L482 0H352L360 90H355Q336 58 312
36T259 2T193 -10Z" />
<glyph unicode="v" horiz-adv-x="527" d="M116 0L47 549H211L228 267Q229 254 229 238T229 204T229 172H233Q238 186 244 202T256 235T268 261L406 549H585L288 0H116Z" />
<glyph unicode="w" horiz-adv-x="804" d="M84 0L56 549H212L213 294Q213 260 212 226T207 157H211Q217 177 225 201T241 246T253 278L363 549H541L534 283Q534 257 533 226T528 157H533Q539 178 547 203T565 252T581 295L690 549H857L597 0H415L416 238Q417 261
418 291T421 354T425 411H420Q412 385 402 355T382 298T364 252L261 0H84Z" />
<glyph unicode="x" horiz-adv-x="547" d="M-53 0L179 281L74 549H253L300 391L407 549H603L376 272L491 0H309L258 164L141 0H-53Z" />
<glyph unicode="y" horiz-adv-x="531" d="M7 -240Q-20 -240 -37 -238T-66 -231V-99Q-55 -101 -42 -103T-11 -105Q35 -105 63 -82T113 -19L125 3L45 549H211L234 296Q236 276 237 255T238 214T238 176H242Q248 192 254 211T269 250T286 291L405 549H584L255 -74Q225
-130 189 -167T108 -222T7 -240Z" />
<glyph unicode="z" horiz-adv-x="469" d="M-22 0L-3 97L262 420H79L107 549H487L464 442L204 129H405L377 0H-22Z" />
<glyph unicode="{" horiz-adv-x="357" d="M229 -158Q136 -158 97 -123T58 -31Q58 -14 60 1T65 31L84 119Q86 127 87 135T89 151Q89 184 67 201T-6 218L18 343Q77 343 108 363T150 430L178 560Q189 609 211 643T272 696T376 714H427L400 592Q364 591 342 578T312
525L283 389Q271 334 235 309T147 277V273Q189 260 209 232T230 164Q230 152 228 141T223 117L206 34Q205 27 204 21T203 9Q203 -16 218 -26T261 -36V-158H229Z" />
<glyph unicode="|" horiz-adv-x="558" d="M219 -227V757H338V-227H219Z" />
<glyph unicode="}" horiz-adv-x="357" d="M-54 -36Q-24 -34 -6 -29T24 -10T41 31L70 167Q82 222 117 247T206 279V283Q164 296 144 324T123 392Q123 404 125 415T129 439L147 522Q149 530 149 536T150 547Q150 571 133 581T81 592L104 714H126Q188 714 225 697T278
652T295 587Q295 571 293 556T288 525L269 437Q268 429 266 421T264 405Q264 372 288 355T362 338L338 213Q278 213 246 193T203 126L175 -4Q164 -53 142 -87T79 -140T-26 -158H-54V-36Z" />
<glyph unicode="~" horiz-adv-x="578" d="M276 295Q239 311 213 316T163 322Q135 322 105 305T49 263V388Q75 414 106 427T176 441Q205 441 234 436T312 410Q349 394 376 389T425 383Q454 383 484 400T539 442V317Q514 292 483 278T412 264Q383 264 354 270T276 295Z" />
<glyph unicode="&#xa0;" horiz-adv-x="260" />
<glyph unicode="&#xa1;" horiz-adv-x="294" d="M-44 -174L81 296H218L142 -174H-44ZM168 378Q130 378 109 397T88 451Q88 499 117 526T193 554Q240 554 258 532T276 483Q276 441 251 410T168 378Z" />
<glyph unicode="&#xa2;" horiz-adv-x="564" d="M210 93Q153 109 116 154T78 285Q78 342 89 393T121 488T172 565T241 620T327 649L343 724H444L427 649Q460 644 486 636T539 615L487 490Q458 502 433 510T377 518Q345 518 321 499T280 448T255 378T247 301Q247
259 266 238T319 217Q355 217 387 229T455 259V124Q422 107 387 97T307 83L287 -10H186L210 93Z" />
<glyph unicode="&#xa3;" horiz-adv-x="564" d="M20 135Q53 145 76 159T114 198T136 259L147 308H54L78 429H171L189 523Q203 596 234 640T313 704T421 725Q475 725 520 713T602 683L540 554Q510 569 483 577T429 586Q402 586 385 570T359 515L341 429H476L451
308H316L306 265Q296 218 268 188T206 143H514L484 0H-7L20 135Z" />
<glyph unicode="&#xa4;" horiz-adv-x="564" d="M382 179Q362 170 338 164T289 157Q263 157 240 162T195 179L134 120L55 199L117 260Q105 282 99 305T93 353Q93 379 99 402T117 446L54 508L134 588L196 527Q217 537 241 543T289 550Q314 550 337 544T382 525L444
588L526 510L463 447Q474 428 480 403T486 353Q486 327 481 304T463 259L523 198L444 119L382 179ZM289 269Q313 269 332 280T363 311T375 353Q375 377 364 396T333 426T289 437Q267 437 248 426T217 396T206 353Q206 330 217 311T247 281T289 269Z" />
<glyph unicode="&#xa5;" horiz-adv-x="564" d="M136 0L158 101H40L60 194H177L190 259H73L94 352H185L93 714H258L304 449L467 714H638L395 352H489L469 259H352L339 194H455L436 101H320L298 0H136Z" />
<glyph unicode="&#xa6;" horiz-adv-x="558" d="M220 352V756H338V352H220ZM220 -222V181H338V-222H220Z" />
<glyph unicode="&#xa7;" horiz-adv-x="495" d="M179 -11Q125 -11 84 0T14 30V145Q51 122 94 107T185 91Q230 91 249 108T269 147Q269 161 262 172T239 195T196 220Q159 240 132 262T90 312T75 374Q75 402 85 427T117 475T168 516Q149 534 137 558T124 610Q124
663 151 698T227 750T340 767Q389 767 431 755T512 721L468 620Q441 637 406 651T327 665Q308 665 294 660T272 645T265 620Q265 602 281 586T342 549Q385 530 411 508T449 459T461 400Q461 362 449 335T416 288T372 255Q390 237 401 213T412 159Q412 105 384 67T303
9T179 -11ZM289 306Q305 317 318 335T332 379Q332 397 323 412T296 440T251 464Q237 457 226 446T209 421T203 393Q203 376 213 362T242 334T289 306Z" />
<glyph unicode="&#xa8;" horiz-adv-x="554" d="M467 618Q436 618 416 630T396 675Q396 718 418 738T481 759Q508 759 529 748T551 702Q551 664 532 641T467 618ZM257 618Q226 618 206 630T185 675Q185 718 207 738T270 759Q288 759 304 754T331 737T341 702Q341
664 322 641T257 618Z" />
<glyph unicode="&#xa9;" horiz-adv-x="828" d="M414 -10Q334 -10 267 17T151 93T74 210T47 357Q47 435 74 501T151 618T268 696T414 724Q492 724 558 697T675 621T753 504T781 357Q781 277 754 210T678 94T561 17T414 -10ZM423 128Q318 128 266 191T213 358Q213
425 237 476T307 557T423 586Q460 586 495 577T561 552L525 470Q500 483 476 489T427 496Q377 496 350 460T322 357Q322 287 347 252T428 217Q455 217 485 224T543 245V155Q516 142 488 135T423 128ZM414 61Q476 61 528 83T619 144T680 238T702 357Q702 420 681
474T621 568T529 630T414 653Q351 653 298 632T206 571T146 477T124 357Q124 292 145 238T205 145T297 83T414 61Z" />
<glyph unicode="&#xaa;" horiz-adv-x="389" d="M176 361Q152 361 128 373T87 414T71 493Q71 529 81 568T112 641T165 698T240 720Q275 720 296 707T335 671H339L357 714H442L363 367H280L284 410H280Q261 389 236 375T176 361ZM225 442Q242 442 255 452T277 479T293
515T301 552T304 585Q304 607 295 623T265 639Q247 639 233 626T208 590T192 543T186 493Q186 469 196 456T225 442Z" />
<glyph unicode="&#xab;" horiz-adv-x="590" d="M127 41L33 269V277L230 515L340 428L206 265L267 99L127 41ZM381 41L284 276V283L485 516L594 428L458 271L521 99L381 41Z" />
<glyph unicode="&#xac;" horiz-adv-x="578" d="M539 412V119H420V293H49V412H539Z" />
<glyph unicode="&#xad;" horiz-adv-x="325" d="M16 200L44 336H307L278 200H16Z" />
<glyph unicode="&#xae;" horiz-adv-x="828" d="M264 145V580H399Q491 580 532 546T573 447Q573 398 551 371T499 331L605 145H494L410 307H368V145H264ZM398 383Q432 383 450 398T468 444Q468 474 451 486T398 499H368V383H398ZM414 -10Q334 -10 267 17T151 93T74
210T47 357Q47 435 74 501T151 618T268 696T414 724Q492 724 558 697T675 621T753 504T781 357Q781 277 754 210T678 94T561 17T414 -10ZM414 61Q476 61 528 83T619 144T680 238T702 357Q702 420 681 474T621 568T529 630T414 653Q351 653 298 632T206 571T146
477T124 357Q124 292 145 238T205 145T297 83T414 61Z" />
<glyph unicode="&#xaf;" horiz-adv-x="477" d="M93 760L118 868H600L575 760H93Z" />
<glyph unicode="&#xb0;" horiz-adv-x="425" d="M213 377Q161 377 121 399T58 460T35 550Q35 600 58 639T121 701T213 724Q265 724 304 702T366 640T389 550Q389 499 367 460T305 399T213 377ZM213 481Q243 481 263 500T283 550Q283 583 263 602T213 621Q183 621
163 602T142 550Q142 519 162 500T213 481Z" />
<glyph unicode="&#xb1;" horiz-adv-x="578" d="M49 0V118H539V0H49ZM353 448H539V329H353V147H235V329H49V448H235V632H353V448Z" />
<glyph unicode="&#xb2;" horiz-adv-x="395" d="M58 415L77 505L211 610Q244 635 264 653T294 687T304 717Q304 734 294 742T268 750Q248 750 225 741T176 711L122 795Q160 824 201 838T302 853Q343 853 374 840T423 802T441 746Q441 707 425 678T378 621T298 561L247
525H410L387 415H58Z" />
<glyph unicode="&#xb3;" horiz-adv-x="395" d="M218 408Q174 408 139 415T78 438V540Q107 521 139 512T202 502Q238 502 260 514T282 551Q282 567 270 578T226 590H166L185 676H230Q255 676 274 681T303 697T313 725Q313 742 302 750T271 759Q250 759 229 752T179
727L135 807Q172 831 209 842T295 853Q341 853 372 840T420 804T437 750Q437 699 406 674T328 638V634Q371 624 388 602T406 547Q406 504 382 473T314 425T218 408Z" />
<glyph unicode="&#xb4;" horiz-adv-x="358" d="M113 618Q132 636 154 662T197 715T234 766H421V758Q410 745 388 725T337 682T280 640T232 606H113V618Z" />
<glyph unicode="&#xb5;" horiz-adv-x="619" d="M-36 -240L131 549H298L233 241Q229 226 227 208T225 176Q225 151 238 138T271 124Q301 124 322 145T359 207T386 302L438 549H605L488 0H364L370 74H365Q351 47 334 28T296 0T253 -10Q228 -10 211 0T184 25H180Q178
5 175 -16T169 -58T160 -101L131 -240H-36Z" />
<glyph unicode="&#xb6;" horiz-adv-x="649" d="M333 273Q318 269 303 267T267 264Q221 264 183 276T118 317T77 393T62 509Q62 581 78 629T123 706T192 747T282 760H583V-127H498V656H419V-127H333V273Z" />
<glyph unicode="&#xb7;" horiz-adv-x="295" d="M141 265Q100 265 80 285T60 337Q60 383 88 412T169 442Q205 442 227 424T249 368Q249 317 220 291T141 265Z" />
<glyph unicode="&#xb8;" horiz-adv-x="197" d="M-21 -240Q-47 -240 -68 -237T-104 -228V-137Q-90 -142 -71 -145T-37 -149Q-23 -149 -14 -146T0 -135T5 -117Q5 -101 -9 -89T-65 -71L-23 0H72L56 -28Q89 -37 111 -58T134 -119Q134 -155 117 -182T66 -224T-21 -240Z" />
<glyph unicode="&#xb9;" horiz-adv-x="395" d="M217 602Q225 634 232 660T244 703Q235 695 224 686T207 674L146 635L92 720L293 843H404L313 415H177L217 602Z" />
<glyph unicode="&#xba;" horiz-adv-x="382" d="M221 360Q153 360 117 397T80 503Q80 547 92 586T128 655T190 703T276 721Q345 721 380 682T416 576Q416 540 406 502T372 432T312 380T221 360ZM231 450Q248 450 261 462T282 494T295 537T299 582Q299 606 291 619T265
632Q248 632 235 619T214 586T201 543T196 500Q196 474 205 462T231 450Z" />
<glyph unicode="&#xbb;" horiz-adv-x="590" d="M360 33L250 120L384 283L323 450L463 508L557 279V272L360 33ZM105 32L-3 120L132 277L70 450L209 508L306 273V265L105 32Z" />
<glyph unicode="&#xbc;" horiz-adv-x="879" d="M127 0L659 714H786L257 0H127ZM202 472Q210 504 217 530T229 573Q220 565 209 556T192 544L131 505L77 590L278 713H389L298 285H162L202 472ZM625 0L640 68H452L467 154L703 431H844L786 157H842L824 68H767L753
0H625ZM576 157H658L678 236Q683 256 688 274T699 309Q694 300 685 289T668 267T653 248L576 157Z" />
<glyph unicode="&#xbd;" horiz-adv-x="931" d="M122 0L654 714H781L252 0H122ZM202 472Q210 504 217 530T229 573Q220 565 209 556T192 544L131 505L77 590L278 713H389L298 285H162L202 472ZM507 -1L526 89L660 194Q693 219 713 237T743 271T753 301Q753 318
743 326T717 334Q697 334 674 325T625 295L571 379Q609 408 650 422T751 437Q792 437 823 424T872 386T890 330Q890 291 874 262T827 205T747 145L696 109H859L836 -1H507Z" />
<glyph unicode="&#xbe;" horiz-adv-x="905" d="M193 279Q149 279 114 286T53 309V411Q82 392 114 383T177 373Q213 373 235 385T257 422Q257 438 245 449T201 461H141L160 547H205Q230 547 249 552T278 568T288 596Q288 613 277 621T246 630Q225 630 204 623T154
598L110 678Q147 702 184 713T270 724Q316 724 347 711T395 675T412 621Q412 570 381 545T303 509V505Q346 495 363 473T381 418Q381 375 357 344T289 296T193 279ZM154 0L686 714H813L284 0H154ZM651 0L666 68H478L493 154L729 431H870L812 157H868L850 68H793L779
0H651ZM602 157H684L704 236Q709 256 714 274T725 309Q720 300 711 289T694 267T679 248L602 157Z" />
<glyph unicode="&#xbf;" horiz-adv-x="472" d="M348 299Q340 249 326 215T286 153T219 97Q187 76 168 61T140 31T132 0Q132 -21 145 -34T187 -47Q219 -47 256 -34T339 4L390 -118Q344 -144 288 -162T169 -181Q76 -181 23 -138T-30 -18Q-30 34 -11 69T41 131T111
183Q145 204 162 220T189 254T207 299H348ZM316 555Q362 555 380 533T398 484Q398 442 373 411T290 379Q253 379 232 398T210 452Q210 500 239 527T316 555Z" />
<glyph unicode="&#xc0;" horiz-adv-x="650" d="M-60 0L309 714H521L587 0H423L415 153H189L116 0H-60ZM254 292H408L398 486Q396 512 395 539T395 593H392Q384 568 374 544T350 492L254 292ZM415 771Q394 791 371 817T327 871T295 921V931H465Q471 909 478 884T495
834T517 783V771H415Z" />
<glyph unicode="&#xc1;" horiz-adv-x="650" d="M-60 0L309 714H521L587 0H423L415 153H189L116 0H-60ZM254 292H408L398 486Q396 512 395 539T395 593H392Q384 568 374 544T350 492L254 292ZM342 783Q361 801 383 827T426 880T463 931H650V923Q639 910 617 890T566
847T509 805T461 771H342V783Z" />
<glyph unicode="&#xc2;" horiz-adv-x="650" d="M-60 0L309 714H521L587 0H423L415 153H189L116 0H-60ZM254 292H408L398 486Q396 512 395 539T395 593H392Q384 568 374 544T350 492L254 292ZM211 783Q232 802 259 828T313 882T358 931H547Q557 908 572 881T603
829T634 783V771H522Q511 781 497 795T469 826T444 854Q416 831 388 811T329 771H211V783Z" />
<glyph unicode="&#xc3;" horiz-adv-x="650" d="M-60 0L309 714H521L587 0H423L415 153H189L116 0H-60ZM254 292H408L398 486Q396 512 395 539T395 593H392Q384 568 374 544T350 492L254 292ZM233 770Q243 826 263 860T312 911T377 928Q400 928 418 921T453 903T484
886T515 878Q532 878 545 890T569 929H657Q645 872 624 837T575 787T509 771Q485 771 466 778T431 796T400 813T368 820Q353 820 340 807T321 770H233Z" />
<glyph unicode="&#xc4;" horiz-adv-x="650" d="M-60 0L309 714H521L587 0H423L415 153H189L116 0H-60ZM254 292H408L398 486Q396 512 395 539T395 593H392Q384 568 374 544T350 492L254 292ZM541 783Q510 783 490 795T470 840Q470 883 492 903T555 924Q582 924
603 913T625 867Q625 829 606 806T541 783ZM331 783Q300 783 280 795T259 840Q259 883 281 903T344 924Q362 924 378 919T405 902T415 867Q415 829 396 806T331 783Z" />
<glyph unicode="&#xc5;" horiz-adv-x="650" d="M-60 0L309 714H521L587 0H423L415 153H189L116 0H-60ZM254 292H408L398 486Q396 512 395 539T395 593H392Q384 568 374 544T350 492L254 292ZM440 770Q384 770 349 801T314 889Q314 945 349 976T440 1008Q493 1008
530 977T567 890Q567 833 531 802T440 770ZM440 845Q459 845 472 857T485 889Q485 909 472 921T440 933Q422 933 409 921T395 889Q395 869 406 857T440 845Z" />
<glyph unicode="&#xc6;" horiz-adv-x="919" d="M-60 0L387 714H950L921 576H679L651 439H877L846 301H620L586 140H828L799 0H389L421 153H215L119 0H-60ZM304 296H452L510 576H474L304 296Z" />
<glyph unicode="&#xc7;" horiz-adv-x="620" d="M319 -10Q231 -10 173 24T85 122T56 269Q56 333 70 397T113 520T187 625T294 698T436 725Q506 725 558 711T658 668L594 534Q554 557 517 570T436 584Q394 584 361 566T302 518T260 448T235 365T227 278Q227 204
257 168T351 131Q393 131 434 142T523 172V31Q483 14 432 2T319 -10ZM274 -240Q248 -240 227 -237T191 -228V-137Q205 -142 224 -145T258 -149Q272 -149 281 -146T295 -135T300 -117Q300 -101 286 -89T230 -71L272 0H367L351 -28Q384 -37 406 -58T429 -119Q429
-155 412 -182T361 -224T274 -240Z" />
<glyph unicode="&#xc8;" horiz-adv-x="551" d="M21 0L172 714H583L554 576H312L284 439H509L479 301H253L219 140H461L432 0H21ZM372 771Q351 791 328 817T284 871T252 921V931H422Q428 909 435 884T452 834T474 783V771H372Z" />
<glyph unicode="&#xc9;" horiz-adv-x="551" d="M21 0L172 714H583L554 576H312L284 439H509L479 301H253L219 140H461L432 0H21ZM299 783Q318 801 340 827T383 880T420 931H607V923Q596 910 574 890T523 847T466 805T418 771H299V783Z" />
<glyph unicode="&#xca;" horiz-adv-x="551" d="M21 0L172 714H583L554 576H312L284 439H509L479 301H253L219 140H461L432 0H21ZM168 783Q189 802 216 828T270 882T315 931H504Q514 908 529 881T560 829T591 783V771H479Q468 781 454 795T426 826T401 854Q373
831 345 811T286 771H168V783Z" />
<glyph unicode="&#xcb;" horiz-adv-x="551" d="M21 0L172 714H583L554 576H312L284 439H509L479 301H253L219 140H461L432 0H21ZM498 783Q467 783 447 795T427 840Q427 883 449 903T512 924Q539 924 560 913T582 867Q582 829 563 806T498 783ZM288 783Q257 783
237 795T216 840Q216 883 238 903T301 924Q319 924 335 919T362 902T372 867Q372 829 353 806T288 783Z" />
<glyph unicode="&#xcc;" horiz-adv-x="403" d="M-32 0L-12 97L80 136L174 576L98 617L118 714H458L438 617L342 576L249 136L326 97L306 0H-32ZM284 771Q263 791 240 817T196 871T164 921V931H334Q340 909 347 884T364 834T386 783V771H284Z" />
<glyph unicode="&#xcd;" horiz-adv-x="403" d="M-32 0L-12 97L80 136L174 576L98 617L118 714H458L438 617L342 576L249 136L326 97L306 0H-32ZM211 783Q230 801 252 827T295 880T332 931H519V923Q508 910 486 890T435 847T378 805T330 771H211V783Z" />
<glyph unicode="&#xce;" horiz-adv-x="403" d="M-32 0L-12 97L80 136L174 576L98 617L118 714H458L438 617L342 576L249 136L326 97L306 0H-32ZM80 783Q101 802 128 828T182 882T227 931H416Q426 908 441 881T472 829T503 783V771H391Q380 781 366 795T338 826T313
854Q285 831 257 811T198 771H80V783Z" />
<glyph unicode="&#xcf;" horiz-adv-x="403" d="M-32 0L-12 97L80 136L174 576L98 617L118 714H458L438 617L342 576L249 136L326 97L306 0H-32ZM410 783Q379 783 359 795T339 840Q339 883 361 903T424 924Q451 924 472 913T494 867Q494 829 475 806T410 783ZM200
783Q169 783 149 795T128 840Q128 883 150 903T213 924Q231 924 247 919T274 902T284 867Q284 829 265 806T200 783Z" />
<glyph unicode="&#xd0;" horiz-adv-x="680" d="M12 284L42 422H382L353 284H12ZM21 0L172 714H370Q501 714 575 645T649 444Q649 362 632 293T581 170T498 78T386 20T246 0H21ZM263 140Q305 140 339 155T399 196T442 260T469 341T478 435Q478 506 446 540T358
575H312L219 140H263Z" />
<glyph unicode="&#xd1;" horiz-adv-x="771" d="M21 0L172 714H369L523 209H527Q530 231 535 264T546 332T557 394L626 714H776L625 0H433L274 522H269Q268 515 266 492T259 438T250 376T239 318L172 0H21ZM299 770Q309 826 329 860T378 911T443 928Q466 928 484
921T519 903T550 886T581 878Q598 878 611 890T635 929H723Q711 872 690 837T641 787T575 771Q551 771 532 778T497 796T466 813T434 820Q419 820 406 807T387 770H299Z" />
<glyph unicode="&#xd2;" horiz-adv-x="733" d="M325 -10Q236 -10 176 24T86 119T56 263Q56 319 66 374T96 481T148 577T222 654T319 706T438 725Q569 725 635 651T702 454Q702 398 693 342T663 233T612 137T539 60T444 9T325 -10ZM339 131Q365 131 390 141T436
172T475 221T505 285T524 363T531 451Q531 513 504 548T424 584Q395 584 369 572T321 538T282 486T252 420T233 345T227 264Q227 221 240 192T278 147T339 131ZM454 771Q433 791 410 817T366 871T334 921V931H504Q510 909 517 884T534 834T556 783V771H454Z" />
<glyph unicode="&#xd3;" horiz-adv-x="733" d="M325 -10Q236 -10 176 24T86 119T56 263Q56 319 66 374T96 481T148 577T222 654T319 706T438 725Q569 725 635 651T702 454Q702 398 693 342T663 233T612 137T539 60T444 9T325 -10ZM339 131Q365 131 390 141T436
172T475 221T505 285T524 363T531 451Q531 513 504 548T424 584Q395 584 369 572T321 538T282 486T252 420T233 345T227 264Q227 221 240 192T278 147T339 131ZM380 783Q399 801 421 827T464 880T501 931H688V923Q677 910 655 890T604 847T547 805T499 771H380V783Z"
/>
<glyph unicode="&#xd4;" horiz-adv-x="733" d="M325 -10Q236 -10 176 24T86 119T56 263Q56 319 66 374T96 481T148 577T222 654T319 706T438 725Q569 725 635 651T702 454Q702 398 693 342T663 233T612 137T539 60T444 9T325 -10ZM339 131Q365 131 390 141T436
172T475 221T505 285T524 363T531 451Q531 513 504 548T424 584Q395 584 369 572T321 538T282 486T252 420T233 345T227 264Q227 221 240 192T278 147T339 131ZM249 783Q270 802 297 828T351 882T396 931H585Q595 908 610 881T641 829T672 783V771H560Q549 781
535 795T507 826T482 854Q454 831 426 811T367 771H249V783Z" />
<glyph unicode="&#xd5;" horiz-adv-x="733" d="M325 -10Q236 -10 176 24T86 119T56 263Q56 319 66 374T96 481T148 577T222 654T319 706T438 725Q569 725 635 651T702 454Q702 398 693 342T663 233T612 137T539 60T444 9T325 -10ZM339 131Q365 131 390 141T436
172T475 221T505 285T524 363T531 451Q531 513 504 548T424 584Q395 584 369 572T321 538T282 486T252 420T233 345T227 264Q227 221 240 192T278 147T339 131ZM272 770Q282 826 302 860T351 911T416 928Q439 928 457 921T492 903T523 886T554 878Q571 878 584
890T608 929H696Q684 872 663 837T614 787T548 771Q524 771 505 778T470 796T439 813T407 820Q392 820 379 807T360 770H272Z" />
<glyph unicode="&#xd6;" horiz-adv-x="733" d="M325 -10Q236 -10 176 24T86 119T56 263Q56 319 66 374T96 481T148 577T222 654T319 706T438 725Q569 725 635 651T702 454Q702 398 693 342T663 233T612 137T539 60T444 9T325 -10ZM339 131Q365 131 390 141T436
172T475 221T505 285T524 363T531 451Q531 513 504 548T424 584Q395 584 369 572T321 538T282 486T252 420T233 345T227 264Q227 221 240 192T278 147T339 131ZM586 783Q555 783 535 795T515 840Q515 883 537 903T600 924Q627 924 648 913T670 867Q670 829 651
806T586 783ZM376 783Q345 783 325 795T304 840Q304 883 326 903T389 924Q407 924 423 919T450 902T460 867Q460 829 441 806T376 783Z" />
<glyph unicode="&#xd7;" horiz-adv-x="578" d="M434 575L517 495L375 353L515 212L434 131L292 271L152 132L72 213L210 353L71 493L152 575L292 437L434 575Z" />
<glyph unicode="&#xd8;" horiz-adv-x="733" d="M124 -42L48 14L106 87Q81 122 69 166T56 263Q56 319 66 374T96 481T148 577T221 654T316 706T434 725Q480 725 517 716T585 689L633 749L708 692L655 625Q679 591 690 548T702 454Q702 398 693 342T663 233T612
137T540 60T446 9T329 -10Q283 -10 245 -1T177 25L124 -42ZM340 130Q368 130 393 140T439 170T478 217T508 279T527 355T534 441Q534 448 534 456T533 472L274 146Q286 138 303 134T340 130ZM488 567Q476 576 459 581T421 586Q392 586 366 575T319 542T279 492T249
428T231 354T225 274Q225 265 225 256T227 236L488 567Z" />
<glyph unicode="&#xd9;" horiz-adv-x="696" d="M296 -10Q222 -10 171 16T92 88T65 194Q65 209 66 227T72 263L168 714H337L242 266Q238 251 236 236T234 208Q234 172 254 152T313 132Q350 132 374 147T415 193T441 272L535 714H704L606 255Q589 174 553 115T454
23T296 -10ZM431 771Q410 791 387 817T343 871T311 921V931H481Q487 909 494 884T511 834T533 783V771H431Z" />
<glyph unicode="&#xda;" horiz-adv-x="696" d="M296 -10Q222 -10 171 16T92 88T65 194Q65 209 66 227T72 263L168 714H337L242 266Q238 251 236 236T234 208Q234 172 254 152T313 132Q350 132 374 147T415 193T441 272L535 714H704L606 255Q589 174 553 115T454
23T296 -10ZM357 783Q376 801 398 827T441 880T478 931H665V923Q654 910 632 890T581 847T524 805T476 771H357V783Z" />
<glyph unicode="&#xdb;" horiz-adv-x="696" d="M296 -10Q222 -10 171 16T92 88T65 194Q65 209 66 227T72 263L168 714H337L242 266Q238 251 236 236T234 208Q234 172 254 152T313 132Q350 132 374 147T415 193T441 272L535 714H704L606 255Q589 174 553 115T454
23T296 -10ZM226 783Q247 802 274 828T328 882T373 931H562Q572 908 587 881T618 829T649 783V771H537Q526 781 512 795T484 826T459 854Q431 831 403 811T344 771H226V783Z" />
<glyph unicode="&#xdc;" horiz-adv-x="696" d="M296 -10Q222 -10 171 16T92 88T65 194Q65 209 66 227T72 263L168 714H337L242 266Q238 251 236 236T234 208Q234 172 254 152T313 132Q350 132 374 147T415 193T441 272L535 714H704L606 255Q589 174 553 115T454
23T296 -10ZM563 783Q532 783 512 795T492 840Q492 883 514 903T577 924Q604 924 625 913T647 867Q647 829 628 806T563 783ZM353 783Q322 783 302 795T281 840Q281 883 303 903T366 924Q384 924 400 919T427 902T437 867Q437 829 418 806T353 783Z" />
<glyph unicode="&#xdd;" horiz-adv-x="582" d="M143 0L201 275L86 714H259L313 436L482 714H670L369 275L311 0H143ZM292 783Q311 801 333 827T376 880T413 931H600V923Q589 910 567 890T516 847T459 805T411 771H292V783Z" />
<glyph unicode="&#xde;" horiz-adv-x="614" d="M21 0L172 714H341L318 606H346Q433 606 486 579T562 504T586 395Q586 331 563 283T498 203T399 155T274 139H219L190 0H21ZM291 278Q329 278 357 290T401 328T417 390Q417 426 395 446T332 467H289L249 278H291Z" />
<glyph unicode="&#xdf;" horiz-adv-x="684" d="M-38 -240Q-60 -240 -85 -237T-127 -228V-96Q-112 -100 -98 -102T-71 -105Q-38 -105 -18 -88T11 -30L133 546Q148 619 181 667T273 740T421 765Q536 765 596 718T657 594Q657 553 645 524T609 472T549 430Q517 413
505 400T492 374Q492 363 500 354T523 335T557 310Q592 284 612 253T632 176Q632 126 608 84T532 16T398 -10Q352 -10 319 -3T258 16V147Q285 132 320 122T387 112Q428 112 446 126T464 160Q464 172 459 182T440 204T399 236Q355 266 337 295T318 358Q318 392 330
415T364 456T419 492Q442 504 456 516T478 542T486 572Q486 597 469 615T407 634Q374 634 352 621T317 585T297 531L174 -56Q163 -109 138 -151T71 -216T-38 -240Z" />
<glyph unicode="&#xe0;" horiz-adv-x="600" d="M198 -10Q158 -10 122 9T65 74T43 194Q43 241 53 292T84 390T134 476T205 536T292 559Q326 559 350 550T393 522T424 480H428L455 549H586L469 0H340L346 66H342Q326 44 305 27T258 0T198 -10ZM265 124Q292 124 314
146T352 203T375 277Q378 295 379 312T381 350Q381 383 367 404T326 425Q307 425 291 412T259 377T234 327T218 267T212 203Q212 164 225 144T265 124ZM354 606Q333 626 310 652T266 706T234 756V766H404Q410 744 417 719T434 669T456 618V606H354Z" />
<glyph unicode="&#xe1;" horiz-adv-x="600" d="M198 -10Q158 -10 122 9T65 74T43 194Q43 241 53 292T84 390T134 476T205 536T292 559Q326 559 350 550T393 522T424 480H428L455 549H586L469 0H340L346 66H342Q326 44 305 27T258 0T198 -10ZM265 124Q292 124 314
146T352 203T375 277Q378 295 379 312T381 350Q381 383 367 404T326 425Q307 425 291 412T259 377T234 327T218 267T212 203Q212 164 225 144T265 124ZM281 618Q300 636 322 662T365 715T402 766H589V758Q578 745 556 725T505 682T448 640T400 606H281V618Z" />
<glyph unicode="&#xe2;" horiz-adv-x="600" d="M198 -10Q158 -10 122 9T65 74T43 194Q43 241 53 292T84 390T134 476T205 536T292 559Q326 559 350 550T393 522T424 480H428L455 549H586L469 0H340L346 66H342Q326 44 305 27T258 0T198 -10ZM265 124Q292 124 314
146T352 203T375 277Q378 295 379 312T381 350Q381 383 367 404T326 425Q307 425 291 412T259 377T234 327T218 267T212 203Q212 164 225 144T265 124ZM150 618Q171 637 198 663T252 717T297 766H486Q496 743 511 716T542 664T573 618V606H461Q450 616 436 630T408
661T383 689Q355 666 327 646T268 606H150V618Z" />
<glyph unicode="&#xe3;" horiz-adv-x="600" d="M198 -10Q158 -10 122 9T65 74T43 194Q43 241 53 292T84 390T134 476T205 536T292 559Q326 559 350 550T393 522T424 480H428L455 549H586L469 0H340L346 66H342Q326 44 305 27T258 0T198 -10ZM265 124Q292 124 314
146T352 203T375 277Q378 295 379 312T381 350Q381 383 367 404T326 425Q307 425 291 412T259 377T234 327T218 267T212 203Q212 164 225 144T265 124ZM172 605Q182 661 202 695T251 746T316 763Q339 763 357 756T392 738T423 721T454 713Q471 713 484 725T508
764H596Q584 707 563 672T514 622T448 606Q424 606 405 613T370 631T339 648T307 655Q292 655 279 642T260 605H172Z" />
<glyph unicode="&#xe4;" horiz-adv-x="600" d="M198 -10Q158 -10 122 9T65 74T43 194Q43 241 53 292T84 390T134 476T205 536T292 559Q326 559 350 550T393 522T424 480H428L455 549H586L469 0H340L346 66H342Q326 44 305 27T258 0T198 -10ZM265 124Q292 124 314
146T352 203T375 277Q378 295 379 312T381 350Q381 383 367 404T326 425Q307 425 291 412T259 377T234 327T218 267T212 203Q212 164 225 144T265 124ZM480 618Q449 618 429 630T409 675Q409 718 431 738T494 759Q521 759 542 748T564 702Q564 664 545 641T480
618ZM270 618Q239 618 219 630T198 675Q198 718 220 738T283 759Q301 759 317 754T344 737T354 702Q354 664 335 641T270 618Z" />
<glyph unicode="&#xe5;" horiz-adv-x="600" d="M198 -10Q158 -10 122 9T65 74T43 194Q43 241 53 292T84 390T134 476T205 536T292 559Q326 559 350 550T393 522T424 480H428L455 549H586L469 0H340L346 66H342Q326 44 305 27T258 0T198 -10ZM265 124Q292 124 314
146T352 203T375 277Q378 295 379 312T381 350Q381 383 367 404T326 425Q307 425 291 412T259 377T234 327T218 267T212 203Q212 164 225 144T265 124ZM379 605Q323 605 288 636T253 724Q253 780 288 811T379 843Q432 843 469 812T506 725Q506 668 470 637T379
605ZM379 680Q398 680 411 692T424 724Q424 744 411 756T379 768Q361 768 348 756T334 724Q334 704 345 692T379 680Z" />
<glyph unicode="&#xe6;" horiz-adv-x="872" d="M196 -10Q153 -10 118 11T63 78T43 194Q43 243 53 295T85 394T136 478T205 537T291 559Q324 559 347 550T388 524T421 480H425L453 549H549L544 504Q567 529 604 544T683 559Q761 559 805 517T849 408Q849 364 831
328T775 266T679 226T543 212H516Q515 208 515 205T515 198Q515 160 537 137T609 113Q648 113 687 125T765 157V36Q727 16 684 3T586 -10Q537 -10 504 3T449 46L437 0H337L343 66H338Q321 44 301 27T256 0T196 -10ZM264 124Q282 124 299 135T329 167T353 213T370
269Q374 287 376 307T378 346Q378 382 364 403T323 425Q303 425 287 412T256 377T233 327T218 267T212 203Q212 162 226 143T264 124ZM552 320Q602 320 632 331T676 362T690 401Q690 421 679 432T644 443Q619 443 596 426T557 381T533 320H552Z" />
<glyph unicode="&#xe7;" horiz-adv-x="493" d="M247 -10Q191 -10 145 11T71 80T43 203Q43 262 56 315T93 412T152 490T234 541T335 559Q385 559 425 550T504 522L452 397Q426 408 399 417T342 426Q310 426 286 407T244 356T219 287T211 215Q211 183 219 163T244
134T284 124Q320 124 352 135T420 165V31Q383 12 342 1T247 -10ZM179 -240Q153 -240 132 -237T96 -228V-137Q110 -142 129 -145T163 -149Q177 -149 186 -146T200 -135T205 -117Q205 -101 191 -89T135 -71L177 0H272L256 -28Q289 -37 311 -58T334 -119Q334 -155
317 -182T266 -224T179 -240Z" />
<glyph unicode="&#xe8;" horiz-adv-x="567" d="M260 -10Q193 -10 145 14T70 87T43 205Q43 273 62 336T120 450T217 529T353 559Q446 559 495 517T544 408Q544 364 525 328T469 266T374 226T237 212H211Q210 208 210 205T210 197Q210 157 233 135T299 113Q342 113
378 124T460 157V36Q416 14 371 2T260 -10ZM246 320Q297 320 327 331T371 362T385 401Q385 421 373 432T339 443Q314 443 291 426T252 381T228 320H246ZM344 606Q323 626 300 652T256 706T224 756V766H394Q400 744 407 719T424 669T446 618V606H344Z" />
<glyph unicode="&#xe9;" horiz-adv-x="567" d="M260 -10Q193 -10 145 14T70 87T43 205Q43 273 62 336T120 450T217 529T353 559Q446 559 495 517T544 408Q544 364 525 328T469 266T374 226T237 212H211Q210 208 210 205T210 197Q210 157 233 135T299 113Q342 113
378 124T460 157V36Q416 14 371 2T260 -10ZM246 320Q297 320 327 331T371 362T385 401Q385 421 373 432T339 443Q314 443 291 426T252 381T228 320H246ZM270 618Q289 636 311 662T354 715T391 766H578V758Q567 745 545 725T494 682T437 640T389 606H270V618Z" />
<glyph unicode="&#xea;" horiz-adv-x="567" d="M260 -10Q193 -10 145 14T70 87T43 205Q43 273 62 336T120 450T217 529T353 559Q446 559 495 517T544 408Q544 364 525 328T469 266T374 226T237 212H211Q210 208 210 205T210 197Q210 157 233 135T299 113Q342 113
378 124T460 157V36Q416 14 371 2T260 -10ZM246 320Q297 320 327 331T371 362T385 401Q385 421 373 432T339 443Q314 443 291 426T252 381T228 320H246ZM139 618Q160 637 187 663T241 717T286 766H475Q485 743 500 716T531 664T562 618V606H450Q439 616 425 630T397
661T372 689Q344 666 316 646T257 606H139V618Z" />
<glyph unicode="&#xeb;" horiz-adv-x="567" d="M260 -10Q193 -10 145 14T70 87T43 205Q43 273 62 336T120 450T217 529T353 559Q446 559 495 517T544 408Q544 364 525 328T469 266T374 226T237 212H211Q210 208 210 205T210 197Q210 157 233 135T299 113Q342 113
378 124T460 157V36Q416 14 371 2T260 -10ZM246 320Q297 320 327 331T371 362T385 401Q385 421 373 432T339 443Q314 443 291 426T252 381T228 320H246ZM470 618Q439 618 419 630T399 675Q399 718 421 738T484 759Q511 759 532 748T554 702Q554 664 535 641T470
618ZM260 618Q229 618 209 630T188 675Q188 718 210 738T273 759Q291 759 307 754T334 737T344 702Q344 664 325 641T260 618Z" />
<glyph unicode="&#xec;" horiz-adv-x="310" d="M15 0L131 549H298L181 0H15ZM466 606Q445 626 422 652T378 706T346 756V766H516Q522 744 529 719T546 669T568 618V606H466Z" />
<glyph unicode="&#xed;" horiz-adv-x="310" d="M15 0L131 549H298L181 0H15ZM137 618Q156 636 178 662T221 715T258 766H445V758Q434 745 412 725T361 682T304 640T256 606H137V618Z" />
<glyph unicode="&#xee;" horiz-adv-x="310" d="M15 0L131 549H298L181 0H15ZM262 618Q283 637 310 663T364 717T409 766H598Q608 743 623 716T654 664T685 618V606H573Q562 616 548 630T520 661T495 689Q467 666 439 646T380 606H262V618Z" />
<glyph unicode="&#xef;" horiz-adv-x="310" d="M15 0L131 549H298L181 0H15ZM336 618Q305 618 285 630T265 675Q265 718 287 738T350 759Q377 759 398 748T420 702Q420 664 401 641T336 618ZM126 618Q95 618 75 630T54 675Q54 718 76 738T139 759Q157 759 173
754T200 737T210 702Q210 664 191 641T126 618Z" />
<glyph unicode="&#xf0;" horiz-adv-x="571" d="M252 -10Q188 -10 140 13T65 84T38 203Q38 262 54 314T103 405T181 467T286 490Q331 490 358 474T401 437L406 438Q402 474 390 510T355 573L233 510L191 586L293 639Q282 650 268 659T239 677L296 766Q328 752 357
735T409 699L525 758L564 681L471 633Q497 601 513 559T537 469T545 370Q545 307 535 251T503 147T447 64T364 10T252 -10ZM264 112Q284 112 300 123T329 152T351 193T364 240T369 287Q369 305 366 320T355 345T337 362T311 368Q284 368 264 351T230 307T211 250T205
191Q205 153 220 133T264 112Z" />
<glyph unicode="&#xf1;" horiz-adv-x="612" d="M15 0L131 549H261L253 459H257Q277 491 300 513T353 547T420 559Q469 559 501 539T548 483T563 402Q563 380 560 355T552 303L488 0H322L387 311Q390 326 392 343T395 374Q395 401 383 413T350 426Q324 426 302
404T262 341T233 246L181 0H15ZM183 605Q193 661 213 695T262 746T327 763Q350 763 368 756T403 738T434 721T465 713Q482 713 495 725T519 764H607Q595 707 574 672T525 622T459 606Q435 606 416 613T381 631T350 648T318 655Q303 655 290 642T271 605H183Z" />
<glyph unicode="&#xf2;" horiz-adv-x="595" d="M253 -10Q189 -10 142 15T69 88T43 201Q43 259 55 312T91 410T151 488T235 540T343 559Q409 559 455 534T527 461T553 345Q553 289 541 237T505 139T446 61T362 9T253 -10ZM270 120Q290 120 308 132T340 167T363
218T378 280T384 347Q384 373 378 391T360 419T327 429Q304 429 286 415T255 378T231 325T216 263T211 199Q211 160 226 140T270 120ZM346 606Q325 626 302 652T258 706T226 756V766H396Q402 744 409 719T426 669T448 618V606H346Z" />
<glyph unicode="&#xf3;" horiz-adv-x="595" d="M253 -10Q189 -10 142 15T69 88T43 201Q43 259 55 312T91 410T151 488T235 540T343 559Q409 559 455 534T527 461T553 345Q553 289 541 237T505 139T446 61T362 9T253 -10ZM270 120Q290 120 308 132T340 167T363
218T378 280T384 347Q384 373 378 391T360 419T327 429Q304 429 286 415T255 378T231 325T216 263T211 199Q211 160 226 140T270 120ZM273 618Q292 636 314 662T357 715T394 766H581V758Q570 745 548 725T497 682T440 640T392 606H273V618Z" />
<glyph unicode="&#xf4;" horiz-adv-x="595" d="M253 -10Q189 -10 142 15T69 88T43 201Q43 259 55 312T91 410T151 488T235 540T343 559Q409 559 455 534T527 461T553 345Q553 289 541 237T505 139T446 61T362 9T253 -10ZM270 120Q290 120 308 132T340 167T363
218T378 280T384 347Q384 373 378 391T360 419T327 429Q304 429 286 415T255 378T231 325T216 263T211 199Q211 160 226 140T270 120ZM142 618Q163 637 190 663T244 717T289 766H478Q488 743 503 716T534 664T565 618V606H453Q442 616 428 630T400 661T375 689Q347
666 319 646T260 606H142V618Z" />
<glyph unicode="&#xf5;" horiz-adv-x="595" d="M253 -10Q189 -10 142 15T69 88T43 201Q43 259 55 312T91 410T151 488T235 540T343 559Q409 559 455 534T527 461T553 345Q553 289 541 237T505 139T446 61T362 9T253 -10ZM270 120Q290 120 308 132T340 167T363
218T378 280T384 347Q384 373 378 391T360 419T327 429Q304 429 286 415T255 378T231 325T216 263T211 199Q211 160 226 140T270 120ZM164 605Q174 661 194 695T243 746T308 763Q331 763 349 756T384 738T415 721T446 713Q463 713 476 725T500 764H588Q576 707
555 672T506 622T440 606Q416 606 397 613T362 631T331 648T299 655Q284 655 271 642T252 605H164Z" />
<glyph unicode="&#xf6;" horiz-adv-x="595" d="M253 -10Q189 -10 142 15T69 88T43 201Q43 259 55 312T91 410T151 488T235 540T343 559Q409 559 455 534T527 461T553 345Q553 289 541 237T505 139T446 61T362 9T253 -10ZM270 120Q290 120 308 132T340 167T363
218T378 280T384 347Q384 373 378 391T360 419T327 429Q304 429 286 415T255 378T231 325T216 263T211 199Q211 160 226 140T270 120ZM472 618Q441 618 421 630T401 675Q401 718 423 738T486 759Q513 759 534 748T556 702Q556 664 537 641T472 618ZM262 618Q231
618 211 630T190 675Q190 718 212 738T275 759Q293 759 309 754T336 737T346 702Q346 664 327 641T262 618Z" />
<glyph unicode="&#xf7;" horiz-adv-x="578" d="M49 293V412H539V293H49ZM293 95Q264 95 243 113T222 173Q222 217 243 234T294 251Q322 251 344 234T366 173Q366 132 344 114T293 95ZM293 454Q264 454 243 472T222 532Q222 576 243 593T294 610Q322 610 344 593T366
532Q366 491 344 473T293 454Z" />
<glyph unicode="&#xf8;" horiz-adv-x="605" d="M92 -52L26 1L83 69Q63 96 53 128T43 201Q43 259 55 312T91 410T152 488T238 540T347 559Q382 559 411 552T463 532L505 582L572 529L527 473Q544 448 553 416T562 345Q562 289 550 237T514 139T454 61T369 9T260
-10Q228 -10 200 -3T147 15L92 -52ZM276 115Q298 115 316 125T349 153T375 195T392 247T402 305Q402 310 402 315T403 326L237 124Q243 120 253 118T276 115ZM374 422Q367 428 356 431T332 435Q308 435 289 425T255 395T229 350T212 296T203 235Q202 230 202 225T202
214L374 422Z" />
<glyph unicode="&#xf9;" horiz-adv-x="612" d="M193 -10Q144 -10 113 10T66 66T51 147Q51 170 54 198T63 255L125 549H291L226 239Q222 224 220 207T218 175Q218 149 230 137T263 124Q289 124 311 146T350 209T380 303L432 549H598L482 0H352L360 90H355Q336 58
312 36T259 2T193 -10ZM358 606Q337 626 314 652T270 706T238 756V766H408Q414 744 421 719T438 669T460 618V606H358Z" />
<glyph unicode="&#xfa;" horiz-adv-x="612" d="M193 -10Q144 -10 113 10T66 66T51 147Q51 170 54 198T63 255L125 549H291L226 239Q222 224 220 207T218 175Q218 149 230 137T263 124Q289 124 311 146T350 209T380 303L432 549H598L482 0H352L360 90H355Q336 58
312 36T259 2T193 -10ZM285 618Q304 636 326 662T369 715T406 766H593V758Q582 745 560 725T509 682T452 640T404 606H285V618Z" />
<glyph unicode="&#xfb;" horiz-adv-x="612" d="M193 -10Q144 -10 113 10T66 66T51 147Q51 170 54 198T63 255L125 549H291L226 239Q222 224 220 207T218 175Q218 149 230 137T263 124Q289 124 311 146T350 209T380 303L432 549H598L482 0H352L360 90H355Q336 58
312 36T259 2T193 -10ZM154 618Q175 637 202 663T256 717T301 766H490Q500 743 515 716T546 664T577 618V606H465Q454 616 440 630T412 661T387 689Q359 666 331 646T272 606H154V618Z" />
<glyph unicode="&#xfc;" horiz-adv-x="612" d="M193 -10Q144 -10 113 10T66 66T51 147Q51 170 54 198T63 255L125 549H291L226 239Q222 224 220 207T218 175Q218 149 230 137T263 124Q289 124 311 146T350 209T380 303L432 549H598L482 0H352L360 90H355Q336 58
312 36T259 2T193 -10ZM484 618Q453 618 433 630T413 675Q413 718 435 738T498 759Q525 759 546 748T568 702Q568 664 549 641T484 618ZM274 618Q243 618 223 630T202 675Q202 718 224 738T287 759Q305 759 321 754T348 737T358 702Q358 664 339 641T274 618Z"
/>
<glyph unicode="&#xfd;" horiz-adv-x="531" d="M7 -240Q-20 -240 -37 -238T-66 -231V-99Q-55 -101 -42 -103T-11 -105Q35 -105 63 -82T113 -19L125 3L45 549H211L234 296Q236 276 237 255T238 214T238 176H242Q248 192 254 211T269 250T286 291L405 549H584L255
-74Q225 -130 189 -167T108 -222T7 -240ZM229 618Q248 636 270 662T313 715T350 766H537V758Q526 745 504 725T453 682T396 640T348 606H229V618Z" />
<glyph unicode="&#xfe;" horiz-adv-x="601" d="M-36 -240L176 760H342L314 627Q306 589 294 550T273 485H277Q294 509 313 525T355 550T402 559Q472 559 515 509T558 358Q558 307 548 255T518 155T468 70T399 12T312 -10Q282 -10 259 0T219 27T188 66H184Q181
26 176 -9T161 -95L130 -240H-36ZM276 124Q296 124 313 137T344 172T368 222T383 283T389 346Q389 385 374 405T332 425Q306 425 285 404T248 348T226 273Q224 261 223 250T221 226T220 203Q220 168 234 146T276 124Z" />
<glyph unicode="&#xff;" horiz-adv-x="531" d="M7 -240Q-20 -240 -37 -238T-66 -231V-99Q-55 -101 -42 -103T-11 -105Q35 -105 63 -82T113 -19L125 3L45 549H211L234 296Q236 276 237 255T238 214T238 176H242Q248 192 254 211T269 250T286 291L405 549H584L255
-74Q225 -130 189 -167T108 -222T7 -240ZM684 618Q653 618 633 630T613 675Q613 718 635 738T698 759Q725 759 746 748T768 702Q768 664 749 641T684 618ZM474 618Q443 618 423 630T402 675Q402 718 424 738T487 759Q505 759 521 754T548 737T558 702Q558 664 539
641T474 618Z" />
<glyph unicode="&#x2013;" horiz-adv-x="480" d="M18 208L44 331H464L438 208H18Z" />
<glyph unicode="&#x2014;" horiz-adv-x="960" d="M18 208L44 331H944L918 208H18Z" />
<glyph unicode="&#x2018;" horiz-adv-x="228" d="M55 480Q70 515 90 555T135 636T182 714H306Q293 684 280 652T256 588T233 525T212 469H59L55 480Z" />
<glyph unicode="&#x2019;" horiz-adv-x="228" d="M49 469Q66 509 83 552T115 638T143 714H296L300 703Q285 669 265 629T221 547T174 469H49Z" />
<glyph unicode="&#x201a;" horiz-adv-x="290" d="M-50 -129Q-33 -89 -17 -46T15 40T43 116H196L200 105Q186 71 165 31T121 -51T74 -129H-50Z" />
<glyph unicode="&#x201c;" horiz-adv-x="458" d="M284 480Q300 515 320 555T364 636T411 714H535Q518 675 502 631T470 546T441 469H288L284 480ZM55 480Q70 515 90 555T135 636T182 714H306Q293 684 280 652T256 588T233 525T212 469H59L55 480Z" />
<glyph unicode="&#x201d;" horiz-adv-x="458" d="M279 469Q296 509 312 552T344 638T372 714H526L529 703Q514 669 494 629T450 547T403 469H279ZM49 469Q66 509 82 552T114 638T143 714H296L300 703Q285 669 265 629T221 547T174 469H49Z" />
<glyph unicode="&#x201e;" horiz-adv-x="521" d="M181 -129Q198 -89 214 -46T246 40T274 116H427L431 105Q416 71 396 31T352 -51T304 -129H181ZM-50 -129Q-33 -89 -17 -46T15 40T43 116H196L200 105Q186 71 165 31T121 -51T74 -129H-50Z" />
<glyph unicode="&#x2022;" horiz-adv-x="383" d="M197 201Q134 201 95 239T56 352Q56 407 75 446T131 507T217 529Q262 529 293 512T342 462T359 378Q359 323 340 283T285 222T197 201Z" />
<glyph unicode="&#x2039;" horiz-adv-x="336" d="M127 41L33 269V277L230 515L340 428L206 265L267 99L127 41Z" />
<glyph unicode="&#x203a;" horiz-adv-x="336" d="M106 33L-3 120L130 283L70 450L209 508L304 279V272L106 33Z" />
</font>
</defs>
</svg>
