<?xml version="1.0" standalone="no"?>
<!DOCTYPE svg PUBLIC "-//W3C//DTD SVG 1.1//EN" "http://www.w3.org/Graphics/SVG/1.1/DTD/svg11.dtd">
<svg xmlns="http://www.w3.org/2000/svg">
<defs >
<font id="NotoSans" horiz-adv-x="575" ><font-face
    font-family="Noto Sans Black"
    units-per-em="1000"
    panose-1="2 11 5 2 4 5 4 2 2 4"
    ascent="1069"
    descent="-293"
    alphabetic="0" />
<glyph unicode=" " horiz-adv-x="260" />
<glyph unicode="!" horiz-adv-x="290" d="M226 252H65L40 714H251L226 252ZM42 81Q42 133 72 154T145 175Q186 175 216 154T246 81Q246 32 216 10T145 -12Q103 -12 73 10T42 81Z" />
<glyph unicode="&quot;" horiz-adv-x="524" d="M233 714L213 456H79L59 714H233ZM465 714L445 456H311L291 714H465Z" />
<glyph unicode="#" horiz-adv-x="662" d="M509 397L494 315H613V191H471L435 0H304L340 191H258L223 0H93L128 191H18V315H152L167 397H51V524H191L226 714H357L321 524H402L437 714H568L532 524H644V397H509ZM282 315H363L378 397H297L282 315Z" />
<glyph unicode="$" horiz-adv-x="577" d="M242 22Q178 24 131 34T42 63V216Q89 195 142 183T242 166V289Q180 307 131 332T54 397T26 502Q26 563 53 603T128 665T242 691V760H334V692Q395 689 445 676T535 646L492 512Q455 528 415 537T334 551V430Q404 409 453
386T528 326T554 230Q554 149 501 93T334 24V-58H242V22ZM334 168Q363 173 377 184T391 214Q391 227 386 236T369 252T334 266V168ZM242 550Q224 549 212 544T194 530T187 509Q187 497 192 488T210 471T242 457V550Z" />
<glyph unicode="%" horiz-adv-x="948" d="M200 724Q284 724 335 666T386 501Q386 395 339 336T200 276Q118 276 68 335T18 501Q18 607 65 665T200 724ZM202 605Q181 605 173 577T165 499Q165 451 173 422T202 393Q223 393 231 421T239 499Q239 548 231 576T202
605ZM742 714L346 0H201L597 714H742ZM743 440Q827 440 878 382T929 217Q929 111 882 52T743 -8Q661 -8 611 51T561 217Q561 323 608 381T743 440ZM745 321Q724 321 716 293T708 215Q708 167 716 138T745 109Q766 109 774 137T782 215Q782 265 774 293T745 321Z"
/>
<glyph unicode="&amp;" horiz-adv-x="799" d="M330 723Q398 723 446 703T521 645T548 553Q548 491 512 446T419 366L516 274Q533 300 546 332T567 401H765Q749 328 717 261T648 150L804 0H557L509 50Q482 33 456 20T392 -2T294 -10Q211 -10 153 18T65 93T35 198Q35
241 50 277T95 342T168 394Q148 417 134 441T112 493T104 553Q104 603 129 641T205 701T330 723ZM272 289Q258 279 249 267T236 241T232 212Q232 181 254 162T312 142Q340 142 361 149T393 166L272 289ZM327 598Q307 598 292 586T276 547Q276 525 289 506T319 471Q347
487 361 509T376 553Q376 577 362 587T327 598Z" />
<glyph unicode="&apos;" horiz-adv-x="292" d="M233 714L213 456H79L59 714H233Z" />
<glyph unicode="(" horiz-adv-x="359" d="M36 284Q36 366 49 446T92 600T173 734H332Q265 640 235 522T204 285Q204 208 217 129T258 -23T331 -158H173Q123 -99 93 -27T49 124T36 284Z" />
<glyph unicode=")" horiz-adv-x="359" d="M323 284Q323 204 310 125T267 -27T186 -158H28Q73 -97 101 -24T142 129T155 285Q155 364 142 443T101 597T27 734H186Q237 674 267 601T310 447T323 284Z" />
<glyph unicode="*" horiz-adv-x="537" d="M343 760L324 588L498 637L516 493L363 483L464 347L337 280L267 418L207 281L74 347L175 483L22 495L44 637L214 588L195 760H343Z" />
<glyph unicode="+" horiz-adv-x="586" d="M358 418H540V287H358V111H227V287H45V418H227V597H358V418Z" />
<glyph unicode="," horiz-adv-x="309" d="M250 135Q241 99 227 49T197 -51T164 -139H28Q38 -93 47 -43T64 57T76 146H243L250 135Z" />
<glyph unicode="-" horiz-adv-x="318" d="M21 192V344H297V192H21Z" />
<glyph unicode="." horiz-adv-x="289" d="M42 81Q42 133 72 154T146 175Q187 175 216 154T246 81Q246 32 217 10T146 -12Q103 -12 73 10T42 81Z" />
<glyph unicode="/" horiz-adv-x="442" d="M440 724L174 -10H5L271 724H440Z" />
<glyph unicode="0" horiz-adv-x="586" d="M551 356Q551 270 538 203T494 88T414 15T293 -10Q204 -10 147 34T62 160T35 356Q35 472 59 554T141 680T293 724Q382 724 439 681T523 555T551 356ZM227 356Q227 286 232 239T252 168T293 144Q320 144 334 167T353 238T359
356Q359 427 354 474T334 546T293 570Q266 570 252 546T233 475T227 356Z" />
<glyph unicode="1" horiz-adv-x="586" d="M460 0H264V353Q264 363 264 389T265 447T267 504Q254 489 244 478T222 458L141 391L41 514L286 714H460V0Z" />
<glyph unicode="2" horiz-adv-x="586" d="M548 0H30V127L204 303Q258 360 288 394T331 452T343 502Q343 534 323 548T274 562Q240 562 206 543T128 486L22 610Q54 639 90 665T176 707T296 724Q369 724 422 699T504 629T534 529Q534 467 512 419T444 322T330 211L278
164V159H548V0Z" />
<glyph unicode="3" horiz-adv-x="586" d="M524 559Q524 508 502 472T445 412T366 376V373Q452 363 498 322T545 204Q545 146 514 97T417 19T247 -10Q178 -10 129 0T34 29V189Q81 165 130 154T219 142Q290 142 315 162T341 216Q341 240 329 257T284 284T189 293H145V438H190Q245
438 277 447T323 474T337 513Q337 542 315 555T257 569Q225 569 197 560T147 541T115 523L35 652Q79 682 136 703T287 724Q397 724 460 680T524 559Z" />
<glyph unicode="4" horiz-adv-x="586" d="M571 138H492V0H302V138H17V280L314 714H492V282H571V138ZM302 365Q302 376 302 393T303 428T305 457T306 470H301Q291 448 284 434T263 400L184 282H302V365Z" />
<glyph unicode="5" horiz-adv-x="586" d="M324 468Q384 468 433 441T511 363T540 238Q540 158 508 103T412 19T250 -10Q188 -10 137 0T46 29V187Q84 170 137 156T234 142Q270 142 294 152T332 182T345 232Q345 273 316 296T227 319Q200 319 175 314T129 302L58
337L85 714H492V553H249L240 459Q256 462 272 465T324 468Z" />
<glyph unicode="6" horiz-adv-x="586" d="M34 302Q34 363 43 424T75 539T140 634T247 700T408 724Q429 724 459 722T510 716V565Q490 569 465 571T404 574Q350 574 313 562T254 526T221 469T208 393H214Q227 417 245 435T290 465T355 476Q418 476 462 449T531
370T555 244Q555 164 525 107T438 20T303 -10Q246 -10 197 8T112 65T55 163T34 302ZM299 143Q330 143 349 166T368 240Q368 281 352 304T301 327Q277 327 261 316T235 287T226 250Q226 231 230 212T243 178T266 153T299 143Z" />
<glyph unicode="7" horiz-adv-x="586" d="M102 0L347 554H38V714H553V600L302 0H102Z" />
<glyph unicode="8" horiz-adv-x="586" d="M295 724Q366 724 419 705T503 648T533 550Q533 507 517 475T474 418T410 376Q444 357 477 332T532 272T554 190Q554 133 526 88T441 16T293 -10Q203 -10 146 15T61 85T33 188Q33 238 50 272T96 330T163 373Q133 393 109
418T69 477T54 551Q54 609 85 647T170 704T295 724ZM210 196Q210 166 231 148T291 129Q335 129 356 146T377 192Q377 214 364 232T334 263T304 283L291 291Q269 280 251 266T221 235T210 196ZM294 585Q270 585 253 571T235 533Q235 518 242 505T263 480T292 459Q306
467 320 477T343 500T352 533Q352 557 335 571T294 585Z" />
<glyph unicode="9" horiz-adv-x="586" d="M552 401Q552 325 539 261T497 146T425 61T320 8T179 -10Q157 -10 128 -9T79 -5V148Q100 144 121 142T170 140Q230 140 269 153T332 190T365 247T378 321H372Q359 297 341 279T296 249T228 238Q168 238 124 265T55 344T31
471Q31 551 61 607T149 694T284 724Q340 724 388 705T474 647T531 547T552 401ZM289 570Q255 570 237 547T218 473Q218 433 235 410T287 386Q309 386 325 397T350 427T360 464Q360 483 356 502T344 536T322 561T289 570Z" />
<glyph unicode=":" horiz-adv-x="289" d="M42 81Q42 133 72 154T146 175Q187 175 216 154T246 81Q246 32 217 10T146 -12Q103 -12 73 10T42 81ZM42 467Q42 518 72 539T146 560Q187 560 216 539T246 467Q246 417 217 395T146 373Q103 373 73 395T42 467Z" />
<glyph unicode=";" horiz-adv-x="297" d="M250 135Q241 99 227 49T197 -51T164 -139H28Q35 -105 42 -68T55 7T67 80T76 146H243L250 135ZM45 467Q45 518 75 539T148 560Q189 560 219 539T249 467Q249 417 219 395T148 373Q105 373 75 395T45 467Z" />
<glyph unicode="&lt;" horiz-adv-x="586" d="M539 87L45 306V390L539 637V492L236 354L539 231V87Z" />
<glyph unicode="=" horiz-adv-x="586" d="M45 398V529H541V398H45ZM45 175V307H541V175H45Z" />
<glyph unicode="&gt;" horiz-adv-x="586" d="M45 231L348 354L45 492V637L539 390V306L45 87V231Z" />
<glyph unicode="?" horiz-adv-x="505" d="M144 294Q144 324 151 348T178 395T233 439Q266 460 282 475T302 504T307 530Q307 550 289 562T240 574Q203 574 160 561T68 522L0 655Q55 687 118 705T254 724Q365 724 426 675T487 546Q487 508 476 476T439 417T371
362Q342 343 325 330T301 305T294 277V252H144V294ZM123 81Q123 133 153 154T226 175Q267 175 297 154T327 81Q327 32 297 10T226 -12Q183 -12 153 10T123 81Z" />
<glyph unicode="@" horiz-adv-x="897" d="M857 369Q857 322 845 277T810 195T752 136T672 114Q636 114 604 129T553 172H546Q524 147 492 131T419 114Q326 114 280 168T234 312Q234 378 262 430T347 513T484 544Q533 544 580 535T658 514L648 308Q648 303 648
290T647 262Q647 239 654 230T671 220Q689 220 701 240T721 295T728 370Q728 445 700 499T616 584T475 614Q401 614 345 591T250 525T193 424T173 296Q173 217 202 159T291 68T439 36Q495 36 562 48T690 83V-29Q638 -51 576 -63T446 -75Q318 -75 227 -30T88 99T40
298Q40 388 70 465T157 600T294 690T473 723Q560 723 630 699T751 628T829 517T857 369ZM371 313Q371 264 389 242T436 220Q476 220 493 252T514 358L519 434Q509 436 502 436T486 437Q446 437 421 420T383 375T371 313Z" />
<glyph unicode="A" horiz-adv-x="726" d="M515 0L480 134H248L212 0H0L233 717H490L726 0H515ZM409 409Q404 428 395 463T377 537T363 599Q359 575 351 539T334 468T319 409L288 292H440L409 409Z" />
<glyph unicode="B" horiz-adv-x="674" d="M326 714Q481 714 547 668T613 536Q613 489 596 457T554 405T501 379V374Q530 367 559 350T607 300T627 209Q627 144 594 97T500 25T355 0H77V714H326ZM328 440Q376 440 395 460T415 508Q415 537 393 552T324 568H270V440H328ZM270
299V149H338Q388 149 408 170T428 225Q428 244 420 261T391 288T334 299H270Z" />
<glyph unicode="C" horiz-adv-x="649" d="M395 566Q361 566 334 552T288 510T259 443T249 354Q249 287 266 241T318 172T406 148Q453 148 497 161T587 193V30Q540 9 491 0T385 -10Q269 -10 195 36T86 164T51 355Q51 436 73 503T140 620T248 697T397 724Q449 724
506 712T618 674L559 522Q520 541 480 553T395 566Z" />
<glyph unicode="D" horiz-adv-x="734" d="M683 372Q683 248 637 165T506 41T308 0H77V714H324Q439 714 519 675T641 559T683 372ZM483 365Q483 430 466 473T414 537T326 558H270V158H313Q401 158 442 209T483 365Z" />
<glyph unicode="E" horiz-adv-x="549" d="M501 0H77V714H501V559H270V447H484V292H270V157H501V0Z" />
<glyph unicode="F" horiz-adv-x="539" d="M267 0H77V714H499V559H267V423H481V268H267V0Z" />
<glyph unicode="G" horiz-adv-x="740" d="M364 418H672V33Q617 14 546 2T396 -10Q293 -10 216 30T95 152T51 359Q51 471 94 553T220 679T426 724Q493 724 553 712T657 679L596 528Q558 547 516 556T427 566Q363 566 324 537T268 460T250 354Q250 288 269 242T324
173T412 149Q429 149 453 151T491 157V269H364V418Z" />
<glyph unicode="H" horiz-adv-x="766" d="M689 0H495V291H271V0H77V714H271V449H495V714H689V0Z" />
<glyph unicode="I" horiz-adv-x="440" d="M406 0H34V110L123 144V571L34 604V714H406V604L317 571V144L406 110V0Z" />
<glyph unicode="J" horiz-adv-x="352" d="M21 -224Q-12 -224 -36 -221T-79 -214V-64Q-63 -67 -46 -70T-8 -74Q27 -74 46 -60T73 -18T81 53V714H275V70Q275 -37 243 -102T153 -195T21 -224Z" />
<glyph unicode="K" horiz-adv-x="687" d="M687 0H469L328 273L271 239V0H77V714H271V404Q283 427 299 450T330 495L480 714H691L466 394L687 0Z" />
<glyph unicode="L" horiz-adv-x="582" d="M77 0V714H270V156H545V0H77Z" />
<glyph unicode="M" horiz-adv-x="967" d="M388 0L242 514H238Q240 494 242 460T246 387T248 310V0H77V714H334L483 207H487L633 714H890V0H713V313Q713 347 714 385T717 458T720 513H716L572 0H388Z" />
<glyph unicode="N" horiz-adv-x="834" d="M757 0H504L243 503H239Q241 480 243 448T246 382T248 322V0H77V714H329L589 218H592Q591 241 589 272T586 335T585 391V714H757V0Z" />
<glyph unicode="O" horiz-adv-x="797" d="M745 358Q745 275 725 208T663 91T556 16T398 -10Q308 -10 243 16T135 91T72 207T51 359Q51 470 88 552T202 680T399 725Q521 725 597 680T709 552T745 358ZM254 358Q254 294 268 248T315 176T398 151Q451 151 482 176T528
247T542 358Q542 455 510 511T399 567Q347 567 315 542T269 470T254 358Z" />
<glyph unicode="P" horiz-adv-x="632" d="M324 714Q460 714 527 655T595 487Q595 438 581 394T536 314T452 258T324 237H270V0H77V714H324ZM320 558H270V394H308Q333 394 354 402T389 430T402 482Q402 516 382 537T320 558Z" />
<glyph unicode="Q" horiz-adv-x="797" d="M745 358Q745 284 729 221T680 109T591 31L765 -170H525L405 -10Q404 -10 402 -10T398 -10Q308 -10 243 16T135 91T72 207T51 359Q51 470 88 552T202 680T399 725Q521 725 597 680T709 552T745 358ZM254 358Q254 294 268
248T315 176T398 151Q451 151 482 176T528 247T542 358Q542 455 510 511T399 567Q347 567 315 542T269 470T254 358Z" />
<glyph unicode="R" horiz-adv-x="677" d="M311 714Q408 714 472 690T569 620T602 503Q602 460 588 424T546 360T481 311L689 0H470L319 260H270V0H77V714H311ZM308 568H270V405H306Q350 405 378 424T407 494Q407 517 397 533T365 559T308 568Z" />
<glyph unicode="S" horiz-adv-x="577" d="M544 217Q544 159 515 107T424 23T264 -10Q215 -10 179 -6T110 9T44 35V207Q102 178 161 163T268 147Q297 147 315 154T342 173T351 200Q351 219 338 232T297 259T222 294Q182 312 150 332T96 377T61 435T49 515Q49 584
83 630T177 700T318 724Q388 724 444 709T544 673L485 524Q439 545 395 557T312 570Q287 570 271 564T248 548T240 524Q240 507 253 494T296 466T380 426Q432 403 468 376T524 311T544 217Z" />
<glyph unicode="T" horiz-adv-x="591" d="M392 0H199V556H25V714H566V556H392V0Z" />
<glyph unicode="U" horiz-adv-x="757" d="M684 284Q684 194 650 128T548 26T376 -10Q228 -10 151 65T73 280V714H267V295Q267 219 295 185T379 151Q419 151 443 166T479 213T491 296V714H684V284Z" />
<glyph unicode="V" horiz-adv-x="694" d="M694 714L460 0H233L0 714H217L314 352Q319 332 326 300T339 236T347 184Q349 204 354 235T366 298T379 350L478 714H694Z" />
<glyph unicode="W" horiz-adv-x="1039" d="M1024 714L848 0H620L552 311Q550 320 546 341T537 389T527 442T521 486Q519 468 515 442T505 389T496 341T489 311L420 0H192L15 714H201L279 356Q282 343 287 319T297 266T308 212T315 167Q319 197 325 236T340 314T355
388T368 444L431 714H610L671 444Q676 423 683 389T699 314T714 235T724 167Q727 192 734 229T748 301T759 355L838 714H1024Z" />
<glyph unicode="X" horiz-adv-x="723" d="M720 0H497L358 223L220 0H2L239 365L16 714H230L359 493L483 714H703L477 350L720 0Z" />
<glyph unicode="Y" horiz-adv-x="664" d="M332 449L455 714H664L429 279V0H235V273L0 714H210L332 449Z" />
<glyph unicode="Z" horiz-adv-x="611" d="M586 0H30V119L339 558H37V714H578V595L269 156H586V0Z" />
<glyph unicode="[" horiz-adv-x="324" d="M301 -168H57V734H301V610H212V-44H301V-168Z" />
<glyph unicode="\" horiz-adv-x="442" d="M172 724L438 -10H269L3 724H172Z" />
<glyph unicode="]" horiz-adv-x="324" d="M23 -44H112V610H23V734H267V-168H23V-44Z" />
<glyph unicode="^" horiz-adv-x="525" d="M-8 245L207 717H290L538 245H394L253 527L132 245H-8Z" />
<glyph unicode="_" horiz-adv-x="500" d="M502 -185H-2V-65H502V-185Z" />
<glyph unicode="`" horiz-adv-x="418" d="M250 766Q267 744 290 717T338 665T378 620V606H251Q231 619 203 638T144 679T86 721T40 756V766H250Z" />
<glyph unicode="a" horiz-adv-x="623" d="M336 563Q441 563 500 511T559 363V0H427L390 73H386Q363 44 339 26T282 -1T204 -10Q156 -10 118 9T58 68T36 169Q36 258 97 301T276 349L368 352V360Q368 397 350 412T301 428Q268 428 228 417T147 387L92 513Q140 538
200 550T336 563ZM325 245Q273 243 252 227T230 180Q230 152 245 139T285 125Q320 125 344 147T369 204V247L325 245Z" />
<glyph unicode="b" horiz-adv-x="643" d="M257 588Q257 559 255 532T250 482H257Q278 516 313 539T404 563Q490 563 545 490T600 278Q600 184 575 120T504 23T398 -10Q340 -10 309 10T257 54H245L215 0H66V760H257V588ZM334 413Q308 413 291 401T265 363T257 298V271Q257
207 274 176T336 144Q370 144 388 178T406 280Q406 346 389 379T334 413Z" />
<glyph unicode="c" horiz-adv-x="539" d="M318 -10Q234 -10 172 20T76 113T42 274Q42 375 80 438T183 532T333 563Q384 563 429 552T514 521L458 380Q424 395 395 404T333 413Q304 413 282 398T248 353T236 275Q236 227 248 198T283 156T334 142Q375 142 416 155T495
191V39Q461 17 418 4T318 -10Z" />
<glyph unicode="d" horiz-adv-x="643" d="M238 -10Q153 -10 98 63T42 276Q42 418 98 490T245 563Q282 563 309 553T356 524T390 482H394Q390 503 388 540T385 612V760H577V0H433L392 70H385Q372 48 352 30T304 1T238 -10ZM316 141Q362 141 381 170T401 259V274Q401
339 383 374T314 409Q280 409 258 376T235 273Q235 204 257 173T316 141Z" />
<glyph unicode="e" horiz-adv-x="618" d="M315 563Q396 563 454 535T544 451T576 310V225H235Q237 182 267 154T356 126Q408 126 451 136T540 168V31Q500 10 453 0T333 -10Q249 -10 184 19T80 112T42 273Q42 373 76 437T172 532T315 563ZM322 433Q288 433 266
412T239 345H403Q403 370 394 389T366 421T322 433Z" />
<glyph unicode="f" horiz-adv-x="413" d="M404 410H286V0H95V410H22V504L99 551V560Q99 632 118 677T178 743T287 765Q330 765 365 759T438 739L397 615Q383 619 366 622T328 625Q306 625 296 612T286 568V553H404V410Z" />
<glyph unicode="g" horiz-adv-x="643" d="M243 563Q301 563 336 541T394 485H398L412 553H577V-1Q577 -79 545 -132T448 -212T282 -240Q215 -240 164 -233T66 -208V-49Q116 -70 161 -80T271 -91Q329 -91 357 -70T386 -9V1Q386 14 387 32T392 70H386Q367 37 332
14T240 -10Q152 -10 97 63T42 276Q42 416 98 489T243 563ZM315 415Q289 415 271 399T245 352T236 273Q236 201 256 170T318 138Q341 138 357 145T382 167T396 204T401 256V279Q401 322 394 352T368 399T315 415Z" />
<glyph unicode="h" horiz-adv-x="670" d="M257 652Q257 591 254 549T249 485H258Q276 514 298 531T349 555T410 563Q465 563 509 542T579 477T606 360V0H414V302Q414 357 398 385T348 413Q314 413 294 393T266 336T257 243V0H66V760H257V652Z" />
<glyph unicode="i" horiz-adv-x="325" d="M258 553V0H67V553H258ZM163 776Q204 776 234 759T265 691Q265 642 235 625T163 607Q121 607 92 624T62 691Q62 742 91 759T163 776Z" />
<glyph unicode="j" horiz-adv-x="324" d="M52 -240Q29 -240 -1 -237T-51 -228V-79Q-35 -83 -22 -85T8 -88Q31 -88 48 -72T66 -5V553H257V-45Q257 -95 238 -139T173 -212T52 -240ZM61 691Q61 742 90 759T162 776Q203 776 233 759T264 691Q264 642 234 625T162 607Q120
607 91 624T61 691Z" />
<glyph unicode="k" horiz-adv-x="659" d="M258 461Q258 427 255 386T247 311H251Q259 323 269 338T290 370T310 397L434 553H647L455 318L659 0H441L320 198L258 151V0H66V760H258V461Z" />
<glyph unicode="l" horiz-adv-x="323" d="M257 0H66V760H257V0Z" />
<glyph unicode="m" horiz-adv-x="1000" d="M741 563Q836 563 886 515T936 360V0H745V301Q745 364 728 388T678 413Q632 413 614 373T596 258V0H405V301Q405 341 398 365T377 401T341 413Q308 413 290 393T264 335T257 242V0H66V553H210L238 485H243Q258 508 281
525T336 553T409 563Q470 563 509 543T574 486H580Q606 523 647 543T741 563Z" />
<glyph unicode="n" horiz-adv-x="670" d="M412 563Q498 563 552 515T606 360V0H415V302Q415 357 399 385T348 413Q294 413 276 369T257 242V0H66V553H210L236 480H243Q261 506 285 524T341 553T412 563Z" />
<glyph unicode="o" horiz-adv-x="637" d="M594 278Q594 209 575 155T520 65T433 9T317 -10Q257 -10 207 9T120 64T63 155T42 278Q42 370 75 433T171 530T320 563Q400 563 461 530T558 434T594 278ZM236 278Q236 231 244 198T270 149T319 132Q349 132 366 148T392
198T400 278Q400 325 392 357T366 405T318 421Q275 421 256 385T236 278Z" />
<glyph unicode="p" horiz-adv-x="643" d="M404 563Q496 563 548 490T600 278Q600 184 574 120T502 23T398 -10Q359 -10 332 0T287 24T257 54H251Q253 35 255 13T257 -38V-240H66V553H221L248 483H257Q271 505 290 523T338 552T404 563ZM332 413Q304 413 288 400T265
360T257 294V279Q257 235 263 205T287 160T333 144Q357 144 373 157T398 201T406 280Q406 353 387 383T332 413Z" />
<glyph unicode="q" horiz-adv-x="643" d="M386 -11Q386 9 387 29T392 70H386Q367 37 332 14T240 -10Q152 -10 97 63T42 276Q42 370 67 433T138 530T243 563Q301 563 336 541T394 485H398L412 553H577V-240H386V-11ZM318 138Q349 138 367 151T393 190T401 256V279Q401
344 384 379T315 415Q275 415 256 379T236 273Q236 201 256 170T318 138Z" />
<glyph unicode="r" horiz-adv-x="469" d="M400 563Q416 563 433 561T458 557L441 377Q431 379 417 381T376 383Q358 383 338 380T299 365T269 332T257 272V0H66V553H208L238 465H247Q262 492 286 514T339 550T400 563Z" />
<glyph unicode="s" horiz-adv-x="517" d="M477 170Q477 118 454 77T379 13T243 -10Q184 -10 138 -4T43 21V174Q96 150 150 140T235 129Q267 129 282 136T297 157Q297 169 287 178T252 198T179 228Q133 247 103 269T57 323T42 400Q42 481 104 522T270 563Q325 563
373 551T473 516L421 393Q380 412 338 423T271 434Q249 434 237 428T224 411Q224 401 232 393T265 375T335 346Q383 327 414 305T461 251T477 170Z" />
<glyph unicode="t" horiz-adv-x="460" d="M337 141Q363 141 384 146T429 160V21Q398 8 363 -1T274 -10Q220 -10 180 7T116 65T93 182V410H26V488L111 548L160 664H285V553H421V410H285V195Q285 168 298 155T337 141Z" />
<glyph unicode="u" horiz-adv-x="670" d="M604 553V0H460L436 69H425Q408 41 382 24T324 -2T258 -10Q204 -10 160 11T91 77T65 193V553H256V251Q256 197 271 169T322 141Q358 141 378 160T405 218T413 311V553H604Z" />
<glyph unicode="v" horiz-adv-x="611" d="M211 0L0 553H199L293 226Q294 223 296 214T300 193T302 170H305Q305 181 306 191T310 211T314 225L412 553H611L400 0H211Z" />
<glyph unicode="w" horiz-adv-x="910" d="M484 242Q480 261 475 284T467 332T460 376T455 407H452Q451 396 448 376T440 332T430 282T420 235L364 0H163L12 553H200L245 341Q250 318 255 286T264 220T270 159H273Q274 179 278 205T286 257T295 303T300 330L351
553H562L609 327Q613 308 618 279T629 217T637 159H640Q642 186 646 220T655 287T665 341L714 553H898L746 0H542L484 242Z" />
<glyph unicode="x" horiz-adv-x="630" d="M183 282L14 553H231L315 398L401 553H618L445 282L625 0H408L315 168L222 0H5L183 282Z" />
<glyph unicode="y" horiz-adv-x="610" d="M-1 553H200L294 236Q296 229 298 219T301 198T303 176H307Q309 196 312 210T319 235L415 553H610L391 -35Q366 -102 333 -148T250 -217T128 -240Q102 -240 83 -238T50 -232V-82Q61 -84 76 -86T109 -88Q141 -88 160 -75T193
-42T215 3L217 8L-1 553Z" />
<glyph unicode="z" horiz-adv-x="507" d="M482 0H24V109L253 407H37V553H471V435L252 146H482V0Z" />
<glyph unicode="{" horiz-adv-x="433" d="M401 -168Q299 -168 245 -151T170 -96T150 0V121Q150 151 133 169T88 196T30 204V351Q61 351 88 359T133 385T150 434V558Q150 615 169 652T243 706T401 724V588Q381 588 360 585T323 572T308 536V404Q308 343 278 316T191
281V275Q248 266 278 239T308 155V20Q308 -4 323 -15T360 -28T401 -32V-168Z" />
<glyph unicode="|" horiz-adv-x="509" d="M189 760H320V-218H189V760Z" />
<glyph unicode="}" horiz-adv-x="433" d="M32 -32Q52 -31 73 -29T110 -15T125 20V155Q125 212 155 239T242 275V281Q187 289 156 316T125 404V536Q125 561 110 571T74 585T32 588V724Q136 724 190 707T263 652T283 558V434Q283 404 300 386T344 359T403 351V204Q373
204 346 196T301 170T283 121V0Q283 -58 263 -95T189 -150T32 -168V-32Z" />
<glyph unicode="~" horiz-adv-x="586" d="M274 289Q237 305 210 310T159 316Q130 316 101 299T45 257V394Q71 420 102 433T174 447Q203 447 232 442T311 416Q348 400 376 395T427 389Q455 389 485 406T540 448V311Q515 285 483 272T411 258Q382 258 353 264T274 289Z" />
<glyph unicode="&#xa0;" horiz-adv-x="260" />
<glyph unicode="&#xa1;" horiz-adv-x="290" d="M65 299H226L251 -163H40L65 299ZM249 470Q249 418 219 397T146 376Q105 376 75 397T45 470Q45 520 75 541T146 563Q188 563 218 542T249 470Z" />
<glyph unicode="&#xa2;" horiz-adv-x="586" d="M377 649Q421 647 461 636T535 608L479 467Q445 482 416 491T354 500Q325 500 303 485T269 440T257 362Q257 314 269 285T304 243T355 229Q396 229 437 242T516 278V126Q488 107 454 95T377 78V-10H276V81Q210 91
163 124T89 217T63 361Q63 445 90 503T165 596T276 643V724H377V649Z" />
<glyph unicode="&#xa3;" horiz-adv-x="586" d="M353 725Q406 725 457 714T551 685L497 544Q460 558 429 564T374 571Q351 571 335 558T319 504V452H487V317H319V270Q319 238 307 217T277 182T241 159H569V0H51V153Q78 169 95 182T122 216T131 269V317H50V452H131V510Q131
586 159 633T237 702T353 725Z" />
<glyph unicode="&#xa4;" horiz-adv-x="566" d="M88 353Q88 376 93 398T108 439L47 497L135 586L195 526Q214 535 237 540T279 546Q302 546 323 541T365 524L424 586L514 501L452 440Q462 422 467 399T472 353Q472 329 468 308T452 267L511 209L424 122L365 180Q346
172 324 167T279 161Q256 161 235 165T193 179L135 123L48 210L108 268Q98 288 93 309T88 353ZM213 353Q213 335 222 320T246 296T279 287Q298 287 313 296T338 320T348 353Q348 372 339 387T314 411T279 420Q261 420 246 411T222 387T213 353Z" />
<glyph unicode="&#xa5;" horiz-adv-x="586" d="M293 468L387 714H582L405 366H500V263H382V206H500V104H382V0H204V104H84V206H204V263H84V366H177L4 714H199L293 468Z" />
<glyph unicode="&#xa6;" horiz-adv-x="509" d="M189 760H320V350H189V760ZM189 192H320V-218H189V192Z" />
<glyph unicode="&#xa7;" horiz-adv-x="500" d="M52 392Q52 430 77 459T132 506Q98 530 81 559T63 626Q63 689 114 729T261 770Q311 770 358 758T442 728L394 620Q362 637 327 649T260 662Q235 662 221 653T207 626Q207 615 214 604T239 580T292 553Q349 530 384
505T436 452T453 392Q453 342 431 314T381 266Q408 246 425 216T442 147Q442 80 389 34T229 -12Q179 -12 136 -2T57 30V149Q86 134 117 122T178 103T230 96Q268 96 283 109T298 143Q298 157 292 167T268 190T215 217Q167 239 131 261T73 315T52 392ZM194 407Q194
391 202 378T229 351T278 322L291 315Q298 323 304 335T311 367Q311 385 303 399T276 428T222 457Q212 451 203 439T194 407Z" />
<glyph unicode="&#xa8;" horiz-adv-x="602" d="M109 690Q109 730 133 748T192 767Q226 767 251 749T276 690Q276 651 251 633T192 614Q157 614 133 632T109 690ZM343 690Q343 730 367 748T427 767Q461 767 486 749T511 690Q511 651 486 633T427 614Q391 614 367
632T343 690Z" />
<glyph unicode="&#xa9;" horiz-adv-x="824" d="M413 128Q305 128 251 191T196 359Q196 427 219 478T290 557T408 585Q453 585 491 575T565 547L520 447Q495 461 471 467T417 474Q378 474 356 444T333 357Q333 295 354 267T420 239Q452 239 484 247T546 272V159Q515
143 484 136T413 128ZM412 -10Q332 -10 265 17T149 93T72 210T45 357Q45 437 72 504T148 620T265 697T412 724Q492 724 559 697T675 621T752 504T779 357Q779 277 752 210T676 94T559 17T412 -10ZM412 70Q473 70 524 91T612 150T669 241T689 357Q689 420 669 473T612
564T524 623T412 644Q350 644 299 623T211 564T153 473T133 357Q133 294 153 241T210 150T299 91T412 70Z" />
<glyph unicode="&#xaa;" horiz-adv-x="397" d="M213 722Q278 722 318 687T358 581V362H279L257 424Q235 390 209 373T138 356Q106 356 80 368T39 407T24 472Q24 515 43 539T100 574T192 587L235 589V592Q235 612 223 620T185 629Q159 629 137 623T82 602L45 683Q82
701 118 711T213 722ZM194 519Q164 517 156 505T147 478Q147 462 156 454T181 445Q208 445 221 465T235 511V522L194 519Z" />
<glyph unicode="&#xab;" horiz-adv-x="681" d="M36 287L226 523L363 450L230 281L363 111L226 39L36 274V287ZM317 287L506 523L644 450L510 281L644 111L506 39L317 274V287Z" />
<glyph unicode="&#xac;" horiz-adv-x="586" d="M540 418V116H408V287H45V418H540Z" />
<glyph unicode="&#xad;" horiz-adv-x="318" d="M21 192V344H297V192H21Z" />
<glyph unicode="&#xae;" horiz-adv-x="824" d="M253 153V580H389Q493 580 537 546T582 448Q582 397 562 371T513 330L608 153H472L401 309H384V153H253ZM389 395Q418 395 434 405T450 443Q450 469 434 477T390 485H384V395H389ZM412 -10Q332 -10 265 17T149 93T72
210T45 357Q45 437 72 504T148 620T265 697T412 724Q492 724 559 697T675 621T752 504T779 357Q779 277 752 210T676 94T559 17T412 -10ZM412 70Q473 70 524 91T612 150T669 241T689 357Q689 420 669 473T612 564T524 623T412 644Q350 644 299 623T211 564T153
473T133 357Q133 294 153 241T210 150T299 91T412 70Z" />
<glyph unicode="&#xaf;" horiz-adv-x="500" d="M503 760H-3V880H503V760Z" />
<glyph unicode="&#xb0;" horiz-adv-x="422" d="M211 366Q159 366 118 388T54 451T31 544Q31 596 54 636T118 700T211 724Q264 724 304 701T368 637T391 544Q391 492 368 452T305 389T211 366ZM211 482Q240 482 257 499T275 544Q275 573 258 591T211 609Q182 609
165 591T147 544Q147 516 164 499T211 482Z" />
<glyph unicode="&#xb1;" horiz-adv-x="586" d="M45 0V131H540V0H45ZM358 461H540V330H358V154H227V330H45V461H227V640H358V461Z" />
<glyph unicode="&#xb2;" horiz-adv-x="399" d="M366 416H37V517L142 621Q170 649 186 668T208 700T215 723Q215 737 207 744T183 751Q167 751 147 743T99 708L30 789Q63 819 104 837T211 855Q283 855 319 823T356 739Q356 700 338 669T291 609T229 553L197 526H366V416Z" />
<glyph unicode="&#xb3;" horiz-adv-x="399" d="M198 853Q272 853 313 824T354 748Q354 711 336 684T275 641V637Q322 625 345 600T368 532Q368 472 320 440T185 408Q142 408 103 416T34 442V556Q66 534 103 525T179 516Q205 516 220 523T236 549Q236 563 225 573T170
584H119V679H158Q199 679 212 690T226 717Q226 729 216 739T181 750Q157 750 136 742T88 714L31 797Q61 820 103 836T198 853Z" />
<glyph unicode="&#xb4;" horiz-adv-x="418" d="M378 756Q360 742 333 722T275 680T216 639T167 606H40V620Q57 639 81 664T129 717T169 766H378V756Z" />
<glyph unicode="&#xb5;" horiz-adv-x="672" d="M606 553V0H463L437 74H429Q418 46 402 27T367 -1T325 -10Q298 -10 283 0T253 31H251Q253 17 254 -3T256 -44T257 -84V-240H66V553H257V253Q257 197 273 169T328 141Q361 141 379 160T406 218T414 311V553H606Z" />
<glyph unicode="&#xb6;" horiz-adv-x="643" d="M579 -127H486V648H409V-127H316V273Q301 269 289 267T255 264Q193 264 147 287T76 364T50 509Q50 605 77 659T155 737T270 760H579V-127Z" />
<glyph unicode="&#xb7;" horiz-adv-x="289" d="M42 353Q42 405 72 426T146 447Q187 447 216 426T246 353Q246 304 217 282T146 260Q103 260 73 282T42 353Z" />
<glyph unicode="&#xb8;" horiz-adv-x="288" d="M264 -123Q264 -176 228 -208T130 -240Q96 -240 68 -235T22 -223V-129Q39 -134 55 -137T87 -140Q106 -140 116 -133T127 -112Q127 -95 111 -85T56 -68L86 0H181L172 -30Q192 -34 213 -44T249 -72T264 -123Z" />
<glyph unicode="&#xb9;" horiz-adv-x="399" d="M301 844V416H163V590Q163 601 164 623T166 667T168 696Q164 687 155 678T138 661L99 627L28 710L194 844H301Z" />
<glyph unicode="&#xba;" horiz-adv-x="392" d="M369 539Q369 452 322 404T195 356Q120 356 72 405T24 539Q24 627 70 674T197 722Q246 722 284 700T346 638T369 539ZM147 539Q147 497 159 476T196 455Q221 455 232 476T244 539Q244 581 233 602T196 624Q171 624
159 603T147 539Z" />
<glyph unicode="&#xbb;" horiz-adv-x="681" d="M645 274L456 39L317 111L451 281L317 450L456 523L645 287V274ZM364 274L175 39L37 111L170 281L37 450L175 523L364 287V274Z" />
<glyph unicode="&#xbc;" horiz-adv-x="887" d="M174 0L542 714H689L321 0H174ZM129 460Q129 470 129 488T131 527T134 566Q132 562 124 553T106 533L65 497L-6 580L160 714H267V286H129V460ZM683 0V68H502V160L673 431H817V166H878V68H817V0H683ZM606 166H683V247Q683
264 684 280T686 313Q676 288 669 272T656 248L606 166Z" />
<glyph unicode="&#xbd;" horiz-adv-x="926" d="M186 0L554 714H701L333 0H186ZM129 460Q129 464 129 480T131 515T133 549T134 566Q132 562 123 551T103 531L65 497L-6 580L160 714H267V286H129V460ZM564 0V101L669 205Q697 233 712 251T735 282T742 307Q742 321
734 328T710 335Q691 335 670 325T626 292L557 373Q596 409 638 424T738 439Q807 439 845 409T883 323Q883 297 875 274T852 232T820 195L724 110H893V0H564Z" />
<glyph unicode="&#xbe;" horiz-adv-x="922" d="M227 0L595 714H742L374 0H227ZM195 278Q150 278 113 286T44 312V426Q73 406 109 396T189 386Q218 386 232 394T246 419Q246 439 230 446T180 454H129V549H168Q203 549 219 558T236 587Q236 599 226 609T191 620Q167
620 146 612T98 584L41 667Q78 695 119 709T208 723Q280 723 322 695T364 618Q364 580 346 554T285 511V507Q332 495 355 470T378 402Q378 343 330 311T195 278ZM718 0V68H537V160L708 431H852V166H913V68H852V0H718ZM641 166H718V247Q718 264 719 280T721 313Q711
288 704 272T691 248L641 166Z" />
<glyph unicode="&#xbf;" horiz-adv-x="505" d="M361 257Q361 227 354 203T327 156T272 112Q239 91 224 76T203 48T198 21Q198 1 216 -11T265 -23Q302 -23 345 -10T437 29L505 -104Q450 -135 388 -154T251 -173Q140 -173 79 -124T18 5Q18 43 29 75T67 135T134 189Q164
208 180 221T204 246T211 274V299H361V257ZM382 470Q382 418 352 397T279 376Q238 376 208 397T178 470Q178 520 208 541T279 563Q322 563 352 542T382 470Z" />
<glyph unicode="&#xc0;" horiz-adv-x="726" d="M515 0L480 134H248L212 0H0L233 717H490L726 0H515ZM409 409Q404 428 395 463T377 537T363 599Q359 575 351 539T334 468T319 409L288 292H440L409 409ZM404 927Q421 905 444 878T492 826T532 781V767H405Q385 780
357 799T298 840T240 882T194 917V927H404Z" />
<glyph unicode="&#xc1;" horiz-adv-x="726" d="M515 0L480 134H248L212 0H0L233 717H490L726 0H515ZM409 409Q404 428 395 463T377 537T363 599Q359 575 351 539T334 468T319 409L288 292H440L409 409ZM602 917Q584 903 557 883T499 841T440 800T391 767H264V781Q281
800 305 825T353 878T393 927H602V917Z" />
<glyph unicode="&#xc2;" horiz-adv-x="726" d="M515 0L480 134H248L212 0H0L233 717H490L726 0H515ZM409 409Q404 428 395 463T377 537T363 599Q359 575 351 539T334 468T319 409L288 292H440L409 409ZM460 927Q476 904 498 877T544 824T585 781V767H461Q435 782
412 800T363 840Q337 818 316 801T268 767H142V781Q161 799 184 824T230 877T268 927H460Z" />
<glyph unicode="&#xc3;" horiz-adv-x="726" d="M515 0L480 134H248L212 0H0L233 717H490L726 0H515ZM409 409Q404 428 395 463T377 537T363 599Q359 575 351 539T334 468T319 409L288 292H440L409 409ZM158 765Q161 811 170 843T195 894T232 923T281 932Q300 932
320 925T363 909T405 892T445 885Q454 885 464 893T480 933H569Q563 843 530 805T449 766Q427 766 405 773T362 789T320 806T281 813Q272 813 262 805T246 765H158Z" />
<glyph unicode="&#xc4;" horiz-adv-x="726" d="M515 0L480 134H248L212 0H0L233 717H490L726 0H515ZM409 409Q404 428 395 463T377 537T363 599Q359 575 351 539T334 468T319 409L288 292H440L409 409ZM162 851Q162 891 186 909T245 928Q279 928 304 910T329 851Q329
812 304 794T245 775Q210 775 186 793T162 851ZM396 851Q396 891 420 909T480 928Q514 928 539 910T564 851Q564 812 539 794T480 775Q444 775 420 793T396 851Z" />
<glyph unicode="&#xc5;" horiz-adv-x="726" d="M515 0L480 134H248L212 0H0L233 717H490L726 0H515ZM409 409Q404 428 395 463T377 537T363 599Q359 575 351 539T334 468T319 409L288 292H440L409 409ZM360 636Q302 636 267 669T231 759Q231 817 266 850T360 883Q415
883 454 850T493 760Q493 702 455 669T360 636ZM360 718Q377 718 389 729T401 759Q401 778 389 789T360 800Q343 800 331 789T319 759Q319 741 329 730T360 718Z" />
<glyph unicode="&#xc6;" horiz-adv-x="946" d="M898 0H473V134H260L211 0H-5L302 714H898V559H667V447H881V292H667V157H898V0ZM319 294H473V551H419L319 294Z" />
<glyph unicode="&#xc7;" horiz-adv-x="649" d="M395 566Q361 566 334 552T288 510T259 443T249 354Q249 287 266 241T318 172T406 148Q453 148 497 161T587 193V30Q540 9 491 0T385 -10Q269 -10 195 36T86 164T51 355Q51 436 73 503T140 620T248 697T397 724Q449
724 506 712T618 674L559 522Q520 541 480 553T395 566ZM494 -123Q494 -176 458 -208T360 -240Q326 -240 298 -235T252 -223V-129Q269 -134 285 -137T317 -140Q336 -140 346 -133T357 -112Q357 -95 341 -85T286 -68L316 0H411L402 -30Q422 -34 443 -44T479 -72T494
-123Z" />
<glyph unicode="&#xc8;" horiz-adv-x="549" d="M501 0H77V714H501V559H270V447H484V292H270V157H501V0ZM330 927Q347 905 370 878T418 826T458 781V767H331Q311 780 283 799T224 840T166 882T120 917V927H330Z" />
<glyph unicode="&#xc9;" horiz-adv-x="549" d="M501 0H77V714H501V559H270V447H484V292H270V157H501V0ZM528 917Q510 903 483 883T425 841T366 800T317 767H190V781Q207 800 231 825T279 878T319 927H528V917Z" />
<glyph unicode="&#xca;" horiz-adv-x="549" d="M501 0H77V714H501V559H270V447H484V292H270V157H501V0ZM386 927Q402 904 424 877T470 824T511 781V767H387Q361 782 338 800T289 840Q263 818 242 801T194 767H68V781Q87 799 110 824T156 877T194 927H386Z" />
<glyph unicode="&#xcb;" horiz-adv-x="549" d="M501 0H77V714H501V559H270V447H484V292H270V157H501V0ZM88 851Q88 891 112 909T171 928Q205 928 230 910T255 851Q255 812 230 794T171 775Q136 775 112 793T88 851ZM322 851Q322 891 346 909T406 928Q440 928 465
910T490 851Q490 812 465 794T406 775Q370 775 346 793T322 851Z" />
<glyph unicode="&#xcc;" horiz-adv-x="440" d="M406 0H34V110L123 144V571L34 604V714H406V604L317 571V144L406 110V0ZM261 927Q278 905 301 878T349 826T389 781V767H262Q242 780 214 799T155 840T97 882T51 917V927H261Z" />
<glyph unicode="&#xcd;" horiz-adv-x="440" d="M406 0H34V110L123 144V571L34 604V714H406V604L317 571V144L406 110V0ZM459 917Q441 903 414 883T356 841T297 800T248 767H121V781Q138 800 162 825T210 878T250 927H459V917Z" />
<glyph unicode="&#xce;" horiz-adv-x="440" d="M406 0H34V110L123 144V571L34 604V714H406V604L317 571V144L406 110V0ZM317 927Q333 904 355 877T401 824T442 781V767H318Q292 782 269 800T220 840Q194 818 173 801T125 767H-1V781Q18 799 41 824T87 877T125 927H317Z" />
<glyph unicode="&#xcf;" horiz-adv-x="440" d="M406 0H34V110L123 144V571L34 604V714H406V604L317 571V144L406 110V0ZM19 851Q19 891 43 909T102 928Q136 928 161 910T186 851Q186 812 161 794T102 775Q67 775 43 793T19 851ZM253 851Q253 891 277 909T337 928Q371
928 396 910T421 851Q421 812 396 794T337 775Q301 775 277 793T253 851Z" />
<glyph unicode="&#xd0;" horiz-adv-x="734" d="M324 714Q439 714 519 675T641 559T683 372Q683 248 637 165T506 41T308 0H77V275H15V431H77V714H324ZM326 558H270V431H373V275H270V158H313Q401 158 442 209T483 365Q483 430 466 473T414 537T326 558Z" />
<glyph unicode="&#xd1;" horiz-adv-x="834" d="M757 0H504L243 503H239Q241 480 243 448T246 382T248 322V0H77V714H329L589 218H592Q591 241 589 272T586 335T585 391V714H757V0ZM212 765Q215 811 224 843T249 894T286 923T335 932Q354 932 374 925T417 909T459
892T499 885Q508 885 518 893T534 933H623Q617 843 584 805T503 766Q481 766 459 773T416 789T374 806T335 813Q326 813 316 805T300 765H212Z" />
<glyph unicode="&#xd2;" horiz-adv-x="797" d="M745 358Q745 275 725 208T663 91T556 16T398 -10Q308 -10 243 16T135 91T72 207T51 359Q51 470 88 552T202 680T399 725Q521 725 597 680T709 552T745 358ZM254 358Q254 294 268 248T315 176T398 151Q451 151 482
176T528 247T542 358Q542 455 510 511T399 567Q347 567 315 542T269 470T254 358ZM440 927Q457 905 480 878T528 826T568 781V767H441Q421 780 393 799T334 840T276 882T230 917V927H440Z" />
<glyph unicode="&#xd3;" horiz-adv-x="797" d="M745 358Q745 275 725 208T663 91T556 16T398 -10Q308 -10 243 16T135 91T72 207T51 359Q51 470 88 552T202 680T399 725Q521 725 597 680T709 552T745 358ZM254 358Q254 294 268 248T315 176T398 151Q451 151 482
176T528 247T542 358Q542 455 510 511T399 567Q347 567 315 542T269 470T254 358ZM638 917Q620 903 593 883T535 841T476 800T427 767H300V781Q317 800 341 825T389 878T429 927H638V917Z" />
<glyph unicode="&#xd4;" horiz-adv-x="797" d="M745 358Q745 275 725 208T663 91T556 16T398 -10Q308 -10 243 16T135 91T72 207T51 359Q51 470 88 552T202 680T399 725Q521 725 597 680T709 552T745 358ZM254 358Q254 294 268 248T315 176T398 151Q451 151 482
176T528 247T542 358Q542 455 510 511T399 567Q347 567 315 542T269 470T254 358ZM496 927Q512 904 534 877T580 824T621 781V767H497Q471 782 448 800T399 840Q373 818 352 801T304 767H178V781Q197 799 220 824T266 877T304 927H496Z" />
<glyph unicode="&#xd5;" horiz-adv-x="797" d="M745 358Q745 275 725 208T663 91T556 16T398 -10Q308 -10 243 16T135 91T72 207T51 359Q51 470 88 552T202 680T399 725Q521 725 597 680T709 552T745 358ZM254 358Q254 294 268 248T315 176T398 151Q451 151 482
176T528 247T542 358Q542 455 510 511T399 567Q347 567 315 542T269 470T254 358ZM194 765Q197 811 206 843T231 894T268 923T317 932Q336 932 356 925T399 909T441 892T481 885Q490 885 500 893T516 933H605Q599 843 566 805T485 766Q463 766 441 773T398 789T356
806T317 813Q308 813 298 805T282 765H194Z" />
<glyph unicode="&#xd6;" horiz-adv-x="797" d="M745 358Q745 275 725 208T663 91T556 16T398 -10Q308 -10 243 16T135 91T72 207T51 359Q51 470 88 552T202 680T399 725Q521 725 597 680T709 552T745 358ZM254 358Q254 294 268 248T315 176T398 151Q451 151 482
176T528 247T542 358Q542 455 510 511T399 567Q347 567 315 542T269 470T254 358ZM198 851Q198 891 222 909T281 928Q315 928 340 910T365 851Q365 812 340 794T281 775Q246 775 222 793T198 851ZM432 851Q432 891 456 909T516 928Q550 928 575 910T600 851Q600
812 575 794T516 775Q480 775 456 793T432 851Z" />
<glyph unicode="&#xd7;" horiz-adv-x="586" d="M424 576L516 487L382 353L514 220L424 130L290 262L158 131L70 222L199 353L69 484L158 576L290 446L424 576Z" />
<glyph unicode="&#xd8;" horiz-adv-x="797" d="M745 358Q745 275 725 208T663 91T556 16T398 -10Q355 -10 318 -5T248 11L207 -53L113 8L154 69Q101 118 76 191T51 359Q51 470 88 552T202 680T399 725Q446 725 486 719T560 698L597 756L690 700L650 639Q700 591
722 519T745 358ZM542 358Q542 419 533 461L341 158Q353 155 367 153T398 151Q451 151 482 176T528 247T542 358ZM254 358Q254 324 257 295T268 241L465 553Q451 559 434 563T399 567Q347 567 315 542T269 470T254 358Z" />
<glyph unicode="&#xd9;" horiz-adv-x="757" d="M684 284Q684 194 650 128T548 26T376 -10Q228 -10 151 65T73 280V714H267V295Q267 219 295 185T379 151Q419 151 443 166T479 213T491 296V714H684V284ZM420 927Q437 905 460 878T508 826T548 781V767H421Q401 780
373 799T314 840T256 882T210 917V927H420Z" />
<glyph unicode="&#xda;" horiz-adv-x="757" d="M684 284Q684 194 650 128T548 26T376 -10Q228 -10 151 65T73 280V714H267V295Q267 219 295 185T379 151Q419 151 443 166T479 213T491 296V714H684V284ZM618 917Q600 903 573 883T515 841T456 800T407 767H280V781Q297
800 321 825T369 878T409 927H618V917Z" />
<glyph unicode="&#xdb;" horiz-adv-x="757" d="M684 284Q684 194 650 128T548 26T376 -10Q228 -10 151 65T73 280V714H267V295Q267 219 295 185T379 151Q419 151 443 166T479 213T491 296V714H684V284ZM476 927Q492 904 514 877T560 824T601 781V767H477Q451 782
428 800T379 840Q353 818 332 801T284 767H158V781Q177 799 200 824T246 877T284 927H476Z" />
<glyph unicode="&#xdc;" horiz-adv-x="757" d="M684 284Q684 194 650 128T548 26T376 -10Q228 -10 151 65T73 280V714H267V295Q267 219 295 185T379 151Q419 151 443 166T479 213T491 296V714H684V284ZM178 851Q178 891 202 909T261 928Q295 928 320 910T345 851Q345
812 320 794T261 775Q226 775 202 793T178 851ZM412 851Q412 891 436 909T496 928Q530 928 555 910T580 851Q580 812 555 794T496 775Q460 775 436 793T412 851Z" />
<glyph unicode="&#xdd;" horiz-adv-x="664" d="M332 449L455 714H664L429 279V0H235V273L0 714H210L332 449ZM571 917Q553 903 526 883T468 841T409 800T360 767H233V781Q250 800 274 825T322 878T362 927H571V917Z" />
<glyph unicode="&#xde;" horiz-adv-x="627" d="M595 383Q595 334 581 290T536 210T452 154T324 133H270V0H77V714H270V610H324Q460 610 527 551T595 383ZM305 290Q330 290 351 299T386 329T400 382Q400 416 381 435T320 454H270V290H305Z" />
<glyph unicode="&#xdf;" horiz-adv-x="750" d="M654 581Q654 547 641 521T609 476T569 441T536 415T523 396Q523 384 534 375T568 353T624 320Q657 299 678 278T710 229T721 163Q721 107 696 69T622 10T500 -10Q433 -10 392 -4T319 19V161Q336 151 360 142T409
128T455 122Q483 122 502 133T522 164Q522 175 517 184T492 207T431 241Q391 263 367 282T333 322T322 369Q322 400 335 421T369 459T410 490T444 521T458 561Q458 586 434 602T365 619Q328 619 304 607T269 573T257 517V0H66V537Q66 611 105 661T211 738T365 765Q449
765 514 745T617 684T654 581Z" />
<glyph unicode="&#xe0;" horiz-adv-x="623" d="M336 563Q441 563 500 511T559 363V0H427L390 73H386Q363 44 339 26T282 -1T204 -10Q156 -10 118 9T58 68T36 169Q36 258 97 301T276 349L368 352V360Q368 397 350 412T301 428Q268 428 228 417T147 387L92 513Q140
538 200 550T336 563ZM325 245Q273 243 252 227T230 180Q230 152 245 139T285 125Q320 125 344 147T369 204V247L325 245ZM353 766Q370 744 393 717T441 665T481 620V606H354Q334 619 306 638T247 679T189 721T143 756V766H353Z" />
<glyph unicode="&#xe1;" horiz-adv-x="623" d="M336 563Q441 563 500 511T559 363V0H427L390 73H386Q363 44 339 26T282 -1T204 -10Q156 -10 118 9T58 68T36 169Q36 258 97 301T276 349L368 352V360Q368 397 350 412T301 428Q268 428 228 417T147 387L92 513Q140
538 200 550T336 563ZM325 245Q273 243 252 227T230 180Q230 152 245 139T285 125Q320 125 344 147T369 204V247L325 245ZM551 756Q533 742 506 722T448 680T389 639T340 606H213V620Q230 639 254 664T302 717T342 766H551V756Z" />
<glyph unicode="&#xe2;" horiz-adv-x="623" d="M336 563Q441 563 500 511T559 363V0H427L390 73H386Q363 44 339 26T282 -1T204 -10Q156 -10 118 9T58 68T36 169Q36 258 97 301T276 349L368 352V360Q368 397 350 412T301 428Q268 428 228 417T147 387L92 513Q140
538 200 550T336 563ZM325 245Q273 243 252 227T230 180Q230 152 245 139T285 125Q320 125 344 147T369 204V247L325 245ZM409 766Q425 743 447 716T493 663T534 620V606H410Q384 621 361 639T312 679Q286 657 265 640T217 606H91V620Q110 638 133 663T179 716T217
766H409Z" />
<glyph unicode="&#xe3;" horiz-adv-x="623" d="M336 563Q441 563 500 511T559 363V0H427L390 73H386Q363 44 339 26T282 -1T204 -10Q156 -10 118 9T58 68T36 169Q36 258 97 301T276 349L368 352V360Q368 397 350 412T301 428Q268 428 228 417T147 387L92 513Q140
538 200 550T336 563ZM325 245Q273 243 252 227T230 180Q230 152 245 139T285 125Q320 125 344 147T369 204V247L325 245ZM107 604Q110 650 119 682T144 733T181 762T230 771Q249 771 269 764T312 748T354 731T394 724Q403 724 413 732T429 772H518Q512 682 479
644T398 605Q376 605 354 612T311 628T269 645T230 652Q221 652 211 644T195 604H107Z" />
<glyph unicode="&#xe4;" horiz-adv-x="623" d="M336 563Q441 563 500 511T559 363V0H427L390 73H386Q363 44 339 26T282 -1T204 -10Q156 -10 118 9T58 68T36 169Q36 258 97 301T276 349L368 352V360Q368 397 350 412T301 428Q268 428 228 417T147 387L92 513Q140
538 200 550T336 563ZM325 245Q273 243 252 227T230 180Q230 152 245 139T285 125Q320 125 344 147T369 204V247L325 245ZM111 690Q111 730 135 748T194 767Q228 767 253 749T278 690Q278 651 253 633T194 614Q159 614 135 632T111 690ZM345 690Q345 730 369 748T429
767Q463 767 488 749T513 690Q513 651 488 633T429 614Q393 614 369 632T345 690Z" />
<glyph unicode="&#xe5;" horiz-adv-x="623" d="M336 563Q441 563 500 511T559 363V0H427L390 73H386Q363 44 339 26T282 -1T204 -10Q156 -10 118 9T58 68T36 169Q36 258 97 301T276 349L368 352V360Q368 397 350 412T301 428Q268 428 228 417T147 387L92 513Q140
538 200 550T336 563ZM325 245Q273 243 252 227T230 180Q230 152 245 139T285 125Q320 125 344 147T369 204V247L325 245ZM310 604Q252 604 217 637T181 727Q181 785 216 818T310 851Q365 851 404 818T443 728Q443 670 405 637T310 604ZM310 686Q327 686 339 697T351
727Q351 746 339 757T310 768Q293 768 281 757T269 727Q269 709 279 698T310 686Z" />
<glyph unicode="&#xe6;" horiz-adv-x="935" d="M653 563Q723 563 777 535T862 451T893 309V225H553Q555 185 587 156T680 126Q718 126 764 135T858 168V31Q818 10 772 0T655 -10Q613 -10 575 0T503 30T445 83Q411 48 381 28T311 -1T212 -10Q166 -10 126 9T61 69T36
172Q36 234 66 272T151 328T279 349L368 352V361Q368 401 348 414T302 428Q269 428 229 418T149 389L95 514Q142 539 199 551T317 563Q364 563 405 552T481 517Q516 541 556 552T653 563ZM328 245Q272 244 252 225T231 174Q231 147 246 136T286 125Q309 125 327
135T357 163T369 204V247L328 245ZM642 433Q607 433 584 414T556 345H722Q722 369 713 389T686 421T642 433Z" />
<glyph unicode="&#xe7;" horiz-adv-x="539" d="M318 -10Q234 -10 172 20T76 113T42 274Q42 375 80 438T183 532T333 563Q384 563 429 552T514 521L458 380Q424 395 395 404T333 413Q304 413 282 398T248 353T236 275Q236 227 248 198T283 156T334 142Q375 142
416 155T495 191V39Q461 17 418 4T318 -10ZM430 -123Q430 -176 394 -208T296 -240Q262 -240 234 -235T188 -223V-129Q205 -134 221 -137T253 -140Q272 -140 282 -133T293 -112Q293 -95 277 -85T222 -68L252 0H347L338 -30Q358 -34 379 -44T415 -72T430 -123Z" />
<glyph unicode="&#xe8;" horiz-adv-x="618" d="M315 563Q396 563 454 535T544 451T576 310V225H235Q237 182 267 154T356 126Q408 126 451 136T540 168V31Q500 10 453 0T333 -10Q249 -10 184 19T80 112T42 273Q42 373 76 437T172 532T315 563ZM322 433Q288 433
266 412T239 345H403Q403 370 394 389T366 421T322 433ZM350 766Q367 744 390 717T438 665T478 620V606H351Q331 619 303 638T244 679T186 721T140 756V766H350Z" />
<glyph unicode="&#xe9;" horiz-adv-x="618" d="M315 563Q396 563 454 535T544 451T576 310V225H235Q237 182 267 154T356 126Q408 126 451 136T540 168V31Q500 10 453 0T333 -10Q249 -10 184 19T80 112T42 273Q42 373 76 437T172 532T315 563ZM322 433Q288 433
266 412T239 345H403Q403 370 394 389T366 421T322 433ZM548 756Q530 742 503 722T445 680T386 639T337 606H210V620Q227 639 251 664T299 717T339 766H548V756Z" />
<glyph unicode="&#xea;" horiz-adv-x="618" d="M315 563Q396 563 454 535T544 451T576 310V225H235Q237 182 267 154T356 126Q408 126 451 136T540 168V31Q500 10 453 0T333 -10Q249 -10 184 19T80 112T42 273Q42 373 76 437T172 532T315 563ZM322 433Q288 433
266 412T239 345H403Q403 370 394 389T366 421T322 433ZM406 766Q422 743 444 716T490 663T531 620V606H407Q381 621 358 639T309 679Q283 657 262 640T214 606H88V620Q107 638 130 663T176 716T214 766H406Z" />
<glyph unicode="&#xeb;" horiz-adv-x="618" d="M315 563Q396 563 454 535T544 451T576 310V225H235Q237 182 267 154T356 126Q408 126 451 136T540 168V31Q500 10 453 0T333 -10Q249 -10 184 19T80 112T42 273Q42 373 76 437T172 532T315 563ZM322 433Q288 433
266 412T239 345H403Q403 370 394 389T366 421T322 433ZM364 690Q364 730 388 748T447 767Q481 767 506 749T531 690Q531 651 506 633T447 614Q412 614 388 632T364 690ZM598 690Q598 730 622 748T682 767Q716 767 741 749T766 690Q766 651 741 633T682 614Q646
614 622 632T598 690Z" />
<glyph unicode="&#xec;" horiz-adv-x="325" d="M258 0H67V553H258V0ZM460 766Q477 744 500 717T548 665T588 620V606H461Q441 619 413 638T354 679T296 721T250 756V766H460Z" />
<glyph unicode="&#xed;" horiz-adv-x="325" d="M258 0H67V553H258V0ZM402 756Q384 742 357 722T299 680T240 639T191 606H64V620Q81 639 105 664T153 717T193 766H402V756Z" />
<glyph unicode="&#xee;" horiz-adv-x="325" d="M258 0H67V553H258V0ZM516 766Q532 743 554 716T600 663T641 620V606H517Q491 621 468 639T419 679Q393 657 372 640T324 606H198V620Q217 638 240 663T286 716T324 766H516Z" />
<glyph unicode="&#xef;" horiz-adv-x="325" d="M258 0H67V553H258V0ZM-38 690Q-38 730 -14 748T45 767Q79 767 104 749T129 690Q129 651 104 633T45 614Q10 614 -14 632T-38 690ZM196 690Q196 730 220 748T280 767Q314 767 339 749T364 690Q364 651 339 633T280
614Q244 614 220 632T196 690Z" />
<glyph unicode="&#xf0;" horiz-adv-x="641" d="M234 768Q273 752 305 736T364 702L466 769L522 680L451 633Q498 587 530 536T578 423T594 283Q594 193 560 127T464 26T317 -10Q238 -10 176 19T79 104T43 243Q43 326 74 382T158 466T277 495Q310 495 333 491T372
477T396 454L400 456Q386 483 370 508T330 557L241 499L184 589L254 634Q239 644 220 656T181 679L234 768ZM319 358Q289 358 272 346T247 309T239 244Q239 209 246 182T272 141T319 126Q363 126 381 161T399 266Q399 283 394 299T380 329T355 350T319 358Z" />
<glyph unicode="&#xf1;" horiz-adv-x="670" d="M412 563Q498 563 552 515T606 360V0H415V302Q415 357 399 385T348 413Q294 413 276 369T257 242V0H66V553H210L236 480H243Q261 506 285 524T341 553T412 563ZM130 604Q133 650 142 682T167 733T204 762T253 771Q272
771 292 764T335 748T377 731T417 724Q426 724 436 732T452 772H541Q535 682 502 644T421 605Q399 605 377 612T334 628T292 645T253 652Q244 652 234 644T218 604H130Z" />
<glyph unicode="&#xf2;" horiz-adv-x="637" d="M594 278Q594 209 575 155T520 65T433 9T317 -10Q257 -10 207 9T120 64T63 155T42 278Q42 370 75 433T171 530T320 563Q400 563 461 530T558 434T594 278ZM236 278Q236 231 244 198T270 149T319 132Q349 132 366
148T392 198T400 278Q400 325 392 357T366 405T318 421Q275 421 256 385T236 278ZM360 766Q377 744 400 717T448 665T488 620V606H361Q341 619 313 638T254 679T196 721T150 756V766H360Z" />
<glyph unicode="&#xf3;" horiz-adv-x="637" d="M594 278Q594 209 575 155T520 65T433 9T317 -10Q257 -10 207 9T120 64T63 155T42 278Q42 370 75 433T171 530T320 563Q400 563 461 530T558 434T594 278ZM236 278Q236 231 244 198T270 149T319 132Q349 132 366
148T392 198T400 278Q400 325 392 357T366 405T318 421Q275 421 256 385T236 278ZM558 756Q540 742 513 722T455 680T396 639T347 606H220V620Q237 639 261 664T309 717T349 766H558V756Z" />
<glyph unicode="&#xf4;" horiz-adv-x="637" d="M594 278Q594 209 575 155T520 65T433 9T317 -10Q257 -10 207 9T120 64T63 155T42 278Q42 370 75 433T171 530T320 563Q400 563 461 530T558 434T594 278ZM236 278Q236 231 244 198T270 149T319 132Q349 132 366
148T392 198T400 278Q400 325 392 357T366 405T318 421Q275 421 256 385T236 278ZM416 766Q432 743 454 716T500 663T541 620V606H417Q391 621 368 639T319 679Q293 657 272 640T224 606H98V620Q117 638 140 663T186 716T224 766H416Z" />
<glyph unicode="&#xf5;" horiz-adv-x="637" d="M594 278Q594 209 575 155T520 65T433 9T317 -10Q257 -10 207 9T120 64T63 155T42 278Q42 370 75 433T171 530T320 563Q400 563 461 530T558 434T594 278ZM236 278Q236 231 244 198T270 149T319 132Q349 132 366
148T392 198T400 278Q400 325 392 357T366 405T318 421Q275 421 256 385T236 278ZM114 604Q117 650 126 682T151 733T188 762T237 771Q256 771 276 764T319 748T361 731T401 724Q410 724 420 732T436 772H525Q519 682 486 644T405 605Q383 605 361 612T318 628T276
645T237 652Q228 652 218 644T202 604H114Z" />
<glyph unicode="&#xf6;" horiz-adv-x="637" d="M594 278Q594 209 575 155T520 65T433 9T317 -10Q257 -10 207 9T120 64T63 155T42 278Q42 370 75 433T171 530T320 563Q400 563 461 530T558 434T594 278ZM236 278Q236 231 244 198T270 149T319 132Q349 132 366
148T392 198T400 278Q400 325 392 357T366 405T318 421Q275 421 256 385T236 278ZM118 690Q118 730 142 748T201 767Q235 767 260 749T285 690Q285 651 260 633T201 614Q166 614 142 632T118 690ZM352 690Q352 730 376 748T436 767Q470 767 495 749T520 690Q520
651 495 633T436 614Q400 614 376 632T352 690Z" />
<glyph unicode="&#xf7;" horiz-adv-x="586" d="M45 287V418H540V287H45ZM292 79Q261 79 239 99T216 162Q216 209 238 227T292 245Q322 245 345 227T369 162Q369 119 346 99T292 79ZM292 460Q261 460 239 480T216 543Q216 590 238 608T292 626Q322 626 345 608T369
543Q369 500 346 480T292 460Z" />
<glyph unicode="&#xf8;" horiz-adv-x="665" d="M622 278Q622 186 587 122T487 24T331 -10Q301 -10 273 -6T219 7L178 -57L95 -5L134 55Q91 92 67 148T42 278Q42 415 120 489T334 563Q365 563 394 558T448 544L483 598L565 547L532 496Q574 460 598 405T622 278ZM225
278Q225 257 226 240T231 206L372 425Q363 428 353 429T332 431Q273 431 249 393T225 278ZM439 278Q439 296 438 312T434 342L296 126Q304 124 313 123T333 122Q374 122 397 140T429 192T439 278Z" />
<glyph unicode="&#xf9;" horiz-adv-x="670" d="M604 553V0H460L436 69H425Q408 41 382 24T324 -2T258 -10Q204 -10 160 11T91 77T65 193V553H256V251Q256 197 271 169T322 141Q358 141 378 160T405 218T413 311V553H604ZM376 766Q393 744 416 717T464 665T504
620V606H377Q357 619 329 638T270 679T212 721T166 756V766H376Z" />
<glyph unicode="&#xfa;" horiz-adv-x="670" d="M604 553V0H460L436 69H425Q408 41 382 24T324 -2T258 -10Q204 -10 160 11T91 77T65 193V553H256V251Q256 197 271 169T322 141Q358 141 378 160T405 218T413 311V553H604ZM574 756Q556 742 529 722T471 680T412
639T363 606H236V620Q253 639 277 664T325 717T365 766H574V756Z" />
<glyph unicode="&#xfb;" horiz-adv-x="670" d="M604 553V0H460L436 69H425Q408 41 382 24T324 -2T258 -10Q204 -10 160 11T91 77T65 193V553H256V251Q256 197 271 169T322 141Q358 141 378 160T405 218T413 311V553H604ZM432 766Q448 743 470 716T516 663T557
620V606H433Q407 621 384 639T335 679Q309 657 288 640T240 606H114V620Q133 638 156 663T202 716T240 766H432Z" />
<glyph unicode="&#xfc;" horiz-adv-x="670" d="M604 553V0H460L436 69H425Q408 41 382 24T324 -2T258 -10Q204 -10 160 11T91 77T65 193V553H256V251Q256 197 271 169T322 141Q358 141 378 160T405 218T413 311V553H604ZM134 690Q134 730 158 748T217 767Q251
767 276 749T301 690Q301 651 276 633T217 614Q182 614 158 632T134 690ZM368 690Q368 730 392 748T452 767Q486 767 511 749T536 690Q536 651 511 633T452 614Q416 614 392 632T368 690Z" />
<glyph unicode="&#xfd;" horiz-adv-x="610" d="M-1 553H200L294 236Q296 229 298 219T301 198T303 176H307Q309 196 312 210T319 235L415 553H610L391 -35Q366 -102 333 -148T250 -217T128 -240Q102 -240 83 -238T50 -232V-82Q61 -84 76 -86T109 -88Q141 -88 160
-75T193 -42T215 3L217 8L-1 553ZM544 756Q526 742 499 722T441 680T382 639T333 606H206V620Q223 639 247 664T295 717T335 766H544V756Z" />
<glyph unicode="&#xfe;" horiz-adv-x="643" d="M600 278Q600 184 574 120T502 23T397 -10Q363 -10 337 -1T291 22T257 53H250Q252 43 253 30T256 3T257 -21V-240H66V760H257V592Q257 552 254 525T248 482H257Q270 505 290 523T339 552T404 563Q490 563 545 491T600
278ZM406 280Q406 345 390 379T333 413Q292 413 276 383T257 293V279Q257 213 274 179T336 144Q362 144 377 159T399 205T406 280Z" />
<glyph unicode="&#xff;" horiz-adv-x="610" d="M-1 553H200L294 236Q296 229 298 219T301 198T303 176H307Q309 196 312 210T319 235L415 553H610L391 -35Q366 -102 333 -148T250 -217T128 -240Q102 -240 83 -238T50 -232V-82Q61 -84 76 -86T109 -88Q141 -88 160
-75T193 -42T215 3L217 8L-1 553ZM360 690Q360 730 384 748T443 767Q477 767 502 749T527 690Q527 651 502 633T443 614Q408 614 384 632T360 690ZM594 690Q594 730 618 748T678 767Q712 767 737 749T762 690Q762 651 737 633T678 614Q642 614 618 632T594 690Z"
/>
<glyph unicode="&#x2013;" horiz-adv-x="500" d="M36 202V337H464V202H36Z" />
<glyph unicode="&#x2014;" horiz-adv-x="1000" d="M36 202V337H962V202H36Z" />
<glyph unicode="&#x2018;" horiz-adv-x="250" d="M10 439Q19 475 33 525T63 625T96 713H232Q223 668 214 617T197 517T184 428H17L10 439Z" />
<glyph unicode="&#x2019;" horiz-adv-x="250" d="M240 702Q231 666 217 616T187 516T154 428H18Q25 462 32 499T45 574T57 647T66 713H233L240 702Z" />
<glyph unicode="&#x201a;" horiz-adv-x="309" d="M251 134Q242 98 228 48T198 -52T165 -140H29Q36 -106 43 -69T56 6T68 79T77 145H244L251 134Z" />
<glyph unicode="&#x201c;" horiz-adv-x="499" d="M481 713Q472 668 463 617T446 517T433 428H266L259 439Q268 475 282 525T312 625T345 713H481ZM232 713Q223 668 214 617T197 517T184 428H17L10 439Q19 475 33 525T63 625T96 713H232Z" />
<glyph unicode="&#x201d;" horiz-adv-x="499" d="M489 702Q480 666 466 616T436 516T403 428H267Q277 474 286 524T303 624T315 713H482L489 702ZM240 702Q231 666 217 616T187 516T154 428H18Q25 462 32 499T45 574T57 647T66 713H233L240 702Z" />
<glyph unicode="&#x201e;" horiz-adv-x="558" d="M500 134Q491 98 477 48T447 -52T414 -140H278Q288 -94 297 -44T314 56T326 145H493L500 134ZM251 134Q242 98 228 48T198 -52T165 -140H29Q36 -106 43 -69T56 6T68 79T77 145H244L251 134Z" />
<glyph unicode="&#x2022;" horiz-adv-x="392" d="M36 365Q36 429 57 467T115 523T196 541Q240 541 276 524T334 468T356 365Q356 303 335 264T277 207T196 189Q151 189 115 207T58 264T36 365Z" />
<glyph unicode="&#x2039;" horiz-adv-x="400" d="M36 287L226 523L363 450L230 281L363 111L226 39L36 274V287Z" />
<glyph unicode="&#x203a;" horiz-adv-x="400" d="M175 523L364 287V274L175 39L37 111L170 281L37 450L175 523Z" />
</font>
</defs>
</svg>
