<?xml version="1.0" standalone="no"?>
<!DOCTYPE svg PUBLIC "-//W3C//DTD SVG 1.1//EN" "http://www.w3.org/Graphics/SVG/1.1/DTD/svg11.dtd">
<svg xmlns="http://www.w3.org/2000/svg">
<defs >
<font id="NotoSans" horiz-adv-x="552" ><font-face
    font-family="Noto Sans Black"
    units-per-em="1000"
    panose-1="2 11 5 2 4 5 4 9 2 4"
    ascent="1069"
    descent="-293"
    alphabetic="0" />
<glyph unicode=" " horiz-adv-x="260" />
<glyph unicode="!" horiz-adv-x="304" d="M61 252L137 714H345L221 252H61ZM97 -12Q45 -12 26 11T6 62Q6 110 35 143T125 176Q167 176 190 156T213 100Q213 44 181 16T97 -12Z" />
<glyph unicode="&quot;" horiz-adv-x="454" d="M304 456L340 714H507L430 456H304ZM89 456L124 714H291L214 456H89Z" />
<glyph unicode="#" horiz-adv-x="646" d="M59 0L114 192H7L17 308H147L175 406H60L70 524H209L263 714H395L341 524H423L477 714H609L555 524H663L653 406H521L493 308H612L602 192H459L405 0H273L328 192H246L191 0H59ZM279 308H361L389 406H307L279 308Z" />
<glyph unicode="$" horiz-adv-x="580" d="M199 34Q138 39 97 51T30 79L27 228Q79 204 131 190T229 172L258 308Q207 328 170 353T113 412T92 492Q92 554 122 597T208 666T340 695L354 760H436L421 693Q462 689 499 679T574 650L525 519Q498 533 462 542T392 556L363
421Q421 395 456 369T508 312T525 240Q525 178 493 133T406 62T280 32L261 -59H179L199 34ZM310 175Q330 180 342 187T359 205T365 227Q365 239 361 248T350 265T332 278L310 175ZM311 554Q292 550 282 542T267 523T263 499Q263 488 266 480T275 466T289 455L311
554Z" />
<glyph unicode="%" horiz-adv-x="930" d="M143 0L675 714H816L288 0H143ZM214 276Q138 276 97 318T56 444Q56 479 63 517T85 593T126 659T187 706T271 724Q349 724 388 680T427 556Q427 522 421 484T399 408T360 342T299 294T214 276ZM223 394Q235 394 245 405T263
435T276 476T285 522T288 565Q288 586 282 596T262 606Q251 606 242 595T224 566T210 526T201 480T197 435Q197 415 203 405T223 394ZM694 -10Q618 -10 577 32T536 158Q536 193 543 231T565 307T606 373T667 420T751 438Q829 438 868 394T907 270Q907 236 901 198T879
122T840 56T779 8T694 -10ZM703 108Q715 108 725 119T743 149T756 190T765 236T768 279Q768 300 762 310T742 320Q731 320 722 309T704 280T690 240T681 194T677 149Q677 129 683 119T703 108Z" />
<glyph unicode="&amp;" horiz-adv-x="733" d="M258 -10Q142 -10 73 41T4 188Q4 243 24 283T84 351T179 398Q159 424 149 460T138 520Q138 585 166 631T247 701T373 725Q431 725 476 707T549 654T576 567Q576 520 556 483T499 415T409 357L472 266Q492 287 511
325T540 401H727Q711 345 687 295T633 202T572 128L665 0H449L428 30Q396 13 352 2T258 -10ZM279 140Q293 140 305 142T327 147T346 153L252 289Q230 280 218 267T200 238T195 207Q195 191 203 176T230 150T279 140ZM335 463Q349 469 361 477T383 497T398 522T404
554Q404 571 393 583T364 596Q348 596 336 589T317 567T310 533Q310 523 315 503T335 463Z" />
<glyph unicode="&apos;" horiz-adv-x="238" d="M89 456L124 714H291L214 456H89Z" />
<glyph unicode="(" horiz-adv-x="374" d="M107 -158Q84 -117 67 -63T42 49T33 159Q33 244 49 321T97 469T175 605T283 734H441Q388 676 343 612T264 476T212 323T193 151Q193 105 200 51T219 -58T250 -158H107Z" />
<glyph unicode=")" horiz-adv-x="374" d="M-65 -158Q-12 -100 32 -36T110 100T161 253T179 425Q179 472 172 526T152 634T121 734H265Q291 690 307 636T331 526T339 417Q339 332 324 255T277 107T201 -29T94 -158H-65Z" />
<glyph unicode="*" horiz-adv-x="542" d="M338 269L299 417L218 298L96 388L220 500L74 541L123 677L279 596L294 767L444 737L387 575L567 590L556 443L405 463L477 311L338 269Z" />
<glyph unicode="+" horiz-adv-x="586" d="M358 418H540V287H358V111H227V287H45V418H227V597H358V418Z" />
<glyph unicode="," horiz-adv-x="306" d="M-51 -129Q-33 -89 -17 -46T13 40T41 116H211L215 105Q200 70 180 30T137 -51T90 -129H-51Z" />
<glyph unicode="-" horiz-adv-x="329" d="M11 192L42 344H312L281 192H11Z" />
<glyph unicode="." horiz-adv-x="306" d="M85 -12Q47 -12 24 6T0 62Q0 121 35 148T119 176Q158 176 182 158T207 100Q207 36 174 12T85 -12Z" />
<glyph unicode="/" horiz-adv-x="467" d="M-44 -10L365 724H533L124 -10H-44Z" />
<glyph unicode="0" horiz-adv-x="580" d="M239 -10Q141 -10 86 49T31 227Q31 288 39 348T65 463T108 566T171 649T253 705T357 725Q414 725 454 704T518 648T554 570T565 480Q565 415 556 354T529 238T485 138T422 60T340 8T239 -10ZM258 144Q275 144 290 159T318
201T341 262T359 334T371 410T375 484Q375 525 366 548T335 571Q320 571 306 556T280 513T256 451T238 377T226 299T221 223Q221 183 228 164T258 144Z" />
<glyph unicode="1" horiz-adv-x="580" d="M273 390Q277 409 283 431T296 476T310 515Q296 502 277 488T246 465L147 404L73 527L376 714H528L378 0H188L273 390Z" />
<glyph unicode="2" horiz-adv-x="580" d="M-28 0L-2 125L234 338Q270 370 293 396T330 444T349 483T355 514Q355 538 343 550T310 562Q289 562 267 554T222 530T173 490L82 616Q135 666 200 695T346 724Q405 724 450 703T520 641T545 544Q545 498 529 455T471
363T357 251L257 165V159H496L463 0H-28Z" />
<glyph unicode="3" horiz-adv-x="580" d="M195 -10Q142 -10 91 0T7 29V191Q51 165 97 154T191 142Q220 142 244 147T287 162T315 189T325 230Q325 251 315 265T276 287T189 295H148L174 437H212Q247 437 275 442T323 459T353 486T364 522Q364 539 350 555T298
572Q265 572 233 561T166 531L89 652Q141 685 196 704T334 724Q398 724 446 704T522 646T550 555Q550 503 529 466T470 405T383 372V368Q449 355 483 312T517 210Q517 152 492 110T422 42T319 3T195 -10Z" />
<glyph unicode="4" horiz-adv-x="580" d="M234 0L263 138H-5L20 263L392 714H568L477 282H550L520 138H447L418 0H234ZM191 282H293L317 377Q322 394 328 415T339 455T346 480H342Q336 469 327 454T307 423T286 396L191 282Z" />
<glyph unicode="5" horiz-adv-x="580" d="M212 -10Q176 -10 136 -6T63 8T10 31V189Q46 168 96 155T188 142Q220 142 245 147T287 164T314 193T323 236Q323 270 301 294T232 319Q207 319 179 315T133 303L73 348L178 714H575L542 556H312L283 466Q296 468 305 468T320
468Q375 468 420 444T491 372T518 256Q518 189 497 139T435 56T339 7T212 -10Z" />
<glyph unicode="6" horiz-adv-x="580" d="M272 -10Q191 -10 140 22T64 113T39 249Q39 300 48 354T74 459T117 554T176 628Q219 668 262 688T356 716T474 724Q502 724 531 720T588 709L557 561Q538 566 513 569T468 573Q391 573 345 554T273 496T226 394H230Q243
415 262 434T310 465T380 477Q454 477 497 430T540 281Q540 219 522 166T470 74T386 12T272 -10ZM274 140Q292 140 306 150T329 179T343 219T348 266Q348 295 337 312T303 329Q288 329 275 321T251 298T234 263Q232 254 230 245T227 226T226 205Q226 189 229 177T239
157T254 144T274 140Z" />
<glyph unicode="7" horiz-adv-x="580" d="M17 0L367 554H87L121 714H624L599 601L236 0H17Z" />
<glyph unicode="8" horiz-adv-x="580" d="M262 -10Q184 -10 131 14T51 77T24 165Q24 215 42 254T97 322T186 369Q166 385 149 405T121 454T110 520Q110 575 137 621T219 696T354 725Q422 725 469 704T540 646T565 562Q565 524 550 488T504 425T428 382Q458 359
478 333T509 275T520 205Q520 138 489 90T400 16T262 -10ZM267 128Q288 128 305 136T333 162T343 202Q343 222 336 239T316 270T285 297Q262 285 243 269T213 232T202 188Q202 158 222 143T267 128ZM329 454Q350 462 363 476T384 507T391 539Q391 563 377 575T345
587Q330 587 317 578T295 554T287 520Q287 501 298 482T329 454Z" />
<glyph unicode="9" horiz-adv-x="580" d="M155 -10Q124 -10 99 -6T52 5V158Q76 148 99 144T151 140Q197 142 232 154T294 188T337 242T364 320H360Q347 299 329 280T282 248T213 235Q163 235 127 259T72 328T53 433Q53 491 69 543T118 636T202 700T323 724Q405
724 456 691T531 599T555 465Q555 414 548 362T524 260T481 166T418 86Q395 64 367 46T307 16T236 -3T155 -10ZM290 385Q305 385 318 393T341 414T358 446Q363 459 365 473T368 503Q368 523 363 539T347 564T320 574Q304 574 291 565T267 539T251 501T245 455Q245
420 256 403T290 385Z" />
<glyph unicode=":" horiz-adv-x="306" d="M180 372Q142 372 119 390T95 447Q95 487 111 511T154 548T213 560Q253 560 277 542T302 485Q302 420 269 396T180 372ZM85 -12Q47 -12 24 6T0 62Q0 121 35 148T119 176Q158 176 182 158T207 100Q207 36 174 12T85 -12Z" />
<glyph unicode=";" horiz-adv-x="306" d="M-57 -129Q-39 -89 -23 -46T8 40T35 116H205L209 105Q194 70 174 30T131 -51T84 -129H-57ZM180 372Q142 372 119 390T95 447Q95 487 111 511T154 548T213 560Q253 560 277 542T302 485Q302 420 269 396T180 372Z" />
<glyph unicode="&lt;" horiz-adv-x="586" d="M539 87L45 306V390L539 637V492L236 354L539 231V87Z" />
<glyph unicode="=" horiz-adv-x="586" d="M45 398V529H541V398H45ZM45 175V307H541V175H45Z" />
<glyph unicode="&gt;" horiz-adv-x="586" d="M45 231L348 354L45 492V637L539 390V306L45 87V231Z" />
<glyph unicode="?" horiz-adv-x="488" d="M122 252Q132 307 146 341T187 400T255 455Q288 477 305 491T328 516T334 539Q334 554 325 563T290 573Q263 573 224 560T137 520L79 658Q126 686 183 705T304 724Q403 724 460 680T518 559Q518 504 499 469T449 409T383
363Q345 340 327 325T300 294T282 252H122ZM163 -12Q111 -12 92 11T72 62Q72 110 101 143T191 176Q233 176 256 156T279 100Q279 44 247 16T163 -12Z" />
<glyph unicode="@" horiz-adv-x="897" d="M381 -91Q305 -91 243 -69T135 -3T65 103T40 244Q40 338 64 414T131 548T232 645T357 704T498 724Q612 724 694 687T821 578T866 404Q866 353 854 308T818 225T763 159T692 116T609 101Q570 101 543 116T502 164H497Q474
133 443 117T366 101Q309 101 273 142T237 250Q237 288 247 327T279 403T331 469T406 515T504 532Q545 532 587 523T668 498L619 296Q614 274 611 259T608 229Q608 220 612 215T627 209Q643 209 659 216T689 239T714 276T731 330T738 401Q738 466 711 513T629 586T486
612Q431 612 383 596T295 550T228 475T184 376T168 256Q168 177 198 125T276 47T379 21Q427 21 491 32T613 67V-43Q572 -62 509 -76T381 -91ZM411 209Q440 209 459 234T496 326L519 419Q514 421 508 422T494 424Q463 424 440 408T402 366T380 312T373 260Q373 233
383 221T411 209Z" />
<glyph unicode="A" horiz-adv-x="676" d="M-59 0L304 714H550L610 0H424L419 134H200L139 0H-59ZM270 286H413L406 491Q405 515 405 538T405 583H402Q395 561 387 540T367 495L270 286Z" />
<glyph unicode="B" horiz-adv-x="634" d="M16 0L167 714H405Q482 714 529 694T598 639T620 558Q620 509 603 473T554 413T475 374V370Q518 356 543 321T569 234Q569 151 531 99T428 24T283 0H16ZM279 149Q308 149 330 160T364 190T377 232Q377 266 361 282T304
299H271L239 149H279ZM335 440Q369 440 387 450T414 477T422 518Q422 542 407 555T360 568H329L300 440H335Z" />
<glyph unicode="C" horiz-adv-x="630" d="M315 -10Q226 -10 167 25T80 122T51 268Q51 332 65 397T107 521T181 626T288 698T430 725Q501 725 558 708T665 661L593 512Q547 539 509 552T430 566Q395 566 366 551T315 507T276 443T252 364T244 278Q244 213 271 181T350
148Q394 148 435 159T530 192V34Q478 11 425 1T315 -10Z" />
<glyph unicode="D" horiz-adv-x="684" d="M16 0L167 714H370Q501 714 577 645T653 444Q653 361 635 292T583 168T500 77T387 20T246 0H16ZM275 158Q308 158 336 171T387 208T426 266T451 342T460 434Q460 495 434 526T360 558H325L241 158H275Z" />
<glyph unicode="E" horiz-adv-x="562" d="M16 0L167 714H591L559 559H326L303 447H520L485 292H268L240 157H473L440 0H16Z" />
<glyph unicode="F" horiz-adv-x="569" d="M16 0L167 714H588L555 559H325L297 423H510L476 267H262L207 0H16Z" />
<glyph unicode="G" horiz-adv-x="698" d="M319 -10Q198 -10 125 61T51 275Q51 344 67 409T116 532T199 632T316 700T469 725Q531 725 588 712T688 673L616 522Q585 540 548 553T467 566Q404 566 362 537T293 464T256 370T244 278Q244 233 256 205T290 163T346
149Q366 149 379 150T411 156L436 269H324L357 418H655L573 30Q522 14 461 2T319 -10Z" />
<glyph unicode="H" horiz-adv-x="714" d="M16 0L167 714H358L303 449H473L528 714H719L568 0H377L438 291H269L207 0H16Z" />
<glyph unicode="I" horiz-adv-x="426" d="M-36 0L-13 109L81 148L169 562L91 604L114 714H481L458 604L360 562L272 148L351 109L328 0H-36Z" />
<glyph unicode="J" horiz-adv-x="373" d="M-56 -225Q-81 -225 -109 -221T-160 -211V-55Q-142 -59 -122 -63T-75 -67Q-44 -67 -21 -57T18 -19T45 57L186 714H377L231 33Q211 -61 177 -117T87 -199T-56 -225Z" />
<glyph unicode="K" horiz-adv-x="669" d="M16 0L167 714H358L292 409L363 509L519 714H743L474 385L606 0H392L307 282L260 255L207 0H16Z" />
<glyph unicode="L" horiz-adv-x="527" d="M16 0L167 714H358L240 156H473L440 0H16Z" />
<glyph unicode="M" horiz-adv-x="909" d="M16 0L167 714H420V207H424L657 714H914L761 0H590L647 268Q663 343 675 390T695 467T707 512H703L468 0H287V512H283Q275 462 268 417T255 333T241 262L186 0H16Z" />
<glyph unicode="N" horiz-adv-x="790" d="M16 0L167 714H389L529 234H533Q536 256 540 289T550 356T561 415L625 714H795L644 0H422L281 502H277Q276 492 274 469T268 415T259 353T249 298L186 0H16Z" />
<glyph unicode="O" horiz-adv-x="737" d="M325 -10Q234 -10 173 24T82 120T51 265Q51 321 61 376T92 482T145 578T220 655T317 706T438 725Q570 725 638 650T706 450Q706 395 696 340T666 233T614 137T541 60T445 9T325 -10ZM342 148Q366 148 388 158T429 189T463
236T490 297T507 369T513 448Q513 504 490 535T422 567Q395 567 372 555T328 521T293 471T266 408T250 338T244 266Q244 228 255 202T288 162T342 148Z" />
<glyph unicode="P" horiz-adv-x="623" d="M16 0L167 714H349Q444 714 501 686T585 609T611 500Q611 436 589 387T524 305T425 254T298 237H256L207 0H16ZM321 393Q351 393 373 406T408 442T420 494Q420 519 405 538T354 558H325L290 393H321Z" />
<glyph unicode="Q" horiz-adv-x="737" d="M322 -10Q319 -10 317 -10T311 -10Q227 -10 169 24T81 120T51 265Q51 321 61 376T93 482T145 578T220 655T319 706T441 725Q571 725 638 650T706 450Q706 401 698 352T674 257T633 170T575 94T499 36L615 -170H401L322
-10ZM333 151Q359 151 382 162T426 192T462 239T489 300T507 371T513 449Q513 507 490 536T425 565Q399 565 376 554T332 523T295 476T268 414T250 342T244 263Q244 226 254 201T285 164T333 151Z" />
<glyph unicode="R" horiz-adv-x="650" d="M16 0L167 714H356Q479 714 544 665T610 518Q610 453 589 409T535 339T472 299L601 0H393L298 260H262L207 0H16ZM318 405Q337 405 355 410T387 428T410 459T419 506Q419 532 405 550T353 568H327L293 405H318Z" />
<glyph unicode="S" horiz-adv-x="548" d="M205 -10Q152 -10 104 2T21 37V208Q60 184 113 166T211 147Q229 147 242 151T265 162T279 180T284 205Q284 223 273 238T244 269T204 303Q171 330 147 359T109 424T95 502Q95 550 113 591T164 661T244 707T348 724Q406
724 460 711T558 672L492 527Q458 544 421 557T350 570Q330 570 317 565T297 552T288 534T285 516Q285 501 291 487T315 457T364 416Q404 387 428 357T465 293T477 219Q477 166 459 124T406 51T321 6T205 -10Z" />
<glyph unicode="T" d="M115 0L231 556H76L110 714H612L577 556H422L306 0H115Z" />
<glyph unicode="U" horiz-adv-x="701" d="M298 -10Q224 -10 171 17T89 90T61 197Q61 212 62 229T67 263L164 714H355L260 268Q257 254 255 240T253 212Q253 183 269 167T316 150Q345 150 365 162T399 203T424 278L517 714H708L611 259Q593 172 556 112T457 21T298 -10Z" />
<glyph unicode="V" horiz-adv-x="617" d="M124 0L73 714H260L272 354Q273 328 273 294T271 226T265 173H269Q278 212 293 255T318 321L489 714H691L337 0H124Z" />
<glyph unicode="W" horiz-adv-x="935" d="M98 0L74 714H255L250 356Q249 313 247 267T241 188H245Q256 221 271 261T303 337L467 714H631V327Q631 311 631 285T629 232T626 180H630Q638 206 649 240T672 309T696 372L831 714H1020L710 0H485V274Q485 300 485 327T487
382T491 437H487Q472 391 456 347T420 259L310 0H98Z" />
<glyph unicode="X" horiz-adv-x="663" d="M-61 0L214 379L105 714H308L368 485L519 714H738L475 360L603 0H392L321 243L156 0H-61Z" />
<glyph unicode="Y" horiz-adv-x="604" d="M137 0L196 277L80 714H277L321 449L473 714H686L387 277L328 0H137Z" />
<glyph unicode="Z" horiz-adv-x="539" d="M-45 0L-22 118L315 558H81L114 714H595L570 594L228 156H493L460 0H-45Z" />
<glyph unicode="[" horiz-adv-x="360" d="M-26 -168L166 734H425L398 610H293L154 -44H259L233 -168H-26Z" />
<glyph unicode="\" horiz-adv-x="467" d="M224 -10L108 724H259L380 -10H224Z" />
<glyph unicode="]" horiz-adv-x="360" d="M-65 -168L-39 -44H65L204 610H99L126 734H384L192 -168H-65Z" />
<glyph unicode="^" horiz-adv-x="535" d="M-3 245L305 714H389L528 245H394L318 523L142 245H-3Z" />
<glyph unicode="_" horiz-adv-x="450" d="M-90 -185L-62 -65H392L364 -185H-90Z" />
<glyph unicode="`" horiz-adv-x="353" d="M268 606Q246 627 222 652T177 705T144 756V766H337Q341 745 347 720T363 670T383 618V606H268Z" />
<glyph unicode="a" horiz-adv-x="607" d="M198 -10Q156 -10 120 10T63 76T41 201Q41 241 50 290T79 387T127 475T197 539T287 563Q319 563 342 554T384 527T415 485H419L445 553H596L479 0H328L333 60H329Q315 40 297 24T255 -1T198 -10ZM276 142Q298 142 315
161T346 212T365 280Q367 295 369 310T371 341Q371 373 361 392T331 411Q315 411 301 400T275 369T253 324T239 270T234 212Q234 178 244 160T276 142Z" />
<glyph unicode="b" horiz-adv-x="607" d="M321 -10Q293 -10 271 -3T229 20T189 61H185L161 0H11L172 760H361L337 647Q331 617 323 589T307 537T293 500H297Q310 516 324 530T358 554T409 563Q452 563 487 543T544 477T566 352Q566 312 557 263T528 166T480 78T411
14T321 -10ZM275 142Q291 142 305 153T332 184T353 229T368 284T373 341Q373 375 363 393T331 411Q316 411 304 402T281 378T262 342T249 300T240 256T237 212Q237 181 246 162T275 142Z" />
<glyph unicode="c" horiz-adv-x="504" d="M247 -10Q191 -10 144 13T69 86T41 216Q41 275 54 327T93 422T155 497T237 546T337 563Q389 563 431 554T516 524L456 384Q431 395 402 404T346 413Q317 413 295 395T259 348T238 287T231 228Q231 196 238 177T259 150T292
142Q327 142 360 153T430 184V34Q391 13 348 2T247 -10Z" />
<glyph unicode="d" horiz-adv-x="604" d="M198 -10Q156 -10 120 10T63 76T41 201Q41 241 50 290T79 387T127 475T196 539T286 563Q316 563 336 554T372 529T402 489H406Q406 495 407 516T411 563T419 613L449 760H640L479 0H328L333 60H329Q316 41 299 25T257
0T198 -10ZM276 142Q291 142 303 151T326 175T345 211T359 253T368 298T371 341Q371 373 362 392T332 411Q316 411 302 400T275 369T254 324T239 270T234 212Q234 178 244 160T276 142Z" />
<glyph unicode="e" horiz-adv-x="579" d="M260 -10Q190 -10 141 16T67 92T41 209Q41 277 60 340T119 454T217 533T358 563Q451 563 504 521T557 409Q557 363 540 326T486 262T394 221T260 206H231Q231 204 231 202T231 198Q231 161 251 144T311 126Q353 126 390
139T471 174V40Q427 18 380 4T260 -10ZM264 324Q307 324 331 335T367 364T378 398Q378 414 368 424T337 435Q315 435 297 418T266 376T250 324H264Z" />
<glyph unicode="f" horiz-adv-x="410" d="M-1 -240Q-27 -240 -56 -236T-102 -227V-79Q-88 -83 -73 -85T-45 -88Q-9 -88 9 -73T35 -27L128 411H47L68 504L160 551L168 587Q179 634 196 667T239 722T298 754T374 765Q413 765 450 758T512 737L464 608Q450 615 434
619T401 623Q384 623 372 614T356 588L348 553H451L419 411H317L217 -57Q206 -110 181 -151T111 -216T-1 -240Z" />
<glyph unicode="g" horiz-adv-x="607" d="M191 -240Q130 -240 89 -231T13 -209V-54Q39 -67 67 -76T125 -91T186 -96Q232 -96 258 -74T294 -18L299 4Q301 15 304 28T312 54H308Q295 38 279 25T241 3T187 -5Q146 -5 113 14T60 78T41 199Q41 240 50 289T79 386T127
474T196 539T286 563Q318 563 340 555T379 530T415 485H419L445 553H596L476 -13Q458 -99 416 -148T317 -219T191 -240ZM276 142Q291 142 303 151T326 175T345 211T359 253T368 298T371 341Q371 373 362 392T332 411Q316 411 302 400T275 369T254 324T239 270T234
212Q234 178 244 160T276 142Z" />
<glyph unicode="h" horiz-adv-x="622" d="M11 0L172 760H361L335 638Q330 615 323 590T307 541T292 500H296Q313 522 333 536T378 556T429 563Q481 563 513 542T560 485T575 406Q575 378 572 349T563 294L501 0H312L375 302Q378 315 381 334T384 371Q384 392 373
402T347 413Q329 413 312 399T282 353T257 270L200 0H11Z" />
<glyph unicode="i" horiz-adv-x="325" d="M11 0L128 553H318L200 0H11ZM244 606Q204 606 178 621T151 675Q151 708 164 730T202 765T261 777Q299 777 326 762T354 708Q354 662 327 634T244 606Z" />
<glyph unicode="j" horiz-adv-x="325" d="M-28 -240Q-54 -240 -83 -236T-129 -227V-79Q-111 -85 -99 -86T-74 -88Q-54 -88 -37 -81T-7 -58T11 -16L132 553H321L194 -46Q184 -96 159 -140T88 -212T-28 -240ZM248 606Q208 606 182 621T155 675Q155 708 168 730T206
765T265 777Q303 777 330 762T358 708Q358 662 331 634T248 606Z" />
<glyph unicode="k" horiz-adv-x="617" d="M11 0L170 760H359L291 436Q285 409 276 376T260 326H264L455 553H671L431 303L565 0H351L283 191L234 165L200 0H11Z" />
<glyph unicode="l" horiz-adv-x="325" d="M11 0L172 760H361L200 0H11Z" />
<glyph unicode="m" horiz-adv-x="926" d="M11 0L128 553H279L271 462H275Q295 499 317 521T368 553T435 563Q492 563 523 537T567 462H571Q592 497 617 519T673 552T739 563Q807 563 843 522T879 400Q879 378 876 352T868 300L807 0H618L681 308Q683 318 685 335T688
373Q688 393 679 403T654 413Q636 413 622 404T596 376T575 330T558 265L504 0H315L379 308Q381 319 383 337T386 367Q386 392 376 402T351 413Q337 413 325 407T300 384T278 340T258 269L200 0H11Z" />
<glyph unicode="n" horiz-adv-x="622" d="M11 0L128 553H279L273 476H277Q295 507 317 526T366 554T429 563Q481 563 513 542T560 485T575 406Q575 378 572 349T563 294L501 0H312L375 302Q378 315 381 334T384 371Q384 392 373 402T347 413Q329 413 312 398T281
351T257 270L200 0H11Z" />
<glyph unicode="o" horiz-adv-x="607" d="M254 -10Q186 -10 139 15T66 87T41 203Q41 260 54 313T92 411T154 491T242 544T353 563Q421 563 468 538T541 466T566 350Q566 293 553 240T515 142T453 62T366 9T254 -10ZM275 132Q292 132 307 144T334 179T354 230T368
291T373 356Q373 378 368 392T354 413T331 421Q314 421 300 409T273 374T252 323T239 262T234 197Q234 165 245 149T275 132Z" />
<glyph unicode="p" horiz-adv-x="607" d="M-40 -240L128 553H279L273 491H277Q292 515 310 531T352 555T403 563Q453 563 489 539T546 470T566 359Q566 304 555 251T523 150T471 67T403 11T318 -10Q293 -10 273 -1T235 24T205 61H201Q198 22 193 -16T174 -120L149
-240H-40ZM280 142Q296 142 310 153T335 184T355 229T368 284T373 341Q373 375 363 393T331 411Q317 411 304 403T281 379T262 344T249 302T240 256T237 212Q237 181 248 162T280 142Z" />
<glyph unicode="q" horiz-adv-x="607" d="M270 -97Q277 -66 285 -37T301 16T314 54H310Q297 37 281 22T243 -1T189 -10Q153 -10 119 11T63 77T41 199Q41 240 50 289T79 386T127 474T196 539T286 563Q318 563 340 555T379 530T415 485H419L445 553H596L428 -240H237L270
-97ZM276 142Q291 142 303 151T326 175T345 211T359 253T368 298T371 341Q371 373 362 392T332 411Q316 411 302 400T275 369T254 324T239 270T234 212Q234 178 244 160T276 142Z" />
<glyph unicode="r" horiz-adv-x="437" d="M11 0L128 553H279L270 461H274Q297 500 321 522T374 554T440 563Q451 563 463 562T479 559L438 372Q428 377 412 380T378 383Q356 383 337 376T302 353T274 310T252 243L200 0H11Z" />
<glyph unicode="s" horiz-adv-x="502" d="M189 -10Q134 -10 91 -2T15 21V173Q60 148 98 139T177 129Q189 129 204 131T231 141T243 163Q243 174 238 183T217 204T167 234Q133 253 111 275T79 325T68 388Q68 440 92 479T167 541T295 563Q349 563 394 550T482 511L423
388Q395 406 361 420T297 434Q280 434 270 426T260 401Q260 392 266 384T287 368T325 348Q363 330 387 307T423 255T435 192Q435 124 405 79T320 12T189 -10Z" />
<glyph unicode="t" horiz-adv-x="457" d="M200 -10Q128 -10 91 21T53 123Q53 143 57 169T65 215L106 411H31L51 504L157 547L224 664H350L326 553H467L436 411H295L254 224Q251 210 249 196T246 173Q246 157 255 150T277 142Q296 142 319 148T366 165V23Q335 8
295 -1T200 -10Z" />
<glyph unicode="u" horiz-adv-x="622" d="M193 -10Q142 -10 110 11T62 69T47 147Q47 175 50 204T59 259L121 553H310L247 252Q244 239 241 220T238 183Q238 162 249 152T275 141Q292 141 308 156T340 203T365 284L422 553H611L494 0H343L349 77H345Q327 46 305
27T256 -1T193 -10Z" />
<glyph unicode="v" horiz-adv-x="544" d="M114 0L43 553H231L241 275Q242 262 242 249T242 224T240 201H244Q247 211 251 223T260 247T269 267L400 553H602L303 0H114Z" />
<glyph unicode="w" horiz-adv-x="823" d="M82 0L50 553H228V283Q228 256 226 228T222 177H226Q230 193 235 209T245 241T255 271L361 553H560L546 281Q545 266 544 238T539 177H543Q549 197 554 214T566 249T580 284L691 553H879L616 0H410L417 219Q418 245 419
277T423 341T429 400H425Q418 373 409 343T390 285T372 237L281 0H82Z" />
<glyph unicode="x" horiz-adv-x="566" d="M-58 0L173 282L72 553H278L315 400L406 553H630L403 272L514 0H305L266 160L163 0H-58Z" />
<glyph unicode="y" horiz-adv-x="544" d="M12 -240Q-16 -240 -34 -238T-63 -232V-82Q-54 -84 -40 -86T-10 -88Q34 -88 60 -70T108 -14L119 6L40 553H230L249 299Q251 282 251 266T251 236T250 206H254Q259 221 265 238T277 272T288 301L397 553H600L273 -70Q243
-127 207 -165T123 -221T12 -240Z" />
<glyph unicode="z" horiz-adv-x="485" d="M-20 0L1 108L246 407H76L109 553H505L479 435L237 146H424L392 0H-20Z" />
<glyph unicode="{" horiz-adv-x="359" d="M226 -158Q130 -158 90 -122T50 -23Q50 -7 51 8T57 39L75 124Q77 130 77 135T78 145Q78 177 60 194T-8 212L18 352Q78 352 104 371T141 436L168 556Q179 605 200 640T262 695T368 714H431L401 577Q365 576 344 564T315
514L289 388Q277 332 240 309T153 280V276Q197 262 216 234T236 162Q236 153 235 144T231 126L214 46Q213 39 212 33T211 22Q211 -1 225 -11T266 -21V-158H226Z" />
<glyph unicode="|" horiz-adv-x="566" d="M216 -227V756H348V-227H216Z" />
<glyph unicode="}" horiz-adv-x="359" d="M-60 -21Q-24 -19 -6 -14T20 4T34 42L60 168Q72 224 108 247T196 276V280Q153 294 133 322T113 394Q113 403 115 412T118 430L135 510Q137 518 137 523T138 534Q138 555 123 566T72 577L98 714H128Q192 714 229 696T282
647T299 580Q299 564 298 549T292 517L274 432Q273 426 272 421T271 411Q271 379 293 362T365 345L337 205Q277 205 248 185T208 120L181 0Q171 -49 148 -84T84 -139T-24 -158H-60V-21Z" />
<glyph unicode="~" horiz-adv-x="586" d="M274 289Q237 305 210 310T159 316Q130 316 101 299T45 257V394Q71 420 102 433T174 447Q203 447 232 442T311 416Q348 400 376 395T427 389Q455 389 485 406T540 448V311Q515 285 483 272T411 258Q382 258 353 264T274 289Z" />
<glyph unicode="&#xa0;" horiz-adv-x="260" />
<glyph unicode="&#xa1;" horiz-adv-x="304" d="M-53 -165L71 297H231L155 -165H-53ZM167 375Q125 375 102 395T79 451Q79 507 111 535T195 563Q247 563 266 541T286 489Q286 441 257 408T167 375Z" />
<glyph unicode="&#xa2;" horiz-adv-x="580" d="M207 92Q151 108 113 153T75 286Q75 345 86 397T119 493T171 570T240 624T325 652L341 724H453L437 651Q471 646 497 637T550 614L490 474Q459 489 434 496T380 503Q351 503 330 485T294 437T274 373T267 306Q267
268 282 251T326 234Q361 234 394 246T464 278V126Q430 108 395 97T314 82L294 -10H182L207 92Z" />
<glyph unicode="&#xa3;" horiz-adv-x="580" d="M22 153Q60 164 82 178T116 214T135 271L145 318H53L81 454H173L184 517Q199 601 231 645T311 707T415 724Q471 724 514 712T597 682L527 536Q495 551 472 559T423 567Q406 567 396 555T378 510L366 454H489L461
318H338L328 272Q318 227 288 201T229 161H524L489 0H-9L22 153Z" />
<glyph unicode="&#xa4;" horiz-adv-x="580" d="M383 173Q364 165 341 159T293 153Q268 153 245 157T202 172L142 114L53 203L115 263Q104 285 99 307T93 353Q93 378 99 401T115 443L52 504L142 594L204 533Q224 542 248 548T293 554Q317 554 339 549T383 531L444
594L536 507L473 444Q483 425 488 401T494 353Q494 328 489 306T473 262L533 202L444 113L383 173ZM293 279Q314 279 331 289T358 316T369 353Q369 374 359 391T331 417T293 427Q273 427 256 418T230 391T220 353Q220 333 229 316T256 289T293 279Z" />
<glyph unicode="&#xa5;" horiz-adv-x="580" d="M128 0L148 93H37L58 193H169L181 256H71L93 356H180L89 714H277L312 476L455 714H647L408 356H498L476 256H367L354 193H463L442 93H333L313 0H128Z" />
<glyph unicode="&#xa6;" horiz-adv-x="566" d="M217 344V755H349V344H217ZM217 -217V193H349V-217H217Z" />
<glyph unicode="&#xa7;" horiz-adv-x="506" d="M184 -12Q131 -12 88 0T18 34V156Q59 131 102 114T193 97Q235 97 250 114T266 148Q266 161 260 172T239 194T200 218Q163 239 136 262T93 314T77 379Q77 403 85 427T113 474T164 516Q145 535 135 560T125 610Q125
666 152 701T230 753T347 770Q397 770 440 757T523 720L474 611Q447 629 412 644T331 660Q312 660 300 655T283 642T277 624Q277 607 289 592T350 553Q395 532 421 508T458 458T469 401Q469 360 458 333T429 288T387 257Q403 238 412 213T421 159Q421 106 394 68T315
9T184 -12ZM295 314Q309 324 320 339T331 376Q331 394 323 408T299 435T256 459Q244 453 235 443T221 422T216 399Q216 382 227 367T256 339T295 314Z" />
<glyph unicode="&#xa8;" horiz-adv-x="554" d="M485 614Q449 614 426 626T402 676Q402 724 428 745T500 767Q530 767 556 756T582 706Q582 665 561 640T485 614ZM247 614Q211 614 188 626T164 676Q164 724 190 745T262 767Q282 767 301 763T332 745T345 706Q345
665 324 640T247 614Z" />
<glyph unicode="&#xa9;" horiz-adv-x="824" d="M412 -10Q332 -10 265 17T149 93T72 210T45 357Q45 437 72 504T148 620T265 697T412 724Q492 724 559 697T675 621T752 504T779 357Q779 277 752 210T676 94T559 17T412 -10ZM413 128Q305 128 251 191T196 359Q196
427 219 478T290 557T408 585Q453 585 491 575T565 547L520 447Q495 461 471 467T417 474Q378 474 356 444T333 357Q333 295 354 267T420 239Q452 239 484 247T546 272V159Q515 143 484 136T413 128ZM412 70Q473 70 524 91T612 150T669 241T689 357Q689 420 669
473T612 564T524 623T412 644Q350 644 299 623T211 564T153 473T133 357Q133 294 153 241T210 150T299 91T412 70Z" />
<glyph unicode="&#xaa;" horiz-adv-x="404" d="M172 356Q151 356 127 368T85 409T68 489Q68 528 79 568T111 643T163 699T236 720Q275 720 298 707T340 672H344L362 714H459L376 362H281L285 404H281Q262 384 236 370T172 356ZM235 445Q252 445 264 454T284 479T297
511T305 545T307 575Q307 597 299 614T272 631Q256 631 243 618T220 584T206 539T201 494Q201 471 210 458T235 445Z" />
<glyph unicode="&#xab;" horiz-adv-x="623" d="M119 37L30 270V275L229 528L358 428L228 265L282 104L119 37ZM392 37L297 284V289L504 531L631 428L495 279L555 104L392 37Z" />
<glyph unicode="&#xac;" horiz-adv-x="586" d="M540 418V116H408V287H45V418H540Z" />
<glyph unicode="&#xad;" horiz-adv-x="329" d="M11 192L42 344H312L281 192H11Z" />
<glyph unicode="&#xae;" horiz-adv-x="824" d="M253 153V580H389Q493 580 537 546T582 448Q582 397 562 371T513 330L608 153H472L401 309H384V153H253ZM389 395Q418 395 434 405T450 443Q450 469 434 477T390 485H384V395H389ZM412 -10Q332 -10 265 17T149 93T72
210T45 357Q45 437 72 504T148 620T265 697T412 724Q492 724 559 697T675 621T752 504T779 357Q779 277 752 210T676 94T559 17T412 -10ZM412 70Q473 70 524 91T612 150T669 241T689 357Q689 420 669 473T612 564T524 623T412 644Q350 644 299 623T211 564T153
473T133 357Q133 294 153 241T210 150T299 91T412 70Z" />
<glyph unicode="&#xaf;" horiz-adv-x="450" d="M101 759L129 879H583L555 759H101Z" />
<glyph unicode="&#xb0;" horiz-adv-x="422" d="M211 366Q159 366 118 388T54 451T31 544Q31 596 54 636T118 700T211 724Q264 724 304 701T368 637T391 544Q391 492 368 452T305 389T211 366ZM211 482Q240 482 257 499T275 544Q275 573 258 591T211 609Q182 609
165 591T147 544Q147 516 164 499T211 482Z" />
<glyph unicode="&#xb1;" horiz-adv-x="586" d="M45 0V131H540V0H45ZM358 461H540V330H358V154H227V330H45V461H227V640H358V461Z" />
<glyph unicode="&#xb2;" horiz-adv-x="414" d="M61 415L82 515L217 618Q250 643 269 660T297 691T305 715Q305 729 296 734T274 740Q257 740 233 731T182 701L124 794Q164 824 206 839T314 854Q356 854 389 841T442 805T462 748Q462 712 446 683T396 625T312 564L274
540H430L405 415H61Z" />
<glyph unicode="&#xb3;" horiz-adv-x="414" d="M236 409Q184 409 149 417T84 443V553Q115 532 148 523T209 513Q246 513 264 523T283 552Q283 564 272 574T228 585H169L190 680H237Q260 680 277 684T304 699T314 723Q314 737 304 744T277 751Q258 751 239 745T187
719L138 808Q177 832 215 843T305 854Q346 854 379 843T433 809T453 752Q453 701 422 677T340 640V636Q385 625 403 602T421 547Q421 510 400 479T338 428T236 409Z" />
<glyph unicode="&#xb4;" horiz-adv-x="401" d="M112 617Q135 636 160 661T208 714T250 766H464V759Q453 746 428 725T370 682T306 639T251 606H112V617Z" />
<glyph unicode="&#xb5;" horiz-adv-x="629" d="M-40 -240L128 553H317L254 252Q251 239 248 220T245 183Q245 162 256 152T282 141Q306 141 321 153T349 197T372 284L429 553H618L501 0H360L363 60H359Q348 37 334 21T303 -2T266 -10Q241 -10 226 -1T202 28H198Q196
2 193 -22T185 -70T175 -120L149 -240H-40Z" />
<glyph unicode="&#xb6;" horiz-adv-x="643" d="M316 273Q301 269 289 267T255 264Q209 264 171 276T106 317T65 393T50 509Q50 581 66 629T111 706T180 747T270 760H579V-127H486V648H409V-127H316V273Z" />
<glyph unicode="&#xb7;" horiz-adv-x="306" d="M141 260Q103 260 80 278T56 334Q56 393 91 420T175 448Q214 448 238 430T263 372Q263 308 230 284T141 260Z" />
<glyph unicode="&#xb8;" horiz-adv-x="187" d="M-14 -240Q-44 -240 -67 -237T-108 -226V-126Q-91 -131 -67 -135T-34 -139Q-23 -139 -16 -137T-5 -129T-1 -115Q-1 -101 -14 -88T-72 -66L-35 0H65L53 -20Q91 -28 115 -49T140 -115Q140 -154 122 -182T70 -225T-14 -240Z" />
<glyph unicode="&#xb9;" horiz-adv-x="414" d="M218 593Q226 628 233 654T245 694Q235 686 224 677T209 665L151 627L93 717L301 844H424L333 415H178L218 593Z" />
<glyph unicode="&#xba;" horiz-adv-x="399" d="M227 355Q157 355 117 393T76 500Q76 544 88 583T127 654T192 704T285 722Q353 722 394 684T435 571Q435 529 423 491T386 422T321 373T227 355ZM239 455Q255 455 267 466T287 495T299 534T303 574Q303 596 296 609T273
622Q257 622 245 610T225 578T213 539T209 502Q209 477 217 466T239 455Z" />
<glyph unicode="&#xbb;" horiz-adv-x="623" d="M394 21L265 121L395 284L341 445L504 512L593 279V274L394 21ZM119 17L-7 121L128 270L69 445L231 512L326 265V260L119 17Z" />
<glyph unicode="&#xbc;" horiz-adv-x="932" d="M150 0L682 714H824L295 0H150ZM209 463Q217 498 224 524T236 564Q226 556 215 547T200 535L142 497L84 587L292 714H415L324 285H169L209 463ZM665 0L678 60H484L499 147L738 429H897L839 157H894L874 60H819L806
0H665ZM619 157H698L718 234Q723 254 730 278T741 312Q736 304 726 291T706 266T689 244L619 157Z" />
<glyph unicode="&#xbd;" horiz-adv-x="977" d="M143 0L675 714H817L288 0H143ZM209 464Q217 499 224 525T236 565Q226 557 215 548T200 536L142 498L84 588L292 715H415L324 286H169L209 464ZM536 0L557 100L692 203Q725 228 744 245T772 276T780 300Q780 314
771 319T749 325Q732 325 708 316T657 286L599 379Q639 409 681 424T789 439Q831 439 864 426T917 390T937 333Q937 297 921 268T871 210T787 149L749 125H905L880 0H536Z" />
<glyph unicode="&#xbe;" horiz-adv-x="954" d="M211 279Q159 279 124 287T59 313V423Q90 402 123 393T184 383Q221 383 239 393T258 422Q258 434 247 444T203 455H144L165 550H212Q235 550 252 554T279 569T289 593Q289 607 279 614T252 621Q233 621 214 615T162
589L113 678Q152 702 190 713T280 724Q321 724 354 713T408 679T428 622Q428 571 397 547T315 510V506Q360 495 378 472T396 417Q396 380 375 349T313 298T211 279ZM176 0L708 714H850L321 0H176ZM687 0L700 60H506L521 147L760 429H919L861 157H916L896 60H841L828
0H687ZM641 157H720L740 234Q745 254 752 278T763 312Q758 304 748 291T728 266T711 244L641 157Z" />
<glyph unicode="&#xbf;" horiz-adv-x="488" d="M363 301Q353 247 339 213T299 153T230 98Q198 77 181 63T157 37T151 14Q151 -1 160 -10T195 -20Q222 -20 262 -7T348 33L406 -105Q360 -133 302 -152T181 -171Q82 -171 25 -127T-33 -6Q-33 49 -14 84T37 144T102
190Q140 213 158 228T186 259T203 301H363ZM322 565Q374 565 393 543T413 491Q413 443 384 410T294 377Q252 377 229 397T206 453Q206 509 238 537T322 565Z" />
<glyph unicode="&#xc0;" horiz-adv-x="676" d="M-59 0L304 714H550L610 0H424L419 134H200L139 0H-59ZM270 286H413L406 491Q405 515 405 538T405 583H402Q395 561 387 540T367 495L270 286ZM417 767Q395 788 371 813T326 866T293 917V927H486Q490 906 496 881T512
831T532 779V767H417Z" />
<glyph unicode="&#xc1;" horiz-adv-x="676" d="M-59 0L304 714H550L610 0H424L419 134H200L139 0H-59ZM270 286H413L406 491Q405 515 405 538T405 583H402Q395 561 387 540T367 495L270 286ZM343 778Q366 797 391 822T439 875T481 927H695V920Q684 907 659 886T601
843T537 800T482 767H343V778Z" />
<glyph unicode="&#xc2;" horiz-adv-x="676" d="M-59 0L304 714H550L610 0H424L419 134H200L139 0H-59ZM270 286H413L406 491Q405 515 405 538T405 583H402Q395 561 387 540T367 495L270 286ZM205 778Q228 799 255 825T310 879T356 927H574Q584 905 599 878T630
824T662 778V767H532Q521 777 507 792T479 824T456 852Q428 830 399 809T339 767H205V778Z" />
<glyph unicode="&#xc3;" horiz-adv-x="676" d="M-59 0L304 714H550L610 0H424L419 134H200L139 0H-59ZM270 286H413L406 491Q405 515 405 538T405 583H402Q395 561 387 540T367 495L270 286ZM239 765Q250 826 271 862T323 915T392 932Q413 932 431 925T466 909T499
892T532 884Q549 884 564 896T588 933H681Q669 872 647 835T594 782T524 766Q500 766 481 773T444 790T411 807T378 814Q363 814 349 801T331 765H239Z" />
<glyph unicode="&#xc4;" horiz-adv-x="676" d="M-59 0L304 714H550L610 0H424L419 134H200L139 0H-59ZM270 286H413L406 491Q405 515 405 538T405 583H402Q395 561 387 540T367 495L270 286ZM566 775Q530 775 507 787T483 837Q483 885 509 906T581 928Q611 928
637 917T663 867Q663 826 642 801T566 775ZM328 775Q292 775 269 787T245 837Q245 885 271 906T343 928Q363 928 382 924T413 906T426 867Q426 826 405 801T328 775Z" />
<glyph unicode="&#xc5;" horiz-adv-x="676" d="M-59 0L304 714H550L610 0H424L419 134H200L139 0H-59ZM270 286H413L406 491Q405 515 405 538T405 583H402Q395 561 387 540T367 495L270 286ZM449 765Q391 765 355 798T318 888Q318 946 354 979T449 1012Q504 1012
542 979T580 889Q580 831 543 798T449 765ZM449 847Q466 847 479 858T492 888Q492 907 479 918T449 930Q432 930 419 919T406 888Q406 870 417 859T449 847Z" />
<glyph unicode="&#xc6;" horiz-adv-x="946" d="M-61 0L383 714H975L943 559H710L687 447H904L869 292H652L624 157H857L824 0H400L428 134H224L141 0H-61ZM323 294H463L518 559H485L323 294Z" />
<glyph unicode="&#xc7;" horiz-adv-x="630" d="M315 -10Q226 -10 167 25T80 122T51 268Q51 332 65 397T107 521T181 626T288 698T430 725Q501 725 558 708T665 661L593 512Q547 539 509 552T430 566Q395 566 366 551T315 507T276 443T252 364T244 278Q244 213
271 181T350 148Q394 148 435 159T530 192V34Q478 11 425 1T315 -10ZM286 -240Q256 -240 233 -237T192 -226V-126Q209 -131 233 -135T266 -139Q277 -139 284 -137T295 -129T299 -115Q299 -101 286 -88T228 -66L265 0H365L353 -20Q391 -28 415 -49T440 -115Q440
-154 422 -182T370 -225T286 -240Z" />
<glyph unicode="&#xc8;" horiz-adv-x="562" d="M16 0L167 714H591L559 559H326L303 447H520L485 292H268L240 157H473L440 0H16ZM370 767Q348 788 324 813T279 866T246 917V927H439Q443 906 449 881T465 831T485 779V767H370Z" />
<glyph unicode="&#xc9;" horiz-adv-x="562" d="M16 0L167 714H591L559 559H326L303 447H520L485 292H268L240 157H473L440 0H16ZM296 778Q319 797 344 822T392 875T434 927H648V920Q637 907 612 886T554 843T490 800T435 767H296V778Z" />
<glyph unicode="&#xca;" horiz-adv-x="562" d="M16 0L167 714H591L559 559H326L303 447H520L485 292H268L240 157H473L440 0H16ZM158 778Q181 799 208 825T263 879T309 927H527Q537 905 552 878T583 824T615 778V767H485Q474 777 460 792T432 824T409 852Q381
830 352 809T292 767H158V778Z" />
<glyph unicode="&#xcb;" horiz-adv-x="562" d="M16 0L167 714H591L559 559H326L303 447H520L485 292H268L240 157H473L440 0H16ZM519 775Q483 775 460 787T436 837Q436 885 462 906T534 928Q564 928 590 917T616 867Q616 826 595 801T519 775ZM281 775Q245 775
222 787T198 837Q198 885 224 906T296 928Q316 928 335 924T366 906T379 867Q379 826 358 801T281 775Z" />
<glyph unicode="&#xcc;" horiz-adv-x="426" d="M-36 0L-13 109L81 148L169 562L91 604L114 714H481L458 604L360 562L272 148L351 109L328 0H-36ZM283 767Q261 788 237 813T192 866T159 917V927H352Q356 906 362 881T378 831T398 779V767H283Z" />
<glyph unicode="&#xcd;" horiz-adv-x="426" d="M-36 0L-13 109L81 148L169 562L91 604L114 714H481L458 604L360 562L272 148L351 109L328 0H-36ZM209 778Q232 797 257 822T305 875T347 927H561V920Q550 907 525 886T467 843T403 800T348 767H209V778Z" />
<glyph unicode="&#xce;" horiz-adv-x="426" d="M-36 0L-13 109L81 148L169 562L91 604L114 714H481L458 604L360 562L272 148L351 109L328 0H-36ZM71 778Q94 799 121 825T176 879T222 927H440Q450 905 465 878T496 824T528 778V767H398Q387 777 373 792T345 824T322
852Q294 830 265 809T205 767H71V778Z" />
<glyph unicode="&#xcf;" horiz-adv-x="426" d="M-36 0L-13 109L81 148L169 562L91 604L114 714H481L458 604L360 562L272 148L351 109L328 0H-36ZM432 775Q396 775 373 787T349 837Q349 885 375 906T447 928Q477 928 503 917T529 867Q529 826 508 801T432 775ZM194
775Q158 775 135 787T111 837Q111 885 137 906T209 928Q229 928 248 924T279 906T292 867Q292 826 271 801T194 775Z" />
<glyph unicode="&#xd0;" horiz-adv-x="684" d="M5 275L39 431H385L352 275H5ZM16 0L167 714H370Q501 714 577 645T653 444Q653 361 635 292T583 168T500 77T387 20T246 0H16ZM275 158Q308 158 336 171T387 208T426 266T451 342T460 434Q460 495 434 526T360 558H325L241
158H275Z" />
<glyph unicode="&#xd1;" horiz-adv-x="790" d="M16 0L167 714H389L529 234H533Q536 256 540 289T550 356T561 415L625 714H795L644 0H422L281 502H277Q276 492 274 469T268 415T259 353T249 298L186 0H16ZM301 765Q312 826 333 862T385 915T454 932Q475 932 493
925T528 909T561 892T594 884Q611 884 626 896T650 933H743Q731 872 709 835T656 782T586 766Q562 766 543 773T506 790T473 807T440 814Q425 814 411 801T393 765H301Z" />
<glyph unicode="&#xd2;" horiz-adv-x="737" d="M325 -10Q234 -10 173 24T82 120T51 265Q51 321 61 376T92 482T145 578T220 655T317 706T438 725Q570 725 638 650T706 450Q706 395 696 340T666 233T614 137T541 60T445 9T325 -10ZM342 148Q366 148 388 158T429
189T463 236T490 297T507 369T513 448Q513 504 490 535T422 567Q395 567 372 555T328 521T293 471T266 408T250 338T244 266Q244 228 255 202T288 162T342 148ZM441 767Q419 788 395 813T350 866T317 917V927H510Q514 906 520 881T536 831T556 779V767H441Z" />
<glyph unicode="&#xd3;" horiz-adv-x="737" d="M325 -10Q234 -10 173 24T82 120T51 265Q51 321 61 376T92 482T145 578T220 655T317 706T438 725Q570 725 638 650T706 450Q706 395 696 340T666 233T614 137T541 60T445 9T325 -10ZM342 148Q366 148 388 158T429
189T463 236T490 297T507 369T513 448Q513 504 490 535T422 567Q395 567 372 555T328 521T293 471T266 408T250 338T244 266Q244 228 255 202T288 162T342 148ZM367 778Q390 797 415 822T463 875T505 927H719V920Q708 907 683 886T625 843T561 800T506 767H367V778Z"
/>
<glyph unicode="&#xd4;" horiz-adv-x="737" d="M325 -10Q234 -10 173 24T82 120T51 265Q51 321 61 376T92 482T145 578T220 655T317 706T438 725Q570 725 638 650T706 450Q706 395 696 340T666 233T614 137T541 60T445 9T325 -10ZM342 148Q366 148 388 158T429
189T463 236T490 297T507 369T513 448Q513 504 490 535T422 567Q395 567 372 555T328 521T293 471T266 408T250 338T244 266Q244 228 255 202T288 162T342 148ZM229 778Q252 799 279 825T334 879T380 927H598Q608 905 623 878T654 824T686 778V767H556Q545 777
531 792T503 824T480 852Q452 830 423 809T363 767H229V778Z" />
<glyph unicode="&#xd5;" horiz-adv-x="737" d="M325 -10Q234 -10 173 24T82 120T51 265Q51 321 61 376T92 482T145 578T220 655T317 706T438 725Q570 725 638 650T706 450Q706 395 696 340T666 233T614 137T541 60T445 9T325 -10ZM342 148Q366 148 388 158T429
189T463 236T490 297T507 369T513 448Q513 504 490 535T422 567Q395 567 372 555T328 521T293 471T266 408T250 338T244 266Q244 228 255 202T288 162T342 148ZM263 765Q274 826 295 862T347 915T416 932Q437 932 455 925T490 909T523 892T556 884Q573 884 588
896T612 933H705Q693 872 671 835T618 782T548 766Q524 766 505 773T468 790T435 807T402 814Q387 814 373 801T355 765H263Z" />
<glyph unicode="&#xd6;" horiz-adv-x="737" d="M325 -10Q234 -10 173 24T82 120T51 265Q51 321 61 376T92 482T145 578T220 655T317 706T438 725Q570 725 638 650T706 450Q706 395 696 340T666 233T614 137T541 60T445 9T325 -10ZM342 148Q366 148 388 158T429
189T463 236T490 297T507 369T513 448Q513 504 490 535T422 567Q395 567 372 555T328 521T293 471T266 408T250 338T244 266Q244 228 255 202T288 162T342 148ZM596 775Q560 775 537 787T513 837Q513 885 539 906T611 928Q641 928 667 917T693 867Q693 826 672
801T596 775ZM358 775Q322 775 299 787T275 837Q275 885 301 906T373 928Q393 928 412 924T443 906T456 867Q456 826 435 801T358 775Z" />
<glyph unicode="&#xd7;" horiz-adv-x="586" d="M424 576L516 487L382 353L514 220L424 130L290 262L158 131L70 222L199 353L69 484L158 576L290 446L424 576Z" />
<glyph unicode="&#xd8;" horiz-adv-x="737" d="M124 -42L46 15L103 86Q77 121 64 166T51 265Q51 321 61 376T92 482T144 578T217 655T312 706T429 725Q476 725 514 716T583 690L628 746L704 688L656 627Q681 593 693 548T706 450Q706 395 696 340T666 233T614
137T542 60T449 9T334 -10Q286 -10 247 -1T176 24L124 -42ZM342 148Q367 148 389 158T430 186T464 229T490 285T506 351T512 425Q512 431 512 436T512 447L286 162Q297 155 311 152T342 148ZM472 551Q462 559 448 563T416 567Q391 567 369 557T328 527T294 483T267
426T251 359T245 287Q245 282 245 276T245 263L472 551Z" />
<glyph unicode="&#xd9;" horiz-adv-x="701" d="M298 -10Q224 -10 171 17T89 90T61 197Q61 212 62 229T67 263L164 714H355L260 268Q257 254 255 240T253 212Q253 183 269 167T316 150Q345 150 365 162T399 203T424 278L517 714H708L611 259Q593 172 556 112T457
21T298 -10ZM418 767Q396 788 372 813T327 866T294 917V927H487Q491 906 497 881T513 831T533 779V767H418Z" />
<glyph unicode="&#xda;" horiz-adv-x="701" d="M298 -10Q224 -10 171 17T89 90T61 197Q61 212 62 229T67 263L164 714H355L260 268Q257 254 255 240T253 212Q253 183 269 167T316 150Q345 150 365 162T399 203T424 278L517 714H708L611 259Q593 172 556 112T457
21T298 -10ZM344 778Q367 797 392 822T440 875T482 927H696V920Q685 907 660 886T602 843T538 800T483 767H344V778Z" />
<glyph unicode="&#xdb;" horiz-adv-x="701" d="M298 -10Q224 -10 171 17T89 90T61 197Q61 212 62 229T67 263L164 714H355L260 268Q257 254 255 240T253 212Q253 183 269 167T316 150Q345 150 365 162T399 203T424 278L517 714H708L611 259Q593 172 556 112T457
21T298 -10ZM206 778Q229 799 256 825T311 879T357 927H575Q585 905 600 878T631 824T663 778V767H533Q522 777 508 792T480 824T457 852Q429 830 400 809T340 767H206V778Z" />
<glyph unicode="&#xdc;" horiz-adv-x="701" d="M298 -10Q224 -10 171 17T89 90T61 197Q61 212 62 229T67 263L164 714H355L260 268Q257 254 255 240T253 212Q253 183 269 167T316 150Q345 150 365 162T399 203T424 278L517 714H708L611 259Q593 172 556 112T457
21T298 -10ZM573 775Q537 775 514 787T490 837Q490 885 516 906T588 928Q618 928 644 917T670 867Q670 826 649 801T573 775ZM335 775Q299 775 276 787T252 837Q252 885 278 906T350 928Q370 928 389 924T420 906T433 867Q433 826 412 801T335 775Z" />
<glyph unicode="&#xdd;" horiz-adv-x="604" d="M137 0L196 277L80 714H277L321 449L473 714H686L387 277L328 0H137ZM283 778Q306 797 331 822T379 875T421 927H635V920Q624 907 599 886T541 843T477 800T422 767H283V778Z" />
<glyph unicode="&#xde;" horiz-adv-x="623" d="M16 0L167 714H358L337 610H349Q437 610 490 581T566 504T590 396Q590 332 568 283T503 201T404 151T277 134H235L207 0H16ZM300 290Q331 290 353 300T387 333T399 390Q399 416 380 435T326 455H304L269 290H300Z" />
<glyph unicode="&#xdf;" horiz-adv-x="713" d="M-26 -240Q-52 -240 -81 -236T-127 -227V-79Q-113 -83 -98 -85T-70 -88Q-34 -88 -16 -73T10 -27L129 535Q145 609 179 660T274 738T431 765Q559 765 621 714T683 583Q683 543 672 513T637 461T579 422Q539 403 531
391T522 372Q522 355 534 345T565 326T606 300Q635 280 650 252T665 182Q665 135 642 91T565 18T421 -10Q375 -10 344 -4T287 12V158Q313 145 351 137T419 128Q448 128 461 139T475 163Q475 174 471 182T453 201T410 230Q360 262 345 290T329 348Q329 383 340 405T373
446T430 483Q453 496 467 508T487 532T493 559Q493 579 478 598T416 617Q391 617 371 606T336 574T315 521L192 -57Q181 -110 156 -151T86 -216T-26 -240Z" />
<glyph unicode="&#xe0;" horiz-adv-x="607" d="M198 -10Q156 -10 120 10T63 76T41 201Q41 241 50 290T79 387T127 475T197 539T287 563Q319 563 342 554T384 527T415 485H419L445 553H596L479 0H328L333 60H329Q315 40 297 24T255 -1T198 -10ZM276 142Q298 142
315 161T346 212T365 280Q367 295 369 310T371 341Q371 373 361 392T331 411Q315 411 301 400T275 369T253 324T239 270T234 212Q234 178 244 160T276 142ZM347 606Q325 627 301 652T256 705T223 756V766H416Q420 745 426 720T442 670T462 618V606H347Z" />
<glyph unicode="&#xe1;" horiz-adv-x="607" d="M198 -10Q156 -10 120 10T63 76T41 201Q41 241 50 290T79 387T127 475T197 539T287 563Q319 563 342 554T384 527T415 485H419L445 553H596L479 0H328L333 60H329Q315 40 297 24T255 -1T198 -10ZM276 142Q298 142
315 161T346 212T365 280Q367 295 369 310T371 341Q371 373 361 392T331 411Q315 411 301 400T275 369T253 324T239 270T234 212Q234 178 244 160T276 142ZM273 617Q296 636 321 661T369 714T411 766H625V759Q614 746 589 725T531 682T467 639T412 606H273V617Z"
/>
<glyph unicode="&#xe2;" horiz-adv-x="607" d="M198 -10Q156 -10 120 10T63 76T41 201Q41 241 50 290T79 387T127 475T197 539T287 563Q319 563 342 554T384 527T415 485H419L445 553H596L479 0H328L333 60H329Q315 40 297 24T255 -1T198 -10ZM276 142Q298 142
315 161T346 212T365 280Q367 295 369 310T371 341Q371 373 361 392T331 411Q315 411 301 400T275 369T253 324T239 270T234 212Q234 178 244 160T276 142ZM135 617Q158 638 185 664T240 718T286 766H504Q514 744 529 717T560 663T592 617V606H462Q451 616 437
631T409 663T386 691Q358 669 329 648T269 606H135V617Z" />
<glyph unicode="&#xe3;" horiz-adv-x="607" d="M198 -10Q156 -10 120 10T63 76T41 201Q41 241 50 290T79 387T127 475T197 539T287 563Q319 563 342 554T384 527T415 485H419L445 553H596L479 0H328L333 60H329Q315 40 297 24T255 -1T198 -10ZM276 142Q298 142
315 161T346 212T365 280Q367 295 369 310T371 341Q371 373 361 392T331 411Q315 411 301 400T275 369T253 324T239 270T234 212Q234 178 244 160T276 142ZM169 604Q180 665 201 701T253 754T322 771Q343 771 361 764T396 748T429 731T462 723Q479 723 494 735T518
772H611Q599 711 577 674T524 621T454 605Q430 605 411 612T374 629T341 646T308 653Q293 653 279 640T261 604H169Z" />
<glyph unicode="&#xe4;" horiz-adv-x="607" d="M198 -10Q156 -10 120 10T63 76T41 201Q41 241 50 290T79 387T127 475T197 539T287 563Q319 563 342 554T384 527T415 485H419L445 553H596L479 0H328L333 60H329Q315 40 297 24T255 -1T198 -10ZM276 142Q298 142
315 161T346 212T365 280Q367 295 369 310T371 341Q371 373 361 392T331 411Q315 411 301 400T275 369T253 324T239 270T234 212Q234 178 244 160T276 142ZM496 614Q460 614 437 626T413 676Q413 724 439 745T511 767Q541 767 567 756T593 706Q593 665 572 640T496
614ZM258 614Q222 614 199 626T175 676Q175 724 201 745T273 767Q293 767 312 763T343 745T356 706Q356 665 335 640T258 614Z" />
<glyph unicode="&#xe5;" horiz-adv-x="607" d="M198 -10Q156 -10 120 10T63 76T41 201Q41 241 50 290T79 387T127 475T197 539T287 563Q319 563 342 554T384 527T415 485H419L445 553H596L479 0H328L333 60H329Q315 40 297 24T255 -1T198 -10ZM276 142Q298 142
315 161T346 212T365 280Q367 295 369 310T371 341Q371 373 361 392T331 411Q315 411 301 400T275 369T253 324T239 270T234 212Q234 178 244 160T276 142ZM379 604Q321 604 285 637T248 727Q248 785 284 818T379 851Q434 851 472 818T510 728Q510 670 473 637T379
604ZM379 686Q396 686 409 697T422 727Q422 746 409 757T379 769Q362 769 349 758T336 727Q336 709 347 698T379 686Z" />
<glyph unicode="&#xe6;" horiz-adv-x="873" d="M198 -10Q156 -10 120 10T63 76T41 201Q41 241 50 290T79 387T127 475T197 539T287 563Q319 563 342 554T382 528T415 485H419L445 553H546V507Q569 530 605 546T682 563Q759 563 805 521T851 409Q851 363 834 326T780
262T688 221T554 206H525Q525 204 525 202T525 198Q525 161 545 144T605 126Q647 126 684 139T765 174V40Q727 18 686 4T582 -10Q538 -10 506 4T454 45L439 0H328L333 60H329Q315 40 297 24T255 -1T198 -10ZM276 142Q292 142 306 153T332 184T352 228T365 280Q368
295 369 310T370 341Q370 373 359 392T327 411Q311 411 297 400T272 369T252 324T239 270T234 212Q234 178 244 160T276 142ZM558 324Q601 324 625 335T661 364T672 398Q672 414 662 424T631 435Q609 435 591 418T560 376T544 324H558Z" />
<glyph unicode="&#xe7;" horiz-adv-x="504" d="M247 -10Q191 -10 144 13T69 86T41 216Q41 275 54 327T93 422T155 497T237 546T337 563Q389 563 431 554T516 524L456 384Q431 395 402 404T346 413Q317 413 295 395T259 348T238 287T231 228Q231 196 238 177T259
150T292 142Q327 142 360 153T430 184V34Q391 13 348 2T247 -10ZM188 -240Q158 -240 135 -237T94 -226V-126Q111 -131 135 -135T168 -139Q179 -139 186 -137T197 -129T201 -115Q201 -101 188 -88T130 -66L167 0H267L255 -20Q293 -28 317 -49T342 -115Q342 -154
324 -182T272 -225T188 -240Z" />
<glyph unicode="&#xe8;" horiz-adv-x="579" d="M260 -10Q190 -10 141 16T67 92T41 209Q41 277 60 340T119 454T217 533T358 563Q451 563 504 521T557 409Q557 363 540 326T486 262T394 221T260 206H231Q231 204 231 202T231 198Q231 161 251 144T311 126Q353 126
390 139T471 174V40Q427 18 380 4T260 -10ZM264 324Q307 324 331 335T367 364T378 398Q378 414 368 424T337 435Q315 435 297 418T266 376T250 324H264ZM338 606Q316 627 292 652T247 705T214 756V766H407Q411 745 417 720T433 670T453 618V606H338Z" />
<glyph unicode="&#xe9;" horiz-adv-x="579" d="M260 -10Q190 -10 141 16T67 92T41 209Q41 277 60 340T119 454T217 533T358 563Q451 563 504 521T557 409Q557 363 540 326T486 262T394 221T260 206H231Q231 204 231 202T231 198Q231 161 251 144T311 126Q353 126
390 139T471 174V40Q427 18 380 4T260 -10ZM264 324Q307 324 331 335T367 364T378 398Q378 414 368 424T337 435Q315 435 297 418T266 376T250 324H264ZM264 617Q287 636 312 661T360 714T402 766H616V759Q605 746 580 725T522 682T458 639T403 606H264V617Z" />
<glyph unicode="&#xea;" horiz-adv-x="579" d="M260 -10Q190 -10 141 16T67 92T41 209Q41 277 60 340T119 454T217 533T358 563Q451 563 504 521T557 409Q557 363 540 326T486 262T394 221T260 206H231Q231 204 231 202T231 198Q231 161 251 144T311 126Q353 126
390 139T471 174V40Q427 18 380 4T260 -10ZM264 324Q307 324 331 335T367 364T378 398Q378 414 368 424T337 435Q315 435 297 418T266 376T250 324H264ZM126 617Q149 638 176 664T231 718T277 766H495Q505 744 520 717T551 663T583 617V606H453Q442 616 428 631T400
663T377 691Q349 669 320 648T260 606H126V617Z" />
<glyph unicode="&#xeb;" horiz-adv-x="579" d="M260 -10Q190 -10 141 16T67 92T41 209Q41 277 60 340T119 454T217 533T358 563Q451 563 504 521T557 409Q557 363 540 326T486 262T394 221T260 206H231Q231 204 231 202T231 198Q231 161 251 144T311 126Q353 126
390 139T471 174V40Q427 18 380 4T260 -10ZM264 324Q307 324 331 335T367 364T378 398Q378 414 368 424T337 435Q315 435 297 418T266 376T250 324H264ZM487 614Q451 614 428 626T404 676Q404 724 430 745T502 767Q532 767 558 756T584 706Q584 665 563 640T487
614ZM249 614Q213 614 190 626T166 676Q166 724 192 745T264 767Q284 767 303 763T334 745T347 706Q347 665 326 640T249 614Z" />
<glyph unicode="&#xec;" horiz-adv-x="325" d="M11 0L128 553H318L200 0H11ZM464 606Q442 627 418 652T373 705T340 756V766H533Q537 745 543 720T559 670T579 618V606H464Z" />
<glyph unicode="&#xed;" horiz-adv-x="325" d="M11 0L128 553H318L200 0H11ZM134 617Q157 636 182 661T230 714T272 766H486V759Q475 746 450 725T392 682T328 639T273 606H134V617Z" />
<glyph unicode="&#xee;" horiz-adv-x="325" d="M11 0L128 553H318L200 0H11ZM252 617Q275 638 302 664T357 718T403 766H621Q631 744 646 717T677 663T709 617V606H579Q568 616 554 631T526 663T503 691Q475 669 446 648T386 606H252V617Z" />
<glyph unicode="&#xef;" horiz-adv-x="325" d="M11 0L128 553H318L200 0H11ZM357 614Q321 614 298 626T274 676Q274 724 300 745T372 767Q402 767 428 756T454 706Q454 665 433 640T357 614ZM119 614Q83 614 60 626T36 676Q36 724 62 745T134 767Q154 767 173
763T204 745T217 706Q217 665 196 640T119 614Z" />
<glyph unicode="&#xf0;" horiz-adv-x="564" d="M254 -10Q189 -10 141 16T67 91T41 208Q41 268 57 320T105 411T183 473T289 495Q327 495 350 482T388 452L393 454Q389 483 378 515T349 574L216 512L176 594L283 644Q272 654 260 663T237 680L293 768Q324 755 352
738T406 701L522 755L562 674L472 630Q496 600 513 554T540 455T549 350Q549 289 539 235T508 136T452 59T368 8T254 -10ZM271 127Q290 127 304 137T328 165T346 202T356 242T359 279Q359 297 357 312T350 337T337 352T318 358Q294 358 277 342T250 300T235 247T230
199Q230 163 240 145T271 127Z" />
<glyph unicode="&#xf1;" horiz-adv-x="622" d="M11 0L128 553H279L273 476H277Q295 507 317 526T366 554T429 563Q481 563 513 542T560 485T575 406Q575 378 572 349T563 294L501 0H312L375 302Q378 315 381 334T384 371Q384 392 373 402T347 413Q329 413 312
398T281 351T257 270L200 0H11ZM184 604Q195 665 216 701T268 754T337 771Q358 771 376 764T411 748T444 731T477 723Q494 723 509 735T533 772H626Q614 711 592 674T539 621T469 605Q445 605 426 612T389 629T356 646T323 653Q308 653 294 640T276 604H184Z" />
<glyph unicode="&#xf2;" horiz-adv-x="607" d="M254 -10Q186 -10 139 15T66 87T41 203Q41 260 54 313T92 411T154 491T242 544T353 563Q421 563 468 538T541 466T566 350Q566 293 553 240T515 142T453 62T366 9T254 -10ZM275 132Q292 132 307 144T334 179T354
230T368 291T373 356Q373 378 368 392T354 413T331 421Q314 421 300 409T273 374T252 323T239 262T234 197Q234 165 245 149T275 132ZM344 606Q322 627 298 652T253 705T220 756V766H413Q417 745 423 720T439 670T459 618V606H344Z" />
<glyph unicode="&#xf3;" horiz-adv-x="607" d="M254 -10Q186 -10 139 15T66 87T41 203Q41 260 54 313T92 411T154 491T242 544T353 563Q421 563 468 538T541 466T566 350Q566 293 553 240T515 142T453 62T366 9T254 -10ZM275 132Q292 132 307 144T334 179T354
230T368 291T373 356Q373 378 368 392T354 413T331 421Q314 421 300 409T273 374T252 323T239 262T234 197Q234 165 245 149T275 132ZM270 617Q293 636 318 661T366 714T408 766H622V759Q611 746 586 725T528 682T464 639T409 606H270V617Z" />
<glyph unicode="&#xf4;" horiz-adv-x="607" d="M254 -10Q186 -10 139 15T66 87T41 203Q41 260 54 313T92 411T154 491T242 544T353 563Q421 563 468 538T541 466T566 350Q566 293 553 240T515 142T453 62T366 9T254 -10ZM275 132Q292 132 307 144T334 179T354
230T368 291T373 356Q373 378 368 392T354 413T331 421Q314 421 300 409T273 374T252 323T239 262T234 197Q234 165 245 149T275 132ZM132 617Q155 638 182 664T237 718T283 766H501Q511 744 526 717T557 663T589 617V606H459Q448 616 434 631T406 663T383 691Q355
669 326 648T266 606H132V617Z" />
<glyph unicode="&#xf5;" horiz-adv-x="607" d="M254 -10Q186 -10 139 15T66 87T41 203Q41 260 54 313T92 411T154 491T242 544T353 563Q421 563 468 538T541 466T566 350Q566 293 553 240T515 142T453 62T366 9T254 -10ZM275 132Q292 132 307 144T334 179T354
230T368 291T373 356Q373 378 368 392T354 413T331 421Q314 421 300 409T273 374T252 323T239 262T234 197Q234 165 245 149T275 132ZM166 604Q177 665 198 701T250 754T319 771Q340 771 358 764T393 748T426 731T459 723Q476 723 491 735T515 772H608Q596 711
574 674T521 621T451 605Q427 605 408 612T371 629T338 646T305 653Q290 653 276 640T258 604H166Z" />
<glyph unicode="&#xf6;" horiz-adv-x="607" d="M254 -10Q186 -10 139 15T66 87T41 203Q41 260 54 313T92 411T154 491T242 544T353 563Q421 563 468 538T541 466T566 350Q566 293 553 240T515 142T453 62T366 9T254 -10ZM275 132Q292 132 307 144T334 179T354
230T368 291T373 356Q373 378 368 392T354 413T331 421Q314 421 300 409T273 374T252 323T239 262T234 197Q234 165 245 149T275 132ZM493 614Q457 614 434 626T410 676Q410 724 436 745T508 767Q538 767 564 756T590 706Q590 665 569 640T493 614ZM255 614Q219
614 196 626T172 676Q172 724 198 745T270 767Q290 767 309 763T340 745T353 706Q353 665 332 640T255 614Z" />
<glyph unicode="&#xf7;" horiz-adv-x="586" d="M45 287V418H540V287H45ZM292 79Q261 79 239 99T216 162Q216 209 238 227T292 245Q322 245 345 227T369 162Q369 119 346 99T292 79ZM292 460Q261 460 239 480T216 543Q216 590 238 608T292 626Q322 626 345 608T369
543Q369 500 346 480T292 460Z" />
<glyph unicode="&#xf8;" horiz-adv-x="628" d="M94 -54L32 -1L87 63Q65 90 53 124T41 203Q41 260 54 313T93 411T158 491T248 544T363 563Q400 563 430 556T485 535L536 594L598 541L547 481Q566 456 576 424T587 350Q587 293 574 240T535 142T471 62T381 9T268
-10Q234 -10 205 -3T152 14L94 -54ZM288 127Q305 127 321 133T351 152T376 185T396 232T407 296Q407 301 407 306T408 317L253 134Q261 130 269 129T288 127ZM383 414Q375 421 365 424T343 428Q325 428 308 420T277 396T250 357T230 305T220 239Q219 235 219 230T219
220L383 414Z" />
<glyph unicode="&#xf9;" horiz-adv-x="622" d="M193 -10Q142 -10 110 11T62 69T47 147Q47 175 50 204T59 259L121 553H310L247 252Q244 239 241 220T238 183Q238 162 249 152T275 141Q292 141 308 156T340 203T365 284L422 553H611L494 0H343L349 77H345Q327 46
305 27T256 -1T193 -10ZM349 606Q327 627 303 652T258 705T225 756V766H418Q422 745 428 720T444 670T464 618V606H349Z" />
<glyph unicode="&#xfa;" horiz-adv-x="622" d="M193 -10Q142 -10 110 11T62 69T47 147Q47 175 50 204T59 259L121 553H310L247 252Q244 239 241 220T238 183Q238 162 249 152T275 141Q292 141 308 156T340 203T365 284L422 553H611L494 0H343L349 77H345Q327 46
305 27T256 -1T193 -10ZM275 617Q298 636 323 661T371 714T413 766H627V759Q616 746 591 725T533 682T469 639T414 606H275V617Z" />
<glyph unicode="&#xfb;" horiz-adv-x="622" d="M193 -10Q142 -10 110 11T62 69T47 147Q47 175 50 204T59 259L121 553H310L247 252Q244 239 241 220T238 183Q238 162 249 152T275 141Q292 141 308 156T340 203T365 284L422 553H611L494 0H343L349 77H345Q327 46
305 27T256 -1T193 -10ZM137 617Q160 638 187 664T242 718T288 766H506Q516 744 531 717T562 663T594 617V606H464Q453 616 439 631T411 663T388 691Q360 669 331 648T271 606H137V617Z" />
<glyph unicode="&#xfc;" horiz-adv-x="622" d="M193 -10Q142 -10 110 11T62 69T47 147Q47 175 50 204T59 259L121 553H310L247 252Q244 239 241 220T238 183Q238 162 249 152T275 141Q292 141 308 156T340 203T365 284L422 553H611L494 0H343L349 77H345Q327 46
305 27T256 -1T193 -10ZM498 614Q462 614 439 626T415 676Q415 724 441 745T513 767Q543 767 569 756T595 706Q595 665 574 640T498 614ZM260 614Q224 614 201 626T177 676Q177 724 203 745T275 767Q295 767 314 763T345 745T358 706Q358 665 337 640T260 614Z"
/>
<glyph unicode="&#xfd;" horiz-adv-x="544" d="M12 -240Q-16 -240 -34 -238T-63 -232V-82Q-54 -84 -40 -86T-10 -88Q34 -88 60 -70T108 -14L119 6L40 553H230L249 299Q251 282 251 266T251 236T250 206H254Q259 221 265 238T277 272T288 301L397 553H600L273 -70Q243
-127 207 -165T123 -221T12 -240ZM226 617Q249 636 274 661T322 714T364 766H578V759Q567 746 542 725T484 682T420 639T365 606H226V617Z" />
<glyph unicode="&#xfe;" horiz-adv-x="607" d="M-40 -240L172 760H361L337 647Q328 601 315 561T293 500H297Q311 519 327 533T363 555T408 563Q480 563 523 510T566 359Q566 304 555 251T523 150T471 67T403 11T318 -10Q293 -10 273 -1T235 24T205 61H201Q198
22 193 -16T174 -120L149 -240H-40ZM280 142Q296 142 310 153T335 184T355 229T368 284T373 341Q373 375 363 393T331 411Q310 411 292 392T261 341T242 273Q240 263 239 253T238 233T237 212Q237 181 248 162T280 142Z" />
<glyph unicode="&#xff;" horiz-adv-x="544" d="M12 -240Q-16 -240 -34 -238T-63 -232V-82Q-54 -84 -40 -86T-10 -88Q34 -88 60 -70T108 -14L119 6L40 553H230L249 299Q251 282 251 266T251 236T250 206H254Q259 221 265 238T277 272T288 301L397 553H600L273 -70Q243
-127 207 -165T123 -221T12 -240ZM705 614Q669 614 646 626T622 676Q622 724 648 745T720 767Q750 767 776 756T802 706Q802 665 781 640T705 614ZM467 614Q431 614 408 626T384 676Q384 724 410 745T482 767Q502 767 521 763T552 745T565 706Q565 665 544 640T467
614Z" />
<glyph unicode="&#x2013;" horiz-adv-x="480" d="M16 203L44 337H469L440 203H16Z" />
<glyph unicode="&#x2014;" horiz-adv-x="960" d="M16 203L44 337H949L920 203H16Z" />
<glyph unicode="&#x2018;" horiz-adv-x="244" d="M53 480Q68 514 88 554T132 635T179 714H320Q307 684 295 652T271 588T248 525T228 469H58L53 480Z" />
<glyph unicode="&#x2019;" horiz-adv-x="244" d="M46 469Q63 509 79 552T111 638T138 714H308L312 703Q297 669 277 629T233 548T187 469H46Z" />
<glyph unicode="&#x201a;" horiz-adv-x="303" d="M-51 -129Q-34 -89 -18 -46T13 40T41 116H211L215 105Q201 71 181 31T137 -50T90 -129H-51Z" />
<glyph unicode="&#x201c;" horiz-adv-x="487" d="M296 480Q311 514 331 554T374 635T421 714H562Q545 675 529 631T498 546T470 469H300L296 480ZM53 480Q68 514 88 554T132 635T179 714H320Q307 684 295 652T271 588T248 525T228 469H58L53 480Z" />
<glyph unicode="&#x201d;" horiz-adv-x="487" d="M289 469Q306 509 322 552T353 638T381 714H551L554 703Q539 669 519 629T476 548T430 469H289ZM46 469Q63 509 79 552T110 638T138 714H308L312 703Q297 669 277 629T233 548T187 469H46Z" />
<glyph unicode="&#x201e;" horiz-adv-x="548" d="M194 -129Q211 -89 227 -46T258 40T286 116H456L460 105Q445 71 425 31T381 -50T334 -129H194ZM-51 -129Q-34 -89 -18 -46T13 40T41 116H211L215 105Q201 71 181 31T137 -50T90 -129H-51Z" />
<glyph unicode="&#x2022;" horiz-adv-x="392" d="M185 190Q116 190 79 230T42 336Q42 390 63 436T125 511T228 540Q280 540 311 522T357 470T372 393Q372 338 353 292T292 218T185 190Z" />
<glyph unicode="&#x2039;" horiz-adv-x="351" d="M119 37L30 270V275L229 528L358 428L228 265L282 104L119 37Z" />
<glyph unicode="&#x203a;" horiz-adv-x="351" d="M122 21L-7 121L123 284L69 445L231 512L321 279V274L122 21Z" />
</font>
</defs>
</svg>
