<?xml version="1.0" standalone="no"?>
<!DOCTYPE svg PUBLIC "-//W3C//DTD SVG 1.1//EN" "http://www.w3.org/Graphics/SVG/1.1/DTD/svg11.dtd">
<svg xmlns="http://www.w3.org/2000/svg">
<defs >
<font id="NotoSans" horiz-adv-x="575" ><font-face
    font-family="Noto Sans"
    units-per-em="1000"
    panose-1="2 11 5 2 4 5 4 2 2 4"
    ascent="1069"
    descent="-293"
    alphabetic="0" />
<glyph unicode=" " horiz-adv-x="260" />
<glyph unicode="!" horiz-adv-x="269" d="M163 201H106L81 714H188L163 201ZM72 54Q72 91 90 106T134 121Q159 121 177 106T196 54Q196 18 178 2T134 -14Q108 -14 90 2T72 54Z" />
<glyph unicode="&quot;" horiz-adv-x="408" d="M160 714L140 456H85L65 714H160ZM343 714L323 456H268L248 714H343Z" />
<glyph unicode="#" horiz-adv-x="646" d="M480 436L449 276H586V209H436L395 0H324L365 209H222L183 0H113L151 209H25V276H164L196 436H62V502H208L248 714H320L280 502H424L464 714H533L493 502H620V436H480ZM235 276H378L409 436H266L235 276Z" />
<glyph unicode="$" horiz-adv-x="572" d="M253 49Q198 50 146 58T62 82V167Q96 151 149 139T253 126V328Q187 346 145 369T83 427T62 508Q62 557 85 592T152 647T253 671V759H317V672Q370 671 413 661T493 635L466 561Q434 574 396 583T317 596V395Q383 376 427
355T493 302T516 220Q516 150 464 107T317 53V-58H253V49ZM317 131Q376 137 403 158T430 214Q430 239 420 255T386 284T317 307V131ZM253 594Q217 592 194 582T160 554T148 515Q148 489 157 471T190 440T253 417V594Z" />
<glyph unicode="%" horiz-adv-x="831" d="M195 724Q269 724 307 666T345 501Q345 395 309 336T195 276Q124 276 87 335T49 501Q49 607 84 665T195 724ZM195 662Q157 662 140 622T122 501Q122 421 139 380T195 339Q234 339 253 379T272 501Q272 581 253 621T195
662ZM652 714L256 0H179L575 714H652ZM632 438Q705 438 743 380T782 215Q782 109 746 50T632 -10Q561 -10 524 49T486 215Q486 321 521 379T632 438ZM632 375Q594 375 577 335T559 215Q559 134 576 94T632 53Q671 53 690 93T709 215Q709 295 690 335T632 375Z"
/>
<glyph unicode="&amp;" horiz-adv-x="732" d="M304 725Q358 725 396 707T456 654T477 571Q477 508 437 464T334 384L527 198Q553 229 569 269T597 357H686Q670 293 646 238T584 142L730 0H611L524 84Q493 56 457 35T378 2T278 -10Q209 -10 159 12T81 79T53 186Q53
237 71 274T125 340T207 396Q186 420 166 446T133 502T120 569Q120 618 142 653T205 706T304 725ZM260 341Q224 320 199 299T159 251T145 189Q145 134 182 101T281 68Q345 68 391 89T468 139L260 341ZM301 653Q259 653 233 631T206 570Q206 534 225 504T280 436Q339
470 364 500T390 571Q390 607 366 630T301 653Z" />
<glyph unicode="&apos;" horiz-adv-x="225" d="M160 714L140 456H85L65 714H160Z" />
<glyph unicode="(" horiz-adv-x="300" d="M40 274Q40 356 55 434T104 583T187 714H270Q200 620 165 507T129 275Q129 198 145 122T192 -24T269 -158H187Q137 -99 104 -30T56 117T40 274Z" />
<glyph unicode=")" horiz-adv-x="300" d="M260 274Q260 194 245 117T197 -29T113 -158H31Q77 -95 108 -25T155 122T171 275Q171 354 155 431T108 580T30 714H113Q164 654 196 583T244 434T260 274Z" />
<glyph unicode="*" horiz-adv-x="551" d="M322 760L302 568L494 622L508 530L324 515L443 357L357 310L272 485L195 310L106 357L223 515L41 530L55 622L245 568L224 760H322Z" />
<glyph unicode="+" horiz-adv-x="572" d="M321 388H520V317H321V111H249V317H50V388H249V595H321V388Z" />
<glyph unicode="," horiz-adv-x="268" d="M192 105Q183 70 169 29T139 -52T106 -129H41Q51 -91 60 -48T78 38T91 116H185L192 105Z" />
<glyph unicode="-" horiz-adv-x="322" d="M40 229V307H282V229H40Z" />
<glyph unicode="." horiz-adv-x="268" d="M72 54Q72 91 90 106T133 121Q159 121 177 106T196 54Q196 18 178 2T133 -14Q108 -14 90 2T72 54Z" />
<glyph unicode="/" horiz-adv-x="372" d="M362 714L96 0H10L276 714H362Z" />
<glyph unicode="0" horiz-adv-x="572" d="M523 358Q523 271 510 203T469 88T395 15T285 -10Q205 -10 153 34T75 160T49 358Q49 474 72 556T148 681T285 725Q365 725 418 682T497 556T523 358ZM137 358Q137 260 151 195T198 98T285 65Q339 65 371 97T419 194T434
358Q434 456 419 520T372 617T285 650Q231 650 199 618T152 521T137 358Z" />
<glyph unicode="1" horiz-adv-x="572" d="M355 0H269V499Q269 528 269 548T271 585T273 622Q257 606 244 595T211 567L135 505L89 564L282 714H355V0Z" />
<glyph unicode="2" horiz-adv-x="572" d="M520 0H48V73L235 262Q289 316 326 358T382 440T401 529Q401 588 366 618T275 649Q223 649 184 631T103 581L56 640Q84 664 117 683T190 713T275 724Q342 724 390 701T464 636T491 534Q491 478 468 429T404 333T308 231L159
84V80H520V0Z" />
<glyph unicode="3" horiz-adv-x="572" d="M493 547Q493 499 475 464T424 407T345 376V372Q431 362 473 318T515 203Q515 141 486 93T397 17T241 -10Q185 -10 137 -2T45 29V111Q90 89 142 77T242 64Q338 64 380 101T423 205Q423 250 400 277T331 318T223 331H154V406H224Q283
406 322 423T382 470T403 541Q403 593 368 621T273 650Q235 650 204 643T147 622T93 590L49 650Q87 680 143 702T272 724Q384 724 438 674T493 547Z" />
<glyph unicode="4" horiz-adv-x="572" d="M552 162H448V0H363V162H21V237L357 718H448V241H552V162ZM363 466Q363 492 363 513T365 554T366 590T368 624H364Q356 605 344 583T321 546L107 241H363V466Z" />
<glyph unicode="5" horiz-adv-x="572" d="M275 438Q348 438 402 413T485 342T515 228Q515 154 483 101T392 19T248 -10Q193 -10 145 0T63 29V112Q99 90 150 78T249 65Q302 65 341 81T403 132T425 219Q425 289 382 326T246 364Q218 364 182 359T124 349L80 377L107
714H465V634H182L165 427Q182 430 211 434T275 438Z" />
<glyph unicode="6" horiz-adv-x="572" d="M55 305Q55 367 63 427T93 540T151 635T244 700T382 724Q403 724 428 722T470 715V640Q452 646 430 649T384 652Q315 652 269 629T197 566T158 474T143 363H149Q164 387 187 406T242 436T318 447Q380 447 426 422T499
348T525 230Q525 156 497 102T419 19T298 -10Q247 -10 203 9T126 67T74 165T55 305ZM297 64Q360 64 399 104T438 230Q438 298 404 338T300 378Q253 378 218 359T164 309T144 247Q144 214 153 182T182 123T230 80T297 64Z" />
<glyph unicode="7" horiz-adv-x="572" d="M136 0L429 634H44V714H523V646L233 0H136Z" />
<glyph unicode="8" horiz-adv-x="572" d="M285 724Q348 724 396 705T471 647T499 553Q499 510 481 478T431 422T363 378Q407 357 443 331T500 269T522 185Q522 125 493 82T412 14T288 -10Q211 -10 158 13T77 78T49 182Q49 231 69 267T124 329T197 373Q162 393
134 418T89 477T72 554Q72 609 100 646T176 704T285 724ZM135 181Q135 129 172 95T286 60Q359 60 397 94T436 184Q436 219 418 245T366 293T286 331L270 337Q226 318 196 296T151 246T135 181ZM284 653Q229 653 194 627T158 550Q158 513 175 488T223 446T289 412Q324
427 351 445T395 488T412 550Q412 600 377 626T284 653Z" />
<glyph unicode="9" horiz-adv-x="572" d="M520 409Q520 348 512 288T482 174T424 79T330 14T192 -10Q172 -10 146 -8T102 0V75Q120 69 144 66T190 62Q260 62 305 85T378 147T417 239T431 350H425Q410 327 387 308T332 278T255 267Q194 267 148 292T76 366T50 483Q50
558 78 612T158 695T278 724Q329 724 373 705T450 646T501 548T520 409ZM278 650Q216 650 177 609T137 484Q137 415 170 376T274 336Q322 336 357 355T411 405T431 467Q431 499 422 531T393 591T345 634T278 650Z" />
<glyph unicode=":" horiz-adv-x="268" d="M72 54Q72 91 90 106T133 121Q159 121 177 106T196 54Q196 18 178 2T133 -14Q108 -14 90 2T72 54ZM72 482Q72 520 90 535T133 550Q159 550 177 535T196 482Q196 446 178 430T133 414Q108 414 90 430T72 482Z" />
<glyph unicode=";" horiz-adv-x="268" d="M183 105Q174 70 160 29T130 -52T97 -129H31Q38 -101 45 -69T60 -5T72 59T82 116H176L183 105ZM70 482Q70 520 88 535T131 550Q157 550 175 535T194 482Q194 446 176 430T131 414Q106 414 88 430T70 482Z" />
<glyph unicode="&lt;" horiz-adv-x="572" d="M521 116L50 323V373L521 608V530L144 352L521 194V116Z" />
<glyph unicode="=" horiz-adv-x="572" d="M56 416V487H514V416H56ZM56 217V288H514V217H56Z" />
<glyph unicode="&gt;" horiz-adv-x="572" d="M50 194L427 351L50 530V608L521 373V323L50 116V194Z" />
<glyph unicode="?" horiz-adv-x="434" d="M140 228Q140 266 147 293T173 346T224 398Q263 431 284 453T315 496T324 547Q324 595 293 621T203 647Q154 647 116 635T43 605L12 675Q52 696 100 710T209 724Q304 724 356 677T408 549Q408 504 394 473T353 415T290
358Q257 330 240 309T216 268T210 218V201H140V228ZM117 54Q117 91 134 106T179 121Q204 121 222 106T240 54Q240 18 222 2T179 -14Q152 -14 135 2T117 54Z" />
<glyph unicode="@" horiz-adv-x="899" d="M841 357Q841 311 831 267T798 188T744 131T668 109Q622 109 596 135T563 196H558Q540 159 505 134T417 109Q341 109 300 160T258 295Q258 361 284 411T357 491T470 520Q514 520 556 513T623 496L613 293Q612 275 612
268T612 257Q612 205 630 188T674 171Q705 171 726 196T759 264T771 358Q771 451 734 515T631 614T482 648Q397 648 331 621T221 545T153 430T130 283Q130 185 165 117T267 13T433 -23Q494 -23 549 -10T648 20V-48Q605 -66 552 -77T433 -89Q315 -89 231 -45T103
81T58 280Q58 373 87 452T171 590T304 681T482 714Q560 714 625 690T739 619T814 506T841 357ZM336 293Q336 229 361 200T430 171Q486 171 510 213T539 322L545 447Q532 451 512 454T471 457Q422 457 392 433T349 372T336 293Z" />
<glyph unicode="A" horiz-adv-x="639" d="M545 0L459 221H176L91 0H0L279 717H360L638 0H545ZM352 517Q349 525 342 546T329 589T318 624Q313 604 308 584T297 546T287 517L206 301H432L352 517Z" />
<glyph unicode="B" horiz-adv-x="650" d="M301 714Q435 714 503 675T572 537Q572 495 557 463T511 409T436 379V374Q481 367 517 348T575 294T596 203Q596 138 566 93T481 24T348 0H97V714H301ZM319 410Q411 410 445 439T479 527Q479 586 438 611T305 637H187V410H319ZM187
335V76H331Q426 76 463 113T500 210Q500 248 484 276T429 319T324 335H187Z" />
<glyph unicode="C" horiz-adv-x="632" d="M403 645Q346 645 300 626T222 569T173 478T156 357Q156 269 183 204T265 104T402 69Q449 69 491 77T573 97V19Q533 4 491 -3T389 -10Q280 -10 207 35T98 163T61 358Q61 439 83 506T149 622T257 697T404 724Q459 724 510
713T601 682L565 606Q532 621 492 633T403 645Z" />
<glyph unicode="D" horiz-adv-x="730" d="M669 364Q669 244 625 163T497 41T296 0H97V714H317Q425 714 504 674T626 557T669 364ZM574 361Q574 456 543 517T451 607T304 637H187V77H284Q429 77 501 148T574 361Z" />
<glyph unicode="E" horiz-adv-x="556" d="M496 0H97V714H496V635H187V412H478V334H187V79H496V0Z" />
<glyph unicode="F" horiz-adv-x="519" d="M187 0H97V714H496V635H187V382H477V303H187V0Z" />
<glyph unicode="G" horiz-adv-x="728" d="M407 377H654V27Q596 8 537 -1T403 -10Q292 -10 216 34T101 161T61 357Q61 469 105 551T231 678T431 724Q491 724 544 713T644 682L610 604Q572 621 525 633T426 645Q341 645 280 610T187 511T155 357Q155 272 182 207T269
105T424 68Q471 68 504 73T564 85V297H407V377Z" />
<glyph unicode="H" horiz-adv-x="741" d="M643 0H553V333H187V0H97V714H187V412H553V714H643V0Z" />
<glyph unicode="I" horiz-adv-x="339" d="M298 0H40V52L124 71V642L40 662V714H298V662L214 642V71L298 52V0Z" />
<glyph unicode="J" horiz-adv-x="273" d="M-4 -190Q-28 -190 -46 -187T-78 -177V-101Q-62 -105 -44 -108T-6 -111Q19 -111 41 -101T78 -66T92 4V714H182V11Q182 -58 159 -102T94 -168T-4 -190Z" />
<glyph unicode="K" horiz-adv-x="619" d="M619 0H513L260 341L187 277V0H97V714H187V362Q217 396 248 430T310 498L503 714H608L325 403L619 0Z" />
<glyph unicode="L" horiz-adv-x="524" d="M97 0V714H187V80H499V0H97Z" />
<glyph unicode="M" horiz-adv-x="907" d="M412 0L177 626H173Q175 606 176 575T179 508T180 433V0H97V714H230L450 129H454L678 714H810V0H721V439Q721 474 722 508T725 573T728 625H724L486 0H412Z" />
<glyph unicode="N" horiz-adv-x="760" d="M663 0H558L176 593H172Q174 570 175 539T178 472T180 399V0H97V714H201L582 123H586Q585 139 584 171T581 241T579 311V714H663V0Z" />
<glyph unicode="O" horiz-adv-x="781" d="M720 358Q720 275 699 208T637 91T534 16T391 -10Q307 -10 245 16T142 91T81 208T61 359Q61 469 97 551T206 679T392 725Q499 725 572 680T682 552T720 358ZM156 358Q156 268 181 203T258 103T391 68Q472 68 523 103T600
203T625 358Q625 493 569 569T392 646Q311 646 259 612T181 513T156 358Z" />
<glyph unicode="P" horiz-adv-x="605" d="M286 714Q426 714 490 659T554 504Q554 460 540 420T492 347T404 297T269 278H187V0H97V714H286ZM278 637H187V355H259Q327 355 372 369T439 416T461 500Q461 569 417 603T278 637Z" />
<glyph unicode="Q" horiz-adv-x="781" d="M720 358Q720 271 697 200T627 80T512 8L683 -170H554L416 -9Q410 -9 404 -9T391 -10Q307 -10 245 16T142 91T81 208T61 359Q61 469 97 551T206 679T392 725Q499 725 572 680T682 552T720 358ZM156 358Q156 268 181 203T258
103T391 68Q472 68 523 103T600 203T625 358Q625 493 569 569T392 646Q311 646 259 612T181 513T156 358Z" />
<glyph unicode="R" horiz-adv-x="622" d="M294 714Q383 714 440 692T526 624T554 511Q554 454 533 416T480 356T411 320L607 0H502L329 295H187V0H97V714H294ZM289 636H187V371H294Q381 371 421 405T461 507Q461 554 443 582T386 623T289 636Z" />
<glyph unicode="S" horiz-adv-x="549" d="M502 191Q502 127 471 83T383 14T247 -10Q207 -10 171 -6T104 5T51 24V110Q87 94 140 81T251 68Q304 68 340 82T394 122T412 183Q412 218 397 242T346 286T244 330Q198 347 164 366T106 411T72 468T60 542Q60 599 89 639T169
702T288 724Q347 724 396 713T485 684L457 607Q420 623 377 634T286 645Q241 645 211 632T166 596T151 541Q151 505 166 481T215 438T307 397Q370 374 413 348T479 284T502 191Z" />
<glyph unicode="T" horiz-adv-x="556" d="M323 0H233V635H10V714H545V635H323V0Z" />
<glyph unicode="U" horiz-adv-x="731" d="M640 252Q640 178 610 119T519 25T362 -10Q229 -10 160 62T90 254V714H180V251Q180 164 226 116T367 68Q432 68 472 91T532 156T551 252V714H640V252Z" />
<glyph unicode="V" horiz-adv-x="600" d="M600 714L345 0H255L0 714H94L255 256Q266 227 274 200T288 149T300 100Q305 124 311 149T326 201T345 258L505 714H600Z" />
<glyph unicode="W" horiz-adv-x="930" d="M917 714L727 0H636L497 468Q491 489 485 511T474 553T466 587T461 609Q460 602 458 588T450 553T440 511T427 465L292 0H201L12 714H106L217 278Q223 255 228 233T237 189T245 147T251 108Q254 128 257 149T266 192T277
238T289 283L415 714H508L639 280Q646 257 652 234T663 188T671 146T678 108Q681 133 686 160T698 218T713 279L823 714H917Z" />
<glyph unicode="X" horiz-adv-x="586" d="M582 0H480L291 310L99 0H4L241 372L19 714H119L294 434L470 714H565L344 374L582 0Z" />
<glyph unicode="Y" horiz-adv-x="566" d="M283 363L469 714H566L328 277V0H238V273L0 714H98L283 363Z" />
<glyph unicode="Z" horiz-adv-x="572" d="M533 0H38V68L414 634H50V714H523V646L147 80H533V0Z" />
<glyph unicode="[" horiz-adv-x="329" d="M304 -158H80V714H304V642H166V-86H304V-158Z" />
<glyph unicode="\" horiz-adv-x="372" d="M96 714L363 0H276L10 714H96Z" />
<glyph unicode="]" horiz-adv-x="329" d="M25 -86H163V642H25V714H249V-158H25V-86Z" />
<glyph unicode="^" horiz-adv-x="572" d="M38 267L250 719H300L534 267H456L276 626L116 267H38Z" />
<glyph unicode="_" horiz-adv-x="444" d="M446 -154H-2V-90H446V-154Z" />
<glyph unicode="`" horiz-adv-x="281" d="M145 766Q156 744 172 717T207 663T241 618V606H182Q165 620 144 639T103 680T66 722T40 756V766H145Z" />
<glyph unicode="a" horiz-adv-x="561" d="M288 545Q386 545 433 502T480 365V0H416L399 76H395Q372 47 348 28T292 -1T215 -10Q167 -10 129 7T68 59T46 149Q46 229 109 272T303 320L394 323V355Q394 422 365 448T283 474Q241 474 203 462T132 433L105 499Q140
518 188 531T288 545ZM314 259Q214 255 176 227T137 148Q137 103 164 82T235 61Q303 61 348 98T393 214V262L314 259Z" />
<glyph unicode="b" horiz-adv-x="615" d="M173 575Q173 541 172 512T168 465H173Q196 499 236 522T339 545Q439 545 499 476T560 268Q560 176 533 114T455 21T339 -10Q276 -10 236 13T173 68H166L148 0H85V760H173V575ZM324 472Q267 472 234 451T187 385T173 271V267Q173
168 205 116T326 63Q398 63 433 116T469 269Q469 370 434 421T324 472Z" />
<glyph unicode="c" horiz-adv-x="480" d="M300 -10Q229 -10 174 19T87 109T55 265Q55 364 88 426T177 517T306 546Q347 546 385 538T447 517L420 444Q396 453 364 461T304 469Q250 469 215 446T163 378T146 266Q146 202 163 157T214 89T299 66Q343 66 376 75T438
97V19Q411 5 379 -2T300 -10Z" />
<glyph unicode="d" horiz-adv-x="615" d="M275 -10Q175 -10 115 59T55 267Q55 405 115 475T276 546Q318 546 349 536T403 507T442 467H448Q447 480 445 505T442 546V760H530V0H459L446 72H442Q426 49 403 31T349 1T275 -10ZM289 63Q374 63 408 109T443 250V266Q443
366 410 419T288 473Q217 473 182 417T146 265Q146 169 181 116T289 63Z" />
<glyph unicode="e" horiz-adv-x="564" d="M292 546Q361 546 410 516T486 432T513 304V251H146Q148 160 192 113T317 65Q368 65 407 74T489 102V25Q448 7 408 -1T313 -10Q237 -10 179 21T88 113T55 264Q55 352 84 415T167 512T292 546ZM291 474Q228 474 192 434T148
321H421Q421 367 407 401T365 454T291 474Z" />
<glyph unicode="f" horiz-adv-x="344" d="M332 468H197V0H109V468H15V509L109 539V570Q109 639 129 682T189 745T283 765Q315 765 341 760T387 747L364 678Q348 683 327 688T284 693Q240 693 219 664T197 571V536H332V468Z" />
<glyph unicode="g" horiz-adv-x="615" d="M275 546Q328 546 370 526T443 465H448L460 536H530V-9Q530 -85 504 -136T425 -214T290 -240Q232 -240 184 -232T97 -206V-125Q135 -145 186 -156T295 -167Q364 -167 403 -127T443 -16V5Q443 17 444 39T446 71H442Q414
30 373 10T276 -10Q172 -10 114 63T55 267Q55 395 113 470T275 546ZM287 472Q242 472 211 448T163 378T146 266Q146 167 182 115T289 62Q330 62 359 72T407 105T435 163T444 246V267Q444 340 428 385T376 451T287 472Z" />
<glyph unicode="h" horiz-adv-x="618" d="M173 537Q173 518 172 498T168 462H174Q191 490 217 508T275 535T341 545Q406 545 449 525T515 461T537 349V0H450V343Q450 408 421 440T330 472Q270 472 236 450T188 384T173 277V0H85V760H173V537Z" />
<glyph unicode="i" horiz-adv-x="258" d="M173 536V0H85V536H173ZM130 737Q150 737 165 724T181 681Q181 653 166 639T130 625Q108 625 93 639T78 681Q78 710 93 723T130 737Z" />
<glyph unicode="j" horiz-adv-x="258" d="M22 -240Q-3 -240 -22 -237T-55 -228V-157Q-40 -161 -24 -164T11 -167Q43 -167 64 -150T85 -83V536H173V-80Q173 -130 157 -166T108 -221T22 -240ZM78 681Q78 710 93 723T130 737Q150 737 165 724T181 681Q181 653 166
639T130 625Q108 625 93 639T78 681Z" />
<glyph unicode="k" horiz-adv-x="534" d="M172 363Q172 347 171 321T168 276H172Q178 284 190 299T214 329T236 355L407 536H510L293 307L525 0H419L233 250L172 197V0H85V760H172V363Z" />
<glyph unicode="l" horiz-adv-x="258" d="M173 0H85V760H173V0Z" />
<glyph unicode="m" horiz-adv-x="935" d="M673 546Q764 546 809 500T854 349V0H767V345Q767 408 741 440T658 472Q580 472 547 427T513 296V0H426V345Q426 387 414 415T378 458T316 472Q262 472 231 450T187 384T173 278V0H85V536H156L169 463H174Q191 491 215
509T270 537T332 546Q394 546 435 524T496 456H501Q528 502 574 524T673 546Z" />
<glyph unicode="n" horiz-adv-x="618" d="M343 546Q439 546 488 500T537 349V0H450V343Q450 408 421 440T330 472Q241 472 207 422T173 278V0H85V536H156L169 463H174Q192 491 218 509T277 537T343 546Z" />
<glyph unicode="o" horiz-adv-x="605" d="M551 269Q551 202 534 151T484 63T405 9T301 -10Q248 -10 203 8T125 63T74 150T55 269Q55 358 85 419T171 513T304 546Q377 546 432 514T519 420T551 269ZM146 269Q146 206 162 160T214 88T303 63Q357 63 392 88T443 159T460
269Q460 333 443 378T392 447T302 472Q220 472 183 418T146 269Z" />
<glyph unicode="p" horiz-adv-x="615" d="M340 546Q439 546 499 477T560 269Q560 178 533 116T456 22T339 -10Q298 -10 266 1T212 29T173 68H167Q169 51 171 25T173 -20V-240H85V536H157L169 463H173Q189 486 211 505T265 535T340 546ZM324 472Q270 472 237 452T189
390T173 286V269Q173 203 187 157T234 87T326 63Q375 63 406 90T453 163T469 270Q469 362 434 417T324 472Z" />
<glyph unicode="q" horiz-adv-x="615" d="M442 -11Q442 7 443 31T447 72H441Q418 38 378 14T273 -10Q176 -10 116 59T55 267Q55 359 83 421T161 514T276 546Q339 546 379 522T443 463H447L460 536H530V-240H442V-11ZM290 63Q345 63 378 83T427 144T443 248V266Q443
368 409 420T288 473Q216 473 181 417T146 265Q146 170 181 117T290 63Z" />
<glyph unicode="r" horiz-adv-x="413" d="M335 546Q350 546 367 545T398 540L387 459Q374 462 359 464T329 466Q298 466 270 453T220 417T186 360T173 286V0H85V536H157L167 438H171Q188 468 212 492T267 531T335 546Z" />
<glyph unicode="s" horiz-adv-x="479" d="M434 148Q434 96 408 61T334 8T220 -10Q164 -10 124 -1T52 24V104Q84 88 129 75T222 61Q289 61 319 82T349 140Q349 160 338 176T299 208T217 244Q165 264 128 284T71 332T51 404Q51 472 106 509T252 546Q301 546 343
537T423 510L393 440Q359 454 322 464T246 474Q192 474 164 457T135 409Q135 387 148 372T191 342T273 307Q324 288 360 268T415 220T434 148Z" />
<glyph unicode="t" horiz-adv-x="361" d="M264 62Q284 62 305 65T339 73V6Q325 -1 299 -5T249 -10Q207 -10 172 4T114 55T92 156V468H16V510L93 545L128 659H180V536H335V468H180V158Q180 109 203 86T264 62Z" />
<glyph unicode="u" horiz-adv-x="618" d="M533 536V0H461L448 71H444Q427 43 400 25T341 -1T274 -10Q210 -10 167 10T101 74T79 185V536H168V191Q168 127 197 95T287 63Q347 63 381 85T430 151T445 257V536H533Z" />
<glyph unicode="v" horiz-adv-x="508" d="M203 0L0 536H94L208 220Q216 198 225 171T241 120T251 78H255Q259 95 266 120T283 172T300 220L414 536H508L304 0H203Z" />
<glyph unicode="w" horiz-adv-x="786" d="M431 303Q425 324 419 344T409 383T400 418T394 445H390Q388 434 385 418T377 383T367 344T354 302L258 1H158L11 537H102L176 251Q184 222 191 193T203 137T211 91H215Q218 103 222 121T230 159T240 199T251 235L346
537H442L534 235Q541 212 548 186T562 136T570 92H574Q576 109 581 134T594 190T610 251L685 537H775L626 1H523L431 303Z" />
<glyph unicode="x" horiz-adv-x="529" d="M212 274L27 536H127L265 334L402 536H501L316 274L511 0H411L265 214L117 0H18L212 274Z" />
<glyph unicode="y" horiz-adv-x="510" d="M1 536H95L211 231Q221 204 229 179T245 131T256 85H260Q266 110 279 150T306 232L415 536H510L279 -74Q260 -124 235 -161T173 -219T84 -240Q60 -240 42 -238T11 -232V-162Q22 -164 37 -166T70 -168Q101 -168 123 -157T162
-124T189 -73L217 -2L1 536Z" />
<glyph unicode="z" horiz-adv-x="470" d="M431 0H39V58L327 468H56V536H424V470L140 68H431V0Z" />
<glyph unicode="{" horiz-adv-x="380" d="M348 -158Q287 -157 243 -140T174 -88T150 1V148Q150 182 136 202T95 232T28 242V315Q68 316 95 325T136 354T150 408V556Q150 609 175 644T245 696T348 714V642Q314 641 289 631T251 601T237 548V404Q237 353 210 323T128
282V276Q184 266 210 236T237 154V7Q237 -25 250 -45T288 -75T348 -86V-158Z" />
<glyph unicode="|" horiz-adv-x="551" d="M239 760H312V-241H239V760Z" />
<glyph unicode="}" horiz-adv-x="380" d="M32 -86Q67 -85 91 -75T129 -45T143 8V153Q143 204 170 234T252 275V281Q197 291 170 321T143 403V549Q143 582 130 602T93 632T32 642V714Q94 714 138 697T206 644T230 555V409Q230 375 244 355T285 325T352 315V242Q313
242 286 233T244 203T230 149V0Q230 -53 205 -88T136 -140T32 -158V-86Z" />
<glyph unicode="~" horiz-adv-x="572" d="M269 319Q233 335 210 340T164 346Q136 346 105 329T50 287V365Q74 391 104 404T170 418Q199 418 227 412T302 386Q338 370 361 365T406 359Q435 359 466 376T521 418V341Q497 315 467 301T401 287Q373 287 344 293T269 319Z" />
<glyph unicode="&#xa0;" horiz-adv-x="260" />
<glyph unicode="&#xa1;" horiz-adv-x="269" d="M104 330H162L187 -182H79L104 330ZM196 478Q196 441 178 426T134 411Q109 411 91 426T72 478Q72 514 90 530T134 546Q160 546 178 530T196 478Z" />
<glyph unicode="&#xa2;" horiz-adv-x="572" d="M353 644Q391 643 425 635T485 615L459 542Q433 552 400 560T340 568Q286 568 251 546T198 478T181 363Q181 294 198 250T250 185T336 164Q380 164 412 172T476 194V117Q449 104 420 97T352 87V-10H285V90Q226 99
183 129T115 216T91 362Q91 453 115 511T183 600T285 640V724H353V644Z" />
<glyph unicode="&#xa3;" horiz-adv-x="572" d="M334 723Q389 723 433 711T511 682L480 612Q450 626 414 638T336 650Q279 650 249 621T219 525V386H423V320H219V216Q219 176 210 150T185 107T151 80H535V0H32V74Q61 81 83 97T118 142T131 215V320H35V386H131V534Q131
594 156 636T227 700T334 723Z" />
<glyph unicode="&#xa4;" horiz-adv-x="572" d="M90 353Q90 383 99 411T125 463L59 531L108 578L174 514Q197 531 226 540T286 549Q317 549 344 540T396 514L463 578L511 531L447 464Q462 441 472 413T482 353Q482 322 473 293T447 241L510 175L463 128L396 192Q373
176 345 167T286 158Q255 158 226 167T174 193L108 129L60 176L125 242Q109 265 100 293T90 353ZM157 353Q157 317 174 288T220 242T286 224Q323 224 352 241T398 288T416 353Q416 390 399 419T352 466T286 484Q250 484 221 467T174 420T157 353Z" />
<glyph unicode="&#xa5;" horiz-adv-x="572" d="M285 365L464 714H556L355 339H479V275H328V193H479V129H328V0H242V129H91V193H242V275H91V339H213L14 714H107L285 365Z" />
<glyph unicode="&#xa6;" horiz-adv-x="551" d="M239 760H312V379H239V760ZM239 140H312V-241H239V140Z" />
<glyph unicode="&#xa7;" horiz-adv-x="513" d="M67 395Q67 445 91 475T146 521Q110 541 90 568T70 636Q70 696 121 730T267 765Q323 765 362 756T438 731L411 664Q377 678 343 687T261 697Q201 697 177 682T152 638Q152 620 164 606T204 577T284 543Q336 524 372
502T427 452T447 383Q447 332 424 300T372 250Q407 231 426 205T446 140Q446 71 389 33T228 -5Q173 -5 132 3T59 28V103Q81 93 109 84T169 68T232 62Q306 62 334 83T362 133Q362 152 353 166T316 195T233 231Q181 251 144 272T87 322T67 395ZM142 405Q142 381 155
362T200 325T285 287L307 279Q330 293 350 314T371 370Q371 395 358 415T310 453T214 491Q186 484 164 461T142 405Z" />
<glyph unicode="&#xa8;" horiz-adv-x="580" d="M149 681Q149 707 163 718T196 730Q215 730 229 719T243 681Q243 656 229 644T196 631Q177 631 163 643T149 681ZM337 681Q337 707 350 718T383 730Q402 730 416 719T430 681Q430 656 416 644T383 631Q364 631 351
643T337 681Z" />
<glyph unicode="&#xa9;" horiz-adv-x="832" d="M431 133Q332 133 283 194T234 357Q234 422 257 472T325 551T435 580Q466 580 498 572T558 550L529 489Q504 502 481 508T436 515Q377 515 345 473T312 357Q312 281 340 240T435 198Q458 198 486 204T540 221V157Q516
147 491 140T431 133ZM416 -10Q336 -10 269 17T153 93T76 210T49 357Q49 437 76 504T152 620T269 697T416 724Q492 724 558 697T675 621T754 504T783 357Q783 277 756 210T680 94T563 17T416 -10ZM416 43Q480 43 536 66T635 131T702 231T726 357Q726 422 703 479T639
579T541 646T416 671Q348 671 291 648T193 583T128 483T105 357Q105 292 128 235T192 135T291 68T416 43Z" />
<glyph unicode="&#xaa;" horiz-adv-x="357" d="M177 722Q242 722 275 695T308 609V389H261L249 431Q229 410 201 397T135 383Q104 383 81 394T45 427T32 482Q32 516 49 538T101 573T190 587L246 589V611Q246 644 225 657T175 670Q147 670 122 663T74 644L52 693Q78
706 110 714T177 722ZM198 542Q138 540 117 525T96 482Q96 457 110 446T150 434Q201 434 223 457T246 521V544L198 542Z" />
<glyph unicode="&#xab;" horiz-adv-x="509" d="M40 270L208 471L271 435L131 264L271 93L208 56L40 257V270ZM238 270L408 471L470 435L330 264L470 93L408 56L238 257V270Z" />
<glyph unicode="&#xac;" horiz-adv-x="572" d="M520 388V128H449V317H50V388H520Z" />
<glyph unicode="&#xad;" horiz-adv-x="322" d="M40 229V307H282V229H40Z" />
<glyph unicode="&#xae;" horiz-adv-x="832" d="M279 138V575H407Q489 575 527 543T565 446Q565 399 541 372T487 332L603 138H517L417 311H355V138H279ZM405 373Q444 373 466 393T488 444Q488 479 468 495T404 511H355V373H405ZM416 -10Q336 -10 269 17T153 93T76
210T49 357Q49 437 76 504T152 620T269 697T416 724Q492 724 558 697T675 621T754 504T783 357Q783 277 756 210T680 94T563 17T416 -10ZM416 43Q480 43 536 66T635 131T702 231T726 357Q726 422 703 479T639 579T541 646T416 671Q348 671 291 648T193 583T128
483T105 357Q105 292 128 235T192 135T291 68T416 43Z" />
<glyph unicode="&#xaf;" horiz-adv-x="500" d="M503 760H-3V826H503V760Z" />
<glyph unicode="&#xb0;" horiz-adv-x="428" d="M214 417Q166 417 131 436T75 490T55 570Q55 616 74 650T129 704T214 724Q261 724 297 705T353 651T373 570Q373 525 353 491T297 437T214 417ZM215 476Q263 476 285 502T308 570Q308 614 285 640T215 666Q166 666
143 640T120 570Q120 528 143 502T215 476Z" />
<glyph unicode="&#xb1;" horiz-adv-x="572" d="M50 0V71H521V0H50ZM321 391H520V320H321V114H249V320H50V391H249V598H321V391Z" />
<glyph unicode="&#xb2;" horiz-adv-x="350" d="M306 416H24V470L139 582Q180 621 200 645T228 689T236 731Q236 763 218 779T169 795Q139 795 115 784T64 752L29 798Q58 823 92 838T170 853Q234 853 270 822T307 735Q307 702 294 675T255 619T192 555L111 478H306V416Z" />
<glyph unicode="&#xb3;" horiz-adv-x="350" d="M165 853Q236 853 272 822T308 743Q308 703 287 677T235 641V638Q274 631 297 606T321 539Q321 481 279 445T148 408Q111 408 79 414T17 436V499Q51 483 85 474T149 465Q201 465 225 485T249 541Q249 577 220 593T139
610H82V665H139Q189 665 212 684T236 735Q236 767 216 781T166 796Q135 796 109 786T55 758L19 804Q50 827 84 840T165 853Z" />
<glyph unicode="&#xb4;" horiz-adv-x="281" d="M241 756Q232 742 215 722T178 681T137 640T98 606H40V618Q55 637 72 663T107 716T135 766H241V756Z" />
<glyph unicode="&#xb5;" horiz-adv-x="623" d="M538 536V0H467L453 72H448Q431 46 408 28T355 0T287 -10Q248 -10 220 2T172 35H168Q170 23 171 6T172 -34T173 -84V-240H85V536H173V190Q173 128 203 96T293 63Q353 63 387 85T435 151T450 257V536H538Z" />
<glyph unicode="&#xb6;" horiz-adv-x="655" d="M549 -127H491V704H389V-127H331V273Q316 269 297 267T260 264Q198 264 152 287T81 364T55 509Q55 605 82 659T160 737T275 760H549V-127Z" />
<glyph unicode="&#xb7;" horiz-adv-x="268" d="M72 353Q72 390 90 405T133 420Q159 420 177 405T196 353Q196 317 178 301T133 285Q108 285 90 301T72 353Z" />
<glyph unicode="&#xb8;" horiz-adv-x="225" d="M212 -139Q212 -187 175 -213T64 -240Q49 -240 36 -239T14 -235V-180Q23 -182 38 -183T67 -185Q103 -185 122 -176T141 -141Q141 -115 115 -103T50 -86L93 0H151L125 -53Q149 -58 169 -68T200 -96T212 -139Z" />
<glyph unicode="&#xb9;" horiz-adv-x="350" d="M240 844V416H169V692Q169 709 169 724T171 753T173 781Q163 772 151 762T126 742L72 703L37 752L167 844H240Z" />
<glyph unicode="&#xba;" horiz-adv-x="376" d="M345 553Q345 472 302 428T187 383Q120 383 76 426T32 553Q32 635 74 678T189 722Q236 722 271 703T325 646T345 553ZM95 553Q95 495 117 466T188 436Q237 436 259 465T281 553Q281 612 259 640T188 669Q139 669
117 641T95 553Z" />
<glyph unicode="&#xbb;" horiz-adv-x="509" d="M469 257L299 56L237 93L377 264L237 435L299 471L469 270V257ZM270 257L101 56L39 93L179 264L39 435L101 471L270 270V257Z" />
<glyph unicode="&#xbc;" horiz-adv-x="745" d="M126 0L562 714H637L201 0H126ZM166 562Q166 579 166 594T168 623T170 651Q160 642 148 632T123 612L69 573L34 622L164 714H237V286H166V562ZM600 0V96H405V148L602 431H675V156H736V96H675V0H600ZM475 156H600V249Q600
270 601 298T603 350Q598 339 582 315T555 273L475 156Z" />
<glyph unicode="&#xbd;" horiz-adv-x="771" d="M96 0L532 714H607L171 0H96ZM154 562Q154 575 154 586T155 609T156 630T158 651Q148 642 136 632T111 612L57 573L22 622L152 714H225V286H154V562ZM445 0V54L560 166Q601 205 621 229T649 273T657 315Q657 347
639 363T590 379Q560 379 536 368T485 336L450 382Q479 407 513 422T591 437Q655 437 691 406T728 319Q728 286 715 259T676 203T613 139L532 62H727V0H445Z" />
<glyph unicode="&#xbe;" horiz-adv-x="781" d="M170 0L606 714H681L245 0H170ZM146 278Q109 278 77 284T15 306V369Q49 353 83 344T147 335Q199 335 223 355T247 411Q247 447 218 463T137 480H80V535H137Q187 535 210 554T234 605Q234 637 214 651T164 666Q133
666 107 656T53 628L17 674Q48 697 82 710T163 723Q234 723 270 692T306 613Q306 573 285 547T233 511V508Q272 501 295 476T319 409Q319 351 277 315T146 278ZM636 0V96H441V148L638 431H711V156H772V96H711V0H636ZM511 156H636V249Q636 270 637 298T639 350Q634
339 618 315T591 273L511 156Z" />
<glyph unicode="&#xbf;" horiz-adv-x="434" d="M292 304Q292 267 285 239T259 187T208 134Q170 102 148 80T117 36T108 -15Q108 -63 139 -89T229 -115Q279 -115 317 -102T389 -73L420 -143Q380 -164 332 -178T223 -192Q128 -192 76 -145T24 -17Q24 28 38 59T79
117T142 174Q176 203 193 223T216 265T222 314V331H292V304ZM315 478Q315 441 298 426T253 411Q228 411 210 426T192 478Q192 514 210 530T253 546Q280 546 297 530T315 478Z" />
<glyph unicode="&#xc0;" horiz-adv-x="639" d="M545 0L459 221H176L91 0H0L279 717H360L638 0H545ZM352 517Q349 525 342 546T329 589T318 624Q313 604 308 584T297 546T287 517L206 301H432L352 517ZM293 944Q304 922 320 895T355 841T389 796V784H330Q313 798
292 817T251 858T214 900T188 934V944H293Z" />
<glyph unicode="&#xc1;" horiz-adv-x="639" d="M545 0L459 221H176L91 0H0L279 717H360L638 0H545ZM352 517Q349 525 342 546T329 589T318 624Q313 604 308 584T297 546T287 517L206 301H432L352 517ZM466 934Q457 920 440 900T403 859T362 818T323 784H265V796Q280
815 297 841T332 894T360 944H466V934Z" />
<glyph unicode="&#xc2;" horiz-adv-x="639" d="M545 0L459 221H176L91 0H0L279 717H360L638 0H545ZM352 517Q349 525 342 546T329 589T318 624Q313 604 308 584T297 546T287 517L206 301H432L352 517ZM362 944Q374 922 396 895T443 841T487 795V784H425Q399 800
371 823T316 874Q289 847 262 824T209 784H149V795Q168 815 191 841T237 894T272 944H362Z" />
<glyph unicode="&#xc3;" horiz-adv-x="639" d="M545 0L459 221H176L91 0H0L279 717H360L638 0H545ZM352 517Q349 525 342 546T329 589T318 624Q313 604 308 584T297 546T287 517L206 301H432L352 517ZM135 784Q138 814 146 837T169 877T202 903T245 912Q267 912
287 904T327 884T363 864T397 855Q420 855 432 869T452 913H502Q496 855 468 820T393 785Q372 785 352 793T313 813T276 833T241 842Q217 842 205 828T186 784H135Z" />
<glyph unicode="&#xc4;" horiz-adv-x="639" d="M545 0L459 221H176L91 0H0L279 717H360L638 0H545ZM352 517Q349 525 342 546T329 589T318 624Q313 604 308 584T297 546T287 517L206 301H432L352 517ZM178 859Q178 885 192 896T225 908Q244 908 258 897T272 859Q272
834 258 822T225 809Q206 809 192 821T178 859ZM366 859Q366 885 379 896T412 908Q431 908 445 897T459 859Q459 834 445 822T412 809Q393 809 380 821T366 859Z" />
<glyph unicode="&#xc5;" horiz-adv-x="639" d="M545 0L459 221H176L91 0H0L279 717H360L638 0H545ZM352 517Q349 525 342 546T329 589T318 624Q313 604 308 584T297 546T287 517L206 301H432L352 517ZM317 667Q268 667 238 695T208 773Q208 823 238 850T317 878Q364
878 396 851T428 774Q428 723 397 695T317 667ZM317 717Q342 717 357 732T373 773Q373 799 357 814T317 829Q293 829 277 814T261 773Q261 747 275 732T317 717Z" />
<glyph unicode="&#xc6;" horiz-adv-x="881" d="M821 0H449V221H199L92 0H-1L338 714H821V635H539V412H802V334H539V79H821V0ZM234 301H449V634H391L234 301Z" />
<glyph unicode="&#xc7;" horiz-adv-x="632" d="M403 645Q346 645 300 626T222 569T173 478T156 357Q156 269 183 204T265 104T402 69Q449 69 491 77T573 97V19Q533 4 491 -3T389 -10Q280 -10 207 35T98 163T61 358Q61 439 83 506T149 622T257 697T404 724Q459
724 510 713T601 682L565 606Q532 621 492 633T403 645ZM473 -139Q473 -187 436 -213T325 -240Q310 -240 297 -239T275 -235V-180Q284 -182 299 -183T328 -185Q364 -185 383 -176T402 -141Q402 -115 376 -103T311 -86L354 0H412L386 -53Q410 -58 430 -68T461 -96T473
-139Z" />
<glyph unicode="&#xc8;" horiz-adv-x="556" d="M496 0H97V714H496V635H187V412H478V334H187V79H496V0ZM280 944Q291 922 307 895T342 841T376 796V784H317Q300 798 279 817T238 858T201 900T175 934V944H280Z" />
<glyph unicode="&#xc9;" horiz-adv-x="556" d="M496 0H97V714H496V635H187V412H478V334H187V79H496V0ZM453 934Q444 920 427 900T390 859T349 818T310 784H252V796Q267 815 284 841T319 894T347 944H453V934Z" />
<glyph unicode="&#xca;" horiz-adv-x="556" d="M496 0H97V714H496V635H187V412H478V334H187V79H496V0ZM349 944Q361 922 383 895T430 841T474 795V784H412Q386 800 358 823T303 874Q276 847 249 824T196 784H136V795Q155 815 178 841T224 894T259 944H349Z" />
<glyph unicode="&#xcb;" horiz-adv-x="556" d="M496 0H97V714H496V635H187V412H478V334H187V79H496V0ZM165 859Q165 885 179 896T212 908Q231 908 245 897T259 859Q259 834 245 822T212 809Q193 809 179 821T165 859ZM353 859Q353 885 366 896T399 908Q418 908
432 897T446 859Q446 834 432 822T399 809Q380 809 367 821T353 859Z" />
<glyph unicode="&#xcc;" horiz-adv-x="339" d="M298 0H40V52L124 71V642L40 662V714H298V662L214 642V71L298 52V0ZM145 944Q156 922 172 895T207 841T241 796V784H182Q165 798 144 817T103 858T66 900T40 934V944H145Z" />
<glyph unicode="&#xcd;" horiz-adv-x="339" d="M298 0H40V52L124 71V642L40 662V714H298V662L214 642V71L298 52V0ZM318 934Q309 920 292 900T255 859T214 818T175 784H117V796Q132 815 149 841T184 894T212 944H318V934Z" />
<glyph unicode="&#xce;" horiz-adv-x="339" d="M298 0H40V52L124 71V642L40 662V714H298V662L214 642V71L298 52V0ZM214 944Q226 922 248 895T295 841T339 795V784H277Q251 800 223 823T168 874Q141 847 114 824T61 784H1V795Q20 815 43 841T89 894T124 944H214Z" />
<glyph unicode="&#xcf;" horiz-adv-x="339" d="M298 0H40V52L124 71V642L40 662V714H298V662L214 642V71L298 52V0ZM30 859Q30 885 44 896T77 908Q96 908 110 897T124 859Q124 834 110 822T77 809Q58 809 44 821T30 859ZM218 859Q218 885 231 896T264 908Q283
908 297 897T311 859Q311 834 297 822T264 809Q245 809 232 821T218 859Z" />
<glyph unicode="&#xd0;" horiz-adv-x="730" d="M317 714Q424 714 503 674T625 557T669 364Q669 244 625 163T497 41T295 0H104V314H30V392H104V714H317ZM304 637H194V392H372V314H194V77H284Q430 77 502 148T574 361Q574 456 542 517T450 607T304 637Z" />
<glyph unicode="&#xd1;" horiz-adv-x="760" d="M663 0H558L176 593H172Q174 570 175 539T178 472T180 399V0H97V714H201L582 123H586Q585 139 584 171T581 241T579 311V714H663V0ZM197 784Q200 814 208 837T231 877T264 903T307 912Q329 912 349 904T389 884T425
864T459 855Q482 855 494 869T514 913H564Q558 855 530 820T455 785Q434 785 414 793T375 813T338 833T303 842Q279 842 267 828T248 784H197Z" />
<glyph unicode="&#xd2;" horiz-adv-x="781" d="M720 358Q720 275 699 208T637 91T534 16T391 -10Q307 -10 245 16T142 91T81 208T61 359Q61 469 97 551T206 679T392 725Q499 725 572 680T682 552T720 358ZM156 358Q156 268 181 203T258 103T391 68Q472 68 523
103T600 203T625 358Q625 493 569 569T392 646Q311 646 259 612T181 513T156 358ZM366 944Q377 922 393 895T428 841T462 796V784H403Q386 798 365 817T324 858T287 900T261 934V944H366Z" />
<glyph unicode="&#xd3;" horiz-adv-x="781" d="M720 358Q720 275 699 208T637 91T534 16T391 -10Q307 -10 245 16T142 91T81 208T61 359Q61 469 97 551T206 679T392 725Q499 725 572 680T682 552T720 358ZM156 358Q156 268 181 203T258 103T391 68Q472 68 523
103T600 203T625 358Q625 493 569 569T392 646Q311 646 259 612T181 513T156 358ZM539 934Q530 920 513 900T476 859T435 818T396 784H338V796Q353 815 370 841T405 894T433 944H539V934Z" />
<glyph unicode="&#xd4;" horiz-adv-x="781" d="M720 358Q720 275 699 208T637 91T534 16T391 -10Q307 -10 245 16T142 91T81 208T61 359Q61 469 97 551T206 679T392 725Q499 725 572 680T682 552T720 358ZM156 358Q156 268 181 203T258 103T391 68Q472 68 523
103T600 203T625 358Q625 493 569 569T392 646Q311 646 259 612T181 513T156 358ZM435 944Q447 922 469 895T516 841T560 795V784H498Q472 800 444 823T389 874Q362 847 335 824T282 784H222V795Q241 815 264 841T310 894T345 944H435Z" />
<glyph unicode="&#xd5;" horiz-adv-x="781" d="M720 358Q720 275 699 208T637 91T534 16T391 -10Q307 -10 245 16T142 91T81 208T61 359Q61 469 97 551T206 679T392 725Q499 725 572 680T682 552T720 358ZM156 358Q156 268 181 203T258 103T391 68Q472 68 523
103T600 203T625 358Q625 493 569 569T392 646Q311 646 259 612T181 513T156 358ZM208 784Q211 814 219 837T242 877T275 903T318 912Q340 912 360 904T400 884T436 864T470 855Q493 855 505 869T525 913H575Q569 855 541 820T466 785Q445 785 425 793T386 813T349
833T314 842Q290 842 278 828T259 784H208Z" />
<glyph unicode="&#xd6;" horiz-adv-x="781" d="M720 358Q720 275 699 208T637 91T534 16T391 -10Q307 -10 245 16T142 91T81 208T61 359Q61 469 97 551T206 679T392 725Q499 725 572 680T682 552T720 358ZM156 358Q156 268 181 203T258 103T391 68Q472 68 523
103T600 203T625 358Q625 493 569 569T392 646Q311 646 259 612T181 513T156 358ZM251 859Q251 885 265 896T298 908Q317 908 331 897T345 859Q345 834 331 822T298 809Q279 809 265 821T251 859ZM439 859Q439 885 452 896T485 908Q504 908 518 897T532 859Q532
834 518 822T485 809Q466 809 453 821T439 859Z" />
<glyph unicode="&#xd7;" horiz-adv-x="572" d="M456 574L506 523L336 353L505 183L455 132L284 301L117 132L65 183L234 353L64 522L116 574L285 403L456 574Z" />
<glyph unicode="&#xd8;" horiz-adv-x="781" d="M720 358Q720 275 699 208T637 91T534 16T391 -10Q335 -10 289 2T206 37L158 -31L97 9L149 83Q105 132 83 202T61 359Q61 469 97 551T206 679T392 725Q444 725 488 713T570 680L616 746L677 705L626 634Q672 586
696 516T720 358ZM625 358Q625 487 574 560L254 106Q280 88 314 78T391 68Q472 68 523 103T600 203T625 358ZM156 358Q156 297 167 247T203 160L522 611Q497 628 465 637T392 646Q311 646 259 612T181 513T156 358Z" />
<glyph unicode="&#xd9;" horiz-adv-x="731" d="M640 252Q640 178 610 119T519 25T362 -10Q229 -10 160 62T90 254V714H180V251Q180 164 226 116T367 68Q432 68 472 91T532 156T551 252V714H640V252ZM341 944Q352 922 368 895T403 841T437 796V784H378Q361 798
340 817T299 858T262 900T236 934V944H341Z" />
<glyph unicode="&#xda;" horiz-adv-x="731" d="M640 252Q640 178 610 119T519 25T362 -10Q229 -10 160 62T90 254V714H180V251Q180 164 226 116T367 68Q432 68 472 91T532 156T551 252V714H640V252ZM514 934Q505 920 488 900T451 859T410 818T371 784H313V796Q328
815 345 841T380 894T408 944H514V934Z" />
<glyph unicode="&#xdb;" horiz-adv-x="731" d="M640 252Q640 178 610 119T519 25T362 -10Q229 -10 160 62T90 254V714H180V251Q180 164 226 116T367 68Q432 68 472 91T532 156T551 252V714H640V252ZM410 944Q422 922 444 895T491 841T535 795V784H473Q447 800
419 823T364 874Q337 847 310 824T257 784H197V795Q216 815 239 841T285 894T320 944H410Z" />
<glyph unicode="&#xdc;" horiz-adv-x="731" d="M640 252Q640 178 610 119T519 25T362 -10Q229 -10 160 62T90 254V714H180V251Q180 164 226 116T367 68Q432 68 472 91T532 156T551 252V714H640V252ZM226 859Q226 885 240 896T273 908Q292 908 306 897T320 859Q320
834 306 822T273 809Q254 809 240 821T226 859ZM414 859Q414 885 427 896T460 908Q479 908 493 897T507 859Q507 834 493 822T460 809Q441 809 428 821T414 859Z" />
<glyph unicode="&#xdd;" horiz-adv-x="566" d="M283 363L469 714H566L328 277V0H238V273L0 714H98L283 363ZM431 934Q422 920 405 900T368 859T327 818T288 784H230V796Q245 815 262 841T297 894T325 944H431V934Z" />
<glyph unicode="&#xde;" horiz-adv-x="605" d="M554 382Q554 337 540 296T493 224T405 174T268 155H187V0H97V714H187V590H283Q428 590 491 535T554 382ZM259 231Q329 231 373 245T439 292T461 377Q461 446 418 479T276 513H187V231H259Z" />
<glyph unicode="&#xdf;" horiz-adv-x="631" d="M522 617Q522 583 508 558T473 513T431 477T396 446T382 412Q382 399 388 388T414 363T470 323Q506 299 532 275T572 222T586 153Q586 96 563 60T497 7T400 -10Q353 -10 317 -1T255 24V103Q272 93 295 83T344 67T397
61Q452 61 476 84T500 147Q500 171 492 189T463 226T406 267Q364 294 341 315T307 359T297 407Q297 438 310 460T344 498T385 531T419 566T433 612Q433 654 398 673T306 692Q271 692 241 683T192 650T173 584V0H85V584Q85 651 114 690T193 747T306 765Q371 765
419 749T495 700T522 617Z" />
<glyph unicode="&#xe0;" horiz-adv-x="561" d="M288 545Q386 545 433 502T480 365V0H416L399 76H395Q372 47 348 28T292 -1T215 -10Q167 -10 129 7T68 59T46 149Q46 229 109 272T303 320L394 323V355Q394 422 365 448T283 474Q241 474 203 462T132 433L105 499Q140
518 188 531T288 545ZM314 259Q214 255 176 227T137 148Q137 103 164 82T235 61Q303 61 348 98T393 214V262L314 259ZM256 766Q267 744 283 717T318 663T352 618V606H293Q276 620 255 639T214 680T177 722T151 756V766H256Z" />
<glyph unicode="&#xe1;" horiz-adv-x="561" d="M288 545Q386 545 433 502T480 365V0H416L399 76H395Q372 47 348 28T292 -1T215 -10Q167 -10 129 7T68 59T46 149Q46 229 109 272T303 320L394 323V355Q394 422 365 448T283 474Q241 474 203 462T132 433L105 499Q140
518 188 531T288 545ZM314 259Q214 255 176 227T137 148Q137 103 164 82T235 61Q303 61 348 98T393 214V262L314 259ZM429 756Q420 742 403 722T366 681T325 640T286 606H228V618Q243 637 260 663T295 716T323 766H429V756Z" />
<glyph unicode="&#xe2;" horiz-adv-x="561" d="M288 545Q386 545 433 502T480 365V0H416L399 76H395Q372 47 348 28T292 -1T215 -10Q167 -10 129 7T68 59T46 149Q46 229 109 272T303 320L394 323V355Q394 422 365 448T283 474Q241 474 203 462T132 433L105 499Q140
518 188 531T288 545ZM314 259Q214 255 176 227T137 148Q137 103 164 82T235 61Q303 61 348 98T393 214V262L314 259ZM325 766Q337 744 359 717T406 663T450 617V606H388Q362 622 334 645T279 696Q252 669 225 646T172 606H112V617Q131 637 154 663T200 716T235
766H325Z" />
<glyph unicode="&#xe3;" horiz-adv-x="561" d="M288 545Q386 545 433 502T480 365V0H416L399 76H395Q372 47 348 28T292 -1T215 -10Q167 -10 129 7T68 59T46 149Q46 229 109 272T303 320L394 323V355Q394 422 365 448T283 474Q241 474 203 462T132 433L105 499Q140
518 188 531T288 545ZM314 259Q214 255 176 227T137 148Q137 103 164 82T235 61Q303 61 348 98T393 214V262L314 259ZM98 606Q101 636 109 659T132 699T165 725T208 734Q230 734 250 726T290 706T326 686T360 677Q383 677 395 691T415 735H465Q459 677 431 642T356
607Q335 607 315 615T276 635T239 655T204 664Q180 664 168 650T149 606H98Z" />
<glyph unicode="&#xe4;" horiz-adv-x="561" d="M288 545Q386 545 433 502T480 365V0H416L399 76H395Q372 47 348 28T292 -1T215 -10Q167 -10 129 7T68 59T46 149Q46 229 109 272T303 320L394 323V355Q394 422 365 448T283 474Q241 474 203 462T132 433L105 499Q140
518 188 531T288 545ZM314 259Q214 255 176 227T137 148Q137 103 164 82T235 61Q303 61 348 98T393 214V262L314 259ZM397 681Q397 707 411 718T444 730Q463 730 477 719T491 681Q491 656 477 644T444 631Q425 631 411 643T397 681ZM585 681Q585 707 598 718T631
730Q650 730 664 719T678 681Q678 656 664 644T631 631Q612 631 599 643T585 681Z" />
<glyph unicode="&#xe5;" horiz-adv-x="561" d="M288 545Q386 545 433 502T480 365V0H416L399 76H395Q372 47 348 28T292 -1T215 -10Q167 -10 129 7T68 59T46 149Q46 229 109 272T303 320L394 323V355Q394 422 365 448T283 474Q241 474 203 462T132 433L105 499Q140
518 188 531T288 545ZM314 259Q214 255 176 227T137 148Q137 103 164 82T235 61Q303 61 348 98T393 214V262L314 259ZM280 606Q231 606 201 634T171 712Q171 762 201 789T280 817Q327 817 359 790T391 713Q391 662 360 634T280 606ZM280 656Q305 656 320 671T336
712Q336 738 320 753T280 768Q256 768 240 753T224 712Q224 686 238 671T280 656Z" />
<glyph unicode="&#xe6;" horiz-adv-x="864" d="M603 546Q668 546 715 516T787 432T813 306V252H470Q472 156 511 111T625 65Q675 65 713 74T789 102V25Q749 7 711 -1T622 -10Q576 -10 538 2T470 40T419 103Q396 69 369 44T305 4T216 -10Q168 -10 130 7T69 59T46
149Q46 203 72 240T153 297T290 320L380 323V357Q380 422 350 448T268 474Q228 474 190 462T118 433L91 499Q126 519 176 532T275 545Q337 545 377 525T439 459Q465 500 507 523T603 546ZM303 259Q209 255 173 227T137 148Q137 103 162 82T230 61Q272 61 305 77T358
128T378 214V262L303 259ZM602 474Q544 474 511 435T472 321H720Q720 367 708 401T669 455T602 474Z" />
<glyph unicode="&#xe7;" horiz-adv-x="480" d="M300 -10Q229 -10 174 19T87 109T55 265Q55 364 88 426T177 517T306 546Q347 546 385 538T447 517L420 444Q396 453 364 461T304 469Q250 469 215 446T163 378T146 266Q146 202 163 157T214 89T299 66Q343 66 376
75T438 97V19Q411 5 379 -2T300 -10ZM382 -139Q382 -187 345 -213T234 -240Q219 -240 206 -239T184 -235V-180Q193 -182 208 -183T237 -185Q273 -185 292 -176T311 -141Q311 -115 285 -103T220 -86L263 0H321L295 -53Q319 -58 339 -68T370 -96T382 -139Z" />
<glyph unicode="&#xe8;" horiz-adv-x="564" d="M292 546Q361 546 410 516T486 432T513 304V251H146Q148 160 192 113T317 65Q368 65 407 74T489 102V25Q448 7 408 -1T313 -10Q237 -10 179 21T88 113T55 264Q55 352 84 415T167 512T292 546ZM291 474Q228 474 192
434T148 321H421Q421 367 407 401T365 454T291 474ZM260 766Q271 744 287 717T322 663T356 618V606H297Q280 620 259 639T218 680T181 722T155 756V766H260Z" />
<glyph unicode="&#xe9;" horiz-adv-x="564" d="M292 546Q361 546 410 516T486 432T513 304V251H146Q148 160 192 113T317 65Q368 65 407 74T489 102V25Q448 7 408 -1T313 -10Q237 -10 179 21T88 113T55 264Q55 352 84 415T167 512T292 546ZM291 474Q228 474 192
434T148 321H421Q421 367 407 401T365 454T291 474ZM433 756Q424 742 407 722T370 681T329 640T290 606H232V618Q247 637 264 663T299 716T327 766H433V756Z" />
<glyph unicode="&#xea;" horiz-adv-x="564" d="M292 546Q361 546 410 516T486 432T513 304V251H146Q148 160 192 113T317 65Q368 65 407 74T489 102V25Q448 7 408 -1T313 -10Q237 -10 179 21T88 113T55 264Q55 352 84 415T167 512T292 546ZM291 474Q228 474 192
434T148 321H421Q421 367 407 401T365 454T291 474ZM329 766Q341 744 363 717T410 663T454 617V606H392Q366 622 338 645T283 696Q256 669 229 646T176 606H116V617Q135 637 158 663T204 716T239 766H329Z" />
<glyph unicode="&#xeb;" horiz-adv-x="564" d="M292 546Q361 546 410 516T486 432T513 304V251H146Q148 160 192 113T317 65Q368 65 407 74T489 102V25Q448 7 408 -1T313 -10Q237 -10 179 21T88 113T55 264Q55 352 84 415T167 512T292 546ZM291 474Q228 474 192
434T148 321H421Q421 367 407 401T365 454T291 474ZM401 681Q401 707 415 718T448 730Q467 730 481 719T495 681Q495 656 481 644T448 631Q429 631 415 643T401 681ZM589 681Q589 707 602 718T635 730Q654 730 668 719T682 681Q682 656 668 644T635 631Q616 631
603 643T589 681Z" />
<glyph unicode="&#xec;" horiz-adv-x="258" d="M173 0H85V536H173V0ZM360 766Q371 744 387 717T422 663T456 618V606H397Q380 620 359 639T318 680T281 722T255 756V766H360Z" />
<glyph unicode="&#xed;" horiz-adv-x="258" d="M173 0H85V536H173V0ZM277 756Q268 742 251 722T214 681T173 640T134 606H76V618Q91 637 108 663T143 716T171 766H277V756Z" />
<glyph unicode="&#xee;" horiz-adv-x="258" d="M173 0H85V536H173V0ZM429 766Q441 744 463 717T510 663T554 617V606H492Q466 622 438 645T383 696Q356 669 329 646T276 606H216V617Q235 637 258 663T304 716T339 766H429Z" />
<glyph unicode="&#xef;" horiz-adv-x="258" d="M173 0H85V536H173V0ZM-11 681Q-11 707 3 718T36 730Q55 730 69 719T83 681Q83 656 69 644T36 631Q17 631 3 643T-11 681ZM177 681Q177 707 190 718T223 730Q242 730 256 719T270 681Q270 656 256 644T223 631Q204
631 191 643T177 681Z" />
<glyph unicode="&#xf0;" horiz-adv-x="605" d="M216 765Q248 750 280 732T342 693L457 760L495 706L396 649Q442 607 476 551T531 425T551 275Q551 180 521 117T435 22T301 -10Q229 -10 174 19T87 103T55 233Q55 308 84 361T165 444T290 473Q325 473 354 467T407
448T446 415L450 417Q434 474 401 522T326 608L196 533L158 588L270 652Q249 666 226 679T180 705L216 765ZM303 402Q247 402 212 382T161 324T144 230Q144 181 160 143T212 84T303 62Q386 62 424 110T462 251Q462 282 453 309T423 357T374 390T303 402Z" />
<glyph unicode="&#xf1;" horiz-adv-x="618" d="M343 546Q439 546 488 500T537 349V0H450V343Q450 408 421 440T330 472Q241 472 207 422T173 278V0H85V536H156L169 463H174Q192 491 218 509T277 537T343 546ZM126 606Q129 636 137 659T160 699T193 725T236 734Q258
734 278 726T318 706T354 686T388 677Q411 677 423 691T443 735H493Q487 677 459 642T384 607Q363 607 343 615T304 635T267 655T232 664Q208 664 196 650T177 606H126Z" />
<glyph unicode="&#xf2;" horiz-adv-x="605" d="M551 269Q551 202 534 151T484 63T405 9T301 -10Q248 -10 203 8T125 63T74 150T55 269Q55 358 85 419T171 513T304 546Q377 546 432 514T519 420T551 269ZM146 269Q146 206 162 160T214 88T303 63Q357 63 392 88T443
159T460 269Q460 333 443 378T392 447T302 472Q220 472 183 418T146 269ZM278 766Q289 744 305 717T340 663T374 618V606H315Q298 620 277 639T236 680T199 722T173 756V766H278Z" />
<glyph unicode="&#xf3;" horiz-adv-x="605" d="M551 269Q551 202 534 151T484 63T405 9T301 -10Q248 -10 203 8T125 63T74 150T55 269Q55 358 85 419T171 513T304 546Q377 546 432 514T519 420T551 269ZM146 269Q146 206 162 160T214 88T303 63Q357 63 392 88T443
159T460 269Q460 333 443 378T392 447T302 472Q220 472 183 418T146 269ZM451 756Q442 742 425 722T388 681T347 640T308 606H250V618Q265 637 282 663T317 716T345 766H451V756Z" />
<glyph unicode="&#xf4;" horiz-adv-x="605" d="M551 269Q551 202 534 151T484 63T405 9T301 -10Q248 -10 203 8T125 63T74 150T55 269Q55 358 85 419T171 513T304 546Q377 546 432 514T519 420T551 269ZM146 269Q146 206 162 160T214 88T303 63Q357 63 392 88T443
159T460 269Q460 333 443 378T392 447T302 472Q220 472 183 418T146 269ZM347 766Q359 744 381 717T428 663T472 617V606H410Q384 622 356 645T301 696Q274 669 247 646T194 606H134V617Q153 637 176 663T222 716T257 766H347Z" />
<glyph unicode="&#xf5;" horiz-adv-x="605" d="M551 269Q551 202 534 151T484 63T405 9T301 -10Q248 -10 203 8T125 63T74 150T55 269Q55 358 85 419T171 513T304 546Q377 546 432 514T519 420T551 269ZM146 269Q146 206 162 160T214 88T303 63Q357 63 392 88T443
159T460 269Q460 333 443 378T392 447T302 472Q220 472 183 418T146 269ZM120 606Q123 636 131 659T154 699T187 725T230 734Q252 734 272 726T312 706T348 686T382 677Q405 677 417 691T437 735H487Q481 677 453 642T378 607Q357 607 337 615T298 635T261 655T226
664Q202 664 190 650T171 606H120Z" />
<glyph unicode="&#xf6;" horiz-adv-x="605" d="M551 269Q551 202 534 151T484 63T405 9T301 -10Q248 -10 203 8T125 63T74 150T55 269Q55 358 85 419T171 513T304 546Q377 546 432 514T519 420T551 269ZM146 269Q146 206 162 160T214 88T303 63Q357 63 392 88T443
159T460 269Q460 333 443 378T392 447T302 472Q220 472 183 418T146 269ZM163 681Q163 707 177 718T210 730Q229 730 243 719T257 681Q257 656 243 644T210 631Q191 631 177 643T163 681ZM351 681Q351 707 364 718T397 730Q416 730 430 719T444 681Q444 656 430
644T397 631Q378 631 365 643T351 681Z" />
<glyph unicode="&#xf7;" horiz-adv-x="572" d="M50 317V388H521V317H50ZM285 121Q262 121 246 135T229 182Q229 216 245 229T285 242Q308 242 324 229T340 182Q340 150 324 136T285 121ZM285 462Q262 462 246 476T229 523Q229 557 245 570T285 583Q308 583 324
570T340 523Q340 491 324 477T285 462Z" />
<glyph unicode="&#xf8;" horiz-adv-x="605" d="M551 269Q551 180 521 118T434 23T301 -10Q264 -10 232 -2T172 23L132 -33L74 6L119 68Q88 104 72 154T55 269Q55 402 122 474T304 546Q341 546 374 537T435 510L474 566L533 528L488 465Q517 430 534 381T551 269ZM146
269Q146 231 151 199T170 141L390 447Q373 459 351 465T302 472Q220 472 183 418T146 269ZM460 269Q460 306 454 337T437 392L217 86Q234 75 256 69T303 63Q357 63 392 88T443 159T460 269Z" />
<glyph unicode="&#xf9;" horiz-adv-x="618" d="M533 536V0H461L448 71H444Q427 43 400 25T341 -1T274 -10Q210 -10 167 10T101 74T79 185V536H168V191Q168 127 197 95T287 63Q347 63 381 85T430 151T445 257V536H533ZM284 766Q295 744 311 717T346 663T380 618V606H321Q304
620 283 639T242 680T205 722T179 756V766H284Z" />
<glyph unicode="&#xfa;" horiz-adv-x="618" d="M533 536V0H461L448 71H444Q427 43 400 25T341 -1T274 -10Q210 -10 167 10T101 74T79 185V536H168V191Q168 127 197 95T287 63Q347 63 381 85T430 151T445 257V536H533ZM457 756Q448 742 431 722T394 681T353 640T314
606H256V618Q271 637 288 663T323 716T351 766H457V756Z" />
<glyph unicode="&#xfb;" horiz-adv-x="618" d="M533 536V0H461L448 71H444Q427 43 400 25T341 -1T274 -10Q210 -10 167 10T101 74T79 185V536H168V191Q168 127 197 95T287 63Q347 63 381 85T430 151T445 257V536H533ZM353 766Q365 744 387 717T434 663T478 617V606H416Q390
622 362 645T307 696Q280 669 253 646T200 606H140V617Q159 637 182 663T228 716T263 766H353Z" />
<glyph unicode="&#xfc;" horiz-adv-x="618" d="M533 536V0H461L448 71H444Q427 43 400 25T341 -1T274 -10Q210 -10 167 10T101 74T79 185V536H168V191Q168 127 197 95T287 63Q347 63 381 85T430 151T445 257V536H533ZM169 681Q169 707 183 718T216 730Q235 730
249 719T263 681Q263 656 249 644T216 631Q197 631 183 643T169 681ZM357 681Q357 707 370 718T403 730Q422 730 436 719T450 681Q450 656 436 644T403 631Q384 631 371 643T357 681Z" />
<glyph unicode="&#xfd;" horiz-adv-x="510" d="M1 536H95L211 231Q221 204 229 179T245 131T256 85H260Q266 110 279 150T306 232L415 536H510L279 -74Q260 -124 235 -161T173 -219T84 -240Q60 -240 42 -238T11 -232V-162Q22 -164 37 -166T70 -168Q101 -168 123
-157T162 -124T189 -73L217 -2L1 536ZM403 756Q394 742 377 722T340 681T299 640T260 606H202V618Q217 637 234 663T269 716T297 766H403V756Z" />
<glyph unicode="&#xfe;" horiz-adv-x="615" d="M560 269Q560 178 533 116T456 22T340 -10Q298 -10 267 0T212 29T173 68H167Q168 61 169 45T172 12T173 -16V-240H85V760H173V536Q173 522 172 500T170 464H174Q190 487 212 505T266 535T340 546Q439 546 499 476T560
269ZM469 270Q469 371 434 421T325 472Q243 472 209 426T173 288V269Q173 170 205 117T326 63Q375 63 406 87T453 157T469 270Z" />
<glyph unicode="&#xff;" horiz-adv-x="510" d="M1 536H95L211 231Q221 204 229 179T245 131T256 85H260Q266 110 279 150T306 232L415 536H510L279 -74Q260 -124 235 -161T173 -219T84 -240Q60 -240 42 -238T11 -232V-162Q22 -164 37 -166T70 -168Q101 -168 123
-157T162 -124T189 -73L217 -2L1 536ZM371 681Q371 707 385 718T418 730Q437 730 451 719T465 681Q465 656 451 644T418 631Q399 631 385 643T371 681ZM559 681Q559 707 572 718T605 730Q624 730 638 719T652 681Q652 656 638 644T605 631Q586 631 573 643T559
681Z" />
<glyph unicode="&#x2013;" horiz-adv-x="500" d="M40 229V307H460V229H40Z" />
<glyph unicode="&#x2014;" horiz-adv-x="1000" d="M40 229V307H960V229H40Z" />
<glyph unicode="&#x2018;" horiz-adv-x="175" d="M12 480Q21 515 35 556T65 638T98 714H163Q154 676 144 633T126 547T113 469H18L12 480Z" />
<glyph unicode="&#x2019;" horiz-adv-x="175" d="M163 703Q154 668 140 627T110 546T77 469H12Q19 497 26 529T40 593T52 657T62 714H156L163 703Z" />
<glyph unicode="&#x201a;" horiz-adv-x="250" d="M182 105Q173 70 159 29T129 -52T96 -129H31Q38 -101 45 -69T59 -5T71 59T81 116H175L182 105Z" />
<glyph unicode="&#x201c;" horiz-adv-x="359" d="M347 714Q338 676 328 632T310 546T297 469H202L195 480Q204 515 218 555T249 637T282 714H347ZM162 714Q153 676 143 632T125 546T112 469H18L12 480Q21 515 35 555T65 637T98 714H162Z" />
<glyph unicode="&#x201d;" horiz-adv-x="359" d="M347 703Q338 668 324 627T294 546T261 469H195Q205 507 214 550T232 636T246 714H340L347 703ZM162 703Q153 668 139 627T109 546T76 469H12Q19 497 26 529T39 593T51 657T61 714H155L162 703Z" />
<glyph unicode="&#x201e;" horiz-adv-x="416" d="M366 105Q357 70 343 29T313 -52T280 -129H214Q224 -91 233 -48T251 38T265 116H359L366 105ZM181 105Q172 70 158 29T128 -52T95 -129H31Q38 -101 45 -69T58 -5T70 59T80 116H174L181 105Z" />
<glyph unicode="&#x2022;" horiz-adv-x="376" d="M77 365Q77 410 91 437T131 477T188 489Q219 489 244 477T284 438T299 365Q299 321 284 294T244 254T188 241Q157 241 132 253T92 293T77 365Z" />
<glyph unicode="&#x2039;" horiz-adv-x="310" d="M40 270L208 471L271 435L131 264L271 93L208 56L40 257V270Z" />
<glyph unicode="&#x203a;" horiz-adv-x="310" d="M101 471L270 270V257L101 56L39 93L179 264L39 435L101 471Z" />
</font>
</defs>
</svg>
