<?xml version="1.0" standalone="no"?>
<!DOCTYPE svg PUBLIC "-//W3C//DTD SVG 1.1//EN" "http://www.w3.org/Graphics/SVG/1.1/DTD/svg11.dtd">
<svg xmlns="http://www.w3.org/2000/svg">
<defs >
<font id="Signika" horiz-adv-x="1241" ><font-face
    font-family="Signika Light Medium"
    units-per-em="2000"
    panose-1="0 0 0 0 0 0 0 0 0 0"
    ascent="1880"
    descent="-584"
    alphabetic="0" />
<glyph unicode=" " horiz-adv-x="440" />
<glyph unicode="!" horiz-adv-x="585" d="M204 395Q192 593 178 790T164 1186V1365Q196 1374 244 1377T341 1377T421 1364V1183Q421 986 406 789T380 395Q358 388 335 386T292 383Q274 383 250 385T204 395ZM292 231Q325 231 357 224T412 205Q420 190 425 159T430
105Q430 84 425 54T412 8Q390 -4 358 -11T292 -18Q259 -18 227 -11T172 8Q164 23 159 53T154 105Q154 128 159 159T172 205Q194 217 226 224T292 231Z" />
<glyph unicode="&quot;" horiz-adv-x="795" d="M464 1413Q464 1439 467 1463T477 1513Q498 1526 524 1533T584 1541Q615 1541 642 1534T691 1513Q697 1488 700 1464T703 1413Q703 1395 694 1330T671 1173T641 984Q622 972 585 972T527 984Q511 1082 497 1173T473
1330T464 1413ZM91 1413Q91 1439 94 1463T104 1513Q125 1526 151 1533T211 1541Q242 1541 269 1534T318 1513Q324 1488 327 1464T330 1413Q330 1395 321 1330T298 1173T268 984Q249 972 212 972T154 984Q138 1082 124 1173T100 1330T91 1413Z" />
<glyph unicode="#" horiz-adv-x="1320" d="M191 26Q209 18 236 14T292 9Q321 9 349 13T395 26L677 1282Q660 1291 633 1294T576 1298Q547 1298 520 1295T473 1282L191 26ZM643 26Q660 18 687 14T744 9Q773 9 800 13T847 26L1128 1282Q1111 1291 1084 1294T1027
1298Q999 1298 972 1295T924 1282L643 26ZM1167 300Q1181 341 1181 393Q1181 447 1167 487H56Q41 450 41 393Q41 338 56 300H1167ZM1264 822Q1278 862 1278 916Q1278 969 1264 1008H153Q139 971 139 916Q139 860 153 822H1264Z" />
<glyph unicode="$" horiz-adv-x="1080" d="M536 52Q452 52 371 70T224 118T114 176Q115 207 127 242T160 307T203 351Q271 306 360 273T533 240Q612 239 662 273T714 369Q715 419 684 459T581 524L393 592Q285 631 217 703T149 887Q149 985 198 1060T333 1178T530
1221Q649 1221 745 1195T916 1129Q916 1082 894 1033T836 953Q766 990 693 1011T550 1032Q474 1032 429 1000T384 911Q384 857 420 830T514 780L694 715Q811 672 881 591T951 380Q951 284 900 210T756 94T536 52ZM524 -125Q499 -125 476 -123T435 -117V119H612V-117Q595
-121 572 -123T524 -125ZM455 1148V1389Q474 1393 497 1395T543 1398Q566 1398 590 1396T632 1389V1148H455Z" />
<glyph unicode="%" horiz-adv-x="1847" d="M1431 -25Q1314 -25 1244 28T1142 175T1110 391Q1110 576 1184 690T1431 804Q1547 804 1618 752T1720 607T1752 391Q1752 205 1679 90T1431 -25ZM415 462Q299 462 229 515T127 662T95 878Q95 1001 127 1094T229 1239T415
1291Q532 1291 602 1239T705 1094T737 878Q737 692 664 577T415 462ZM417 609Q470 609 498 646T535 745T545 878Q545 949 536 1009T498 1107T417 1145Q363 1145 335 1108T297 1010T287 878Q287 807 297 746T335 647T417 609ZM1432 123Q1486 123 1513 160T1550 259T1560
391Q1560 462 1551 522T1514 620T1432 657Q1378 657 1350 620T1312 523T1302 391Q1302 320 1312 259T1350 161T1432 123ZM1169 1281Q1198 1289 1243 1291T1330 1291T1391 1281L685 0Q656 -8 611 -10T525 -10T462 0L1169 1281Z" />
<glyph unicode="&amp;" horiz-adv-x="1258" d="M1005 820Q1060 820 1112 828T1200 853Q1215 835 1222 805T1230 744Q1230 679 1187 652T1072 625H612Q516 625 456 590T367 497T338 375Q338 269 393 213T538 156Q617 156 683 184T789 247V500Q789 545 791 610T797
730H1008Q1012 675 1014 610T1016 501V307Q1016 238 1019 153T1028 0Q1008 -6 981 -9T922 -13Q892 -13 864 -10T816 -2L799 80Q736 32 653 3T481 -26Q355 -26 269 25T140 163T96 359Q96 472 147 558T278 694T443 745V716Q364 718 298 761T193 875T154 1035Q154
1136 204 1217T349 1345T576 1392Q681 1392 782 1375T954 1333Q956 1288 940 1238T894 1155Q827 1176 755 1192T602 1208Q503 1208 450 1154T396 1018Q396 927 453 874T633 820H1005Z" />
<glyph unicode="&apos;" horiz-adv-x="421" d="M91 1413Q91 1439 94 1463T104 1513Q125 1526 151 1533T211 1541Q242 1541 269 1534T318 1513Q324 1488 327 1464T330 1413Q330 1395 321 1330T298 1173T268 984Q249 972 212 972T154 984Q138 1082 124 1173T100
1330T91 1413Z" />
<glyph unicode="(" horiz-adv-x="681" d="M366 549Q366 396 396 239T488 -67T648 -345Q626 -393 590 -423T513 -467Q386 -343 299 -173T168 185T123 549Q123 725 167 912T299 1270T513 1564Q554 1551 590 1521T648 1441Q551 1313 489 1165T396 859T366 549Z" />
<glyph unicode=")" horiz-adv-x="681" d="M168 -467Q128 -454 92 -424T33 -345Q131 -216 193 -67T284 239T314 549Q314 702 285 859T193 1164T33 1441Q55 1490 91 1520T168 1564Q295 1441 382 1271T513 913T558 549Q558 373 514 185T382 -173T168 -467Z" />
<glyph unicode="*" horiz-adv-x="1015" d="M410 1461Q433 1471 470 1474T544 1474T605 1461L602 1346Q602 1278 583 1206T548 1072Q529 1050 508 1050Q484 1050 467 1072Q450 1134 432 1206T413 1346L410 1461ZM86 1084Q84 1109 92 1145T115 1215T146 1269L254
1231Q319 1209 381 1169T499 1095Q516 1069 508 1050Q504 1039 496 1031T473 1019Q409 1022 335 1026T196 1052L86 1084ZM344 660Q319 666 288 684T229 727T187 774L255 865Q297 920 354 967T461 1055Q489 1062 508 1050Q528 1035 527 1008Q504 947 477 879T408
754L344 660ZM827 773Q815 752 788 728T729 685T670 659L606 754Q566 810 539 879T488 1007Q489 1037 508 1050Q517 1056 528 1058T553 1055Q604 1015 660 967T759 864L827 773ZM869 1267Q885 1250 899 1217T923 1147T930 1084L819 1050Q754 1031 680 1027T543
1019Q529 1024 521 1031T508 1050Q499 1069 516 1094Q571 1130 633 1169T761 1230L869 1267Z" />
<glyph unicode="+" horiz-adv-x="1080" d="M121 725Q112 681 112 629Q112 575 121 534H335Q363 534 392 535T448 536H632Q659 536 688 535T745 534H959Q968 577 968 629Q968 657 966 679T959 725H745Q718 725 689 724T632 723H448Q421 723 392 724T335 725H121ZM438
830Q438 802 439 773T440 716V544Q440 516 439 488T438 431V199Q463 194 488 193T542 191Q568 191 593 192T642 199V431Q642 459 641 487T640 544V716Q640 744 641 773T642 830V1061Q618 1066 592 1067T540 1069Q512 1069 488 1068T438 1061V830Z" />
<glyph unicode="," horiz-adv-x="548" d="M405 217Q417 188 422 153T428 80Q428 -6 394 -87T291 -232T120 -330Q90 -315 75 -283T62 -218Q132 -189 179 -136T232 -17Q211 -13 188 -6T150 11Q142 26 137 56T131 111Q131 138 136 170T150 217Q170 229 208 237T279
246Q311 246 348 239T405 217Z" />
<glyph unicode="-" horiz-adv-x="710" d="M100 438Q95 461 93 487T91 534Q91 555 93 581T100 631H609Q616 608 618 582T620 534Q620 514 618 488T609 438H100Z" />
<glyph unicode="." horiz-adv-x="535" d="M118 114Q118 132 123 165T138 218Q160 231 197 239T267 247Q299 247 337 239T397 218Q408 199 412 166T417 114Q417 96 413 64T397 11Q377 -2 338 -9T267 -17Q234 -17 197 -10T138 11Q128 31 123 63T118 114Z" />
<glyph unicode="/" horiz-adv-x="856" d="M643 1425Q692 1421 745 1402T839 1351L208 -325Q159 -321 107 -303T12 -251L643 1425Z" />
<glyph unicode="0" horiz-adv-x="1080" d="M95 633Q95 812 122 946T241 1177Q294 1230 364 1261T541 1292Q649 1292 717 1261T839 1177Q931 1080 958 946T985 633Q985 454 958 321T839 89Q786 37 717 6T540 -26Q433 -26 364 5T241 89Q150 187 123 320T95 633ZM333
633Q333 472 348 373T402 222Q424 186 459 169T540 151Q586 151 621 168T678 222Q715 274 731 373T747 633Q747 795 731 893T678 1044Q656 1080 621 1097T540 1115Q495 1115 460 1098T402 1044Q365 992 349 894T333 633Z" />
<glyph unicode="1" horiz-adv-x="1080" d="M709 325Q709 285 708 248T707 168V91H488V168Q488 210 487 247T486 325V712Q486 747 489 808T495 931T498 1032L493 1266Q522 1272 549 1274T601 1276Q626 1276 653 1274T709 1266V325ZM370 190Q391 190 431 189T492
188H703Q725 188 766 189T828 190H960Q970 143 970 95Q970 50 960 0H191Q186 23 183 47T180 95Q180 145 191 190H370ZM115 878Q262 969 355 1069T493 1266L576 1086Q549 1011 491 945T358 827T212 743Q177 762 151 798T115 878Z" />
<glyph unicode="2" horiz-adv-x="1080" d="M126 992Q154 1073 210 1141T349 1251T536 1292Q658 1292 746 1245T883 1112T932 916Q932 822 898 752T807 624T685 511L534 388Q481 344 438 301T367 222T339 161L334 -1H198Q165 35 138 71T111 152Q111 209 145 269T236
391T357 507L557 677Q622 732 660 788T698 919Q698 1003 647 1054T515 1105Q434 1105 376 1050T289 917Q247 919 198 938T126 992ZM964 198Q964 83 931 41T815 -1H214L149 144Q212 164 299 175T472 192T616 198H964Z" />
<glyph unicode="3" horiz-adv-x="1080" d="M730 404Q730 505 671 559T514 614Q482 614 447 606T384 583Q353 599 328 634T294 706Q350 731 419 748T577 765Q683 765 771 725T913 603T966 396Q966 290 928 211T824 79T676 0T507 -26Q377 -26 273 12T102 107Q110
148 138 190T201 260Q258 217 327 188T477 159Q549 159 606 187T697 270T730 404ZM672 824Q638 788 592 756T501 699T423 658L294 706L531 951Q547 967 572 992T623 1041T667 1080L660 1090Q636 1084 599 1080T519 1073T436 1070H161Q152 1095 150 1117T147 1155Q147
1179 151 1208T167 1266H869Q895 1217 906 1182T918 1124Q918 1074 871 1024L672 824Z" />
<glyph unicode="4" horiz-adv-x="1080" d="M131 265Q109 299 95 336T80 405Q80 429 92 462T119 530L458 1278Q490 1286 532 1282T611 1266T669 1235L457 770Q438 727 411 668T355 551T299 455L304 447Q343 450 390 452T479 455T540 456H811Q837 456 858 457T907
458H1003Q1007 436 1007 415T1008 372Q1008 351 1005 322T994 267H907Q880 267 859 267T811 268H593Q565 268 536 267T478 265H131ZM591 153Q591 181 592 211T593 268V431Q593 443 592 472T591 516V654Q591 737 631 784T743 831H802L813 820V570Q813 543 812 513T811
456V268Q811 241 812 211T813 153V0Q785 -5 757 -6T700 -8Q674 -8 646 -7T591 0V153Z" />
<glyph unicode="5" horiz-adv-x="1080" d="M393 860Q391 820 384 778T364 698Q320 682 269 673T161 660L192 1252L393 1219Q397 1191 399 1145T402 1053T401 982L393 860ZM114 103Q121 138 148 184T210 254Q271 212 335 186T479 160Q543 160 599 188T689 275T724
424Q724 514 689 566T599 641T488 664Q432 664 377 643T273 581Q242 587 210 610T161 660Q201 702 259 744T391 815T550 843Q738 843 849 734T960 436Q960 277 893 175T719 23T495 -26Q377 -26 279 10T114 103ZM892 1266Q902 1240 905 1215T909 1172Q909 1072 808
1072H467Q416 1072 363 1074T266 1078T199 1084L192 1252L206 1266H892Z" />
<glyph unicode="6" horiz-adv-x="1080" d="M553 -26Q462 -26 400 -3T299 52T242 106Q228 123 205 155T159 246T119 397T103 631Q103 834 163 982T339 1211T625 1292Q713 1292 790 1276T921 1228Q918 1184 898 1139T842 1068Q803 1085 753 1098T640 1111Q532 1111
467 1058T371 913T341 705V526Q341 472 349 414T374 304T418 216Q441 187 475 168T556 148Q655 148 705 220T755 408Q755 501 730 555T662 634T563 658Q512 658 460 637T361 576T281 482L237 604Q267 668 323 723T456 812T622 847Q784 847 884 744T985 422Q985
286 929 185T775 29T553 -26Z" />
<glyph unicode="7" horiz-adv-x="1080" d="M942 1266Q957 1234 970 1194T983 1124Q983 1104 975 1080T945 1026Q847 896 778 782T661 556T587 329T547 76L540 0Q517 -5 487 -7T423 -10Q393 -10 362 -8T305 0L313 85Q331 266 391 447T547 792T767 1081L760 1090Q738
1084 697 1081T608 1075T521 1071T460 1070H135Q129 1088 126 1109T123 1150Q123 1180 129 1210T144 1266H942Z" />
<glyph unicode="8" horiz-adv-x="1080" d="M91 319Q91 412 138 488T258 617T412 696L577 631Q448 588 386 507T324 335Q324 273 352 229T429 161T538 137Q600 137 648 161T725 231T754 336Q754 398 722 443T638 521T522 573L484 586Q379 622 298 671T172 789T126
955Q126 1053 180 1129T328 1248T539 1292Q663 1292 755 1251T900 1135T953 964Q953 883 913 819T808 711T670 645L512 711Q615 743 671 808T728 954Q728 1033 674 1079T539 1126Q461 1126 407 1080T353 957Q353 881 412 834T571 758L608 746Q715 712 801 658T938
524T989 334Q989 221 926 141T759 17T530 -26Q333 -26 212 64T91 319Z" />
<glyph unicode="9" horiz-adv-x="1080" d="M527 1292Q619 1292 681 1269T782 1214T838 1160Q852 1143 875 1111T921 1020T961 869T977 635Q977 432 917 284T741 55T455 -26Q367 -26 290 -9T159 38Q162 82 182 127T238 198Q277 182 327 169T440 156Q548 156 613
209T709 354T739 561V740Q739 794 732 852T707 963T662 1050Q639 1079 605 1098T524 1118Q425 1118 375 1047T325 858Q325 765 350 711T418 632T517 608Q569 608 621 630T719 691T799 784L843 662Q813 599 757 544T624 454T459 420Q296 420 196 522T95 844Q95 980
151 1081T305 1237T527 1292Z" />
<glyph unicode=":" horiz-adv-x="548" d="M124 114Q124 132 129 165T144 218Q166 231 203 239T273 247Q305 247 343 239T403 218Q414 199 418 166T423 114Q423 96 419 64T403 11Q383 -2 344 -9T273 -17Q240 -17 203 -10T144 11Q134 31 129 63T124 114ZM124 764Q124
782 129 815T144 868Q166 881 203 889T273 897Q305 897 343 889T403 868Q414 849 418 816T423 764Q423 746 419 714T403 661Q383 648 344 641T273 633Q240 633 203 640T144 661Q134 681 129 713T124 764Z" />
<glyph unicode=";" horiz-adv-x="556" d="M659 217Q671 188 676 153T682 80Q682 -6 648 -87T545 -232T374 -330Q344 -315 329 -283T316 -218Q386 -189 433 -136T486 -17Q465 -13 442 -6T404 11Q396 26 391 56T385 111Q385 138 390 170T404 217Q424 229 462 237T533
246Q565 246 602 239T659 217ZM128 764Q128 782 133 815T148 868Q170 881 207 889T277 897Q309 897 347 889T407 868Q418 849 422 816T427 764Q427 746 423 714T407 661Q387 648 348 641T277 633Q244 633 207 640T148 661Q138 681 133 713T128 764Z" />
<glyph unicode="&lt;" horiz-adv-x="1080" d="M850 1119Q891 1095 921 1047T954 941L501 705Q473 690 424 668T349 635V621Q375 611 424 590T501 553L954 315Q949 260 919 210T849 136L117 538Q106 578 105 627T117 717L850 1119Z" />
<glyph unicode="=" horiz-adv-x="1080" d="M121 336Q116 359 114 385T112 432Q112 453 114 479T121 529H959Q964 505 966 479T968 432Q968 412 966 386T959 336H121ZM121 735Q116 758 114 784T112 830Q112 851 114 877T121 928H959Q964 904 966 878T968 830Q968
810 966 784T959 735H121Z" />
<glyph unicode="&gt;" horiz-adv-x="1080" d="M231 139Q190 163 160 211T126 316L579 554Q608 569 656 591T731 623V636Q705 647 657 669T579 705L126 942Q131 999 161 1048T232 1122L964 719Q974 680 975 631T964 540L231 139Z" />
<glyph unicode="?" horiz-adv-x="801" d="M21 1288Q103 1334 202 1363T409 1393Q586 1393 687 1298T789 1047Q789 906 714 812T528 658L404 589L387 396Q367 389 346 386T303 383Q281 383 257 386T212 396L200 694L218 718L319 767Q420 818 483 879T547 1023Q547
1100 498 1146T358 1193Q292 1193 228 1172T104 1120Q74 1145 49 1194T21 1288ZM302 228Q335 228 367 222T422 201Q431 187 436 156T441 103Q441 81 436 51T422 5Q400 -8 368 -15T302 -22Q228 -22 181 5Q173 20 168 50T163 103Q163 125 168 156T181 201Q204 215
236 221T302 228Z" />
<glyph unicode="@" horiz-adv-x="1911" d="M1338 317Q1338 246 1357 216T1420 186Q1467 186 1509 224T1579 350T1606 589Q1606 772 1530 906T1314 1115T988 1189Q838 1189 716 1134T505 979T371 744T324 449Q324 233 397 87T604 -133T914 -207Q1022 -207 1123
-188T1316 -133Q1345 -161 1360 -206T1376 -291Q1308 -319 1228 -339T1064 -371T899 -383Q666 -383 485 -291T200 -13T96 449Q96 645 161 811T346 1100T629 1291T988 1359Q1172 1359 1326 1305T1593 1150T1768 906T1831 582Q1831 392 1770 266T1614 78T1414 15Q1326
15 1261 51T1160 150T1124 292V746Q1099 770 1063 785T982 801Q915 801 873 755T810 631T790 461Q790 332 824 258T939 183Q983 183 1028 209T1111 278T1167 365L1249 256Q1225 198 1170 141T1042 45T889 7Q788 7 716 62T607 218T569 453Q569 597 616 713T756 897T982
965Q1090 965 1184 924T1338 824V317Z" />
<glyph unicode="A" horiz-adv-x="1234" d="M485 1366Q512 1370 552 1372T621 1374Q648 1374 688 1372T753 1365L1198 15Q1173 0 1136 -7T1063 -14Q1007 -14 976 11T923 110L718 768Q691 854 663 955T611 1139H600Q590 1093 576 1037T546 927T519 832L257 -2Q235
-7 210 -8T156 -10Q127 -10 96 -6T43 4L35 17L485 1366ZM468 321Q458 321 432 321T378 322T341 323H228L300 511H400Q410 511 434 511T481 512T515 513H704Q715 513 738 513T787 512T822 511H924L986 323H874Q863 323 836 323T782 322T745 321H468Z" />
<glyph unicode="B" horiz-adv-x="1214" d="M189 1368Q300 1370 406 1372T613 1374Q759 1374 857 1332T1006 1210T1056 1013Q1056 938 1023 873T931 766T798 716V746Q881 743 955 695T1075 565T1121 385Q1121 268 1069 179T911 41T640 -8Q520 -8 412 -6T189 -2L175
11V1355L189 1368ZM407 164Q468 165 525 165T635 166Q712 166 760 187T835 244T872 319T883 396Q883 445 861 499T783 591T624 629H316V806H604Q693 806 740 836T805 912T823 1004Q823 1051 806 1096T743 1170T607 1199Q569 1199 512 1199T407 1201V164Z" />
<glyph unicode="C" horiz-adv-x="1209" d="M910 880Q911 957 887 1031T805 1155T642 1204Q491 1204 416 1069T340 676Q340 435 424 306T660 177Q756 177 843 218T1013 327Q1050 303 1084 260T1128 176Q1072 120 993 74T819 1T619 -26Q473 -26 373 33T211 193T122
419T94 677Q94 927 170 1085T372 1318T649 1393Q799 1393 908 1338T1077 1193T1137 998Q1137 935 1105 901T1004 866Q978 866 957 869T910 880Z" />
<glyph unicode="D" horiz-adv-x="1304" d="M1208 683Q1208 566 1193 459T1131 259T993 92Q949 56 887 34T760 1T641 -10Q559 -10 489 -9T348 -6T189 -2L175 11V1355L189 1368Q275 1371 346 1372T488 1374T641 1374Q695 1374 760 1364T887 1332T993 1273Q1084 1199
1130 1106T1192 906T1208 683ZM965 683Q965 770 954 859T909 1022T811 1142T640 1188Q580 1188 528 1188T409 1190V178Q475 178 527 178T640 177Q746 177 810 223T908 344T953 508T965 683Z" />
<glyph unicode="E" horiz-adv-x="1135" d="M174 1353L187 1366H403V1174Q403 1132 404 1104T405 1035V302Q405 272 404 248T403 192V-2H309Q246 -2 210 35T174 140V1353ZM893 786Q900 764 902 737T905 690Q905 669 903 643T893 592H532Q509 592 472 592T395 594T324
595V783Q355 784 394 784T471 785T532 786H893ZM1004 1366Q1009 1340 1010 1317T1011 1273Q1011 1253 1007 1224T993 1168H532Q509 1168 472 1168T395 1169T324 1171V1366H1004ZM1045 196Q1045 91 1013 45T890 -2H324V187Q376 190 425 193T538 196H1045Z" />
<glyph unicode="F" horiz-adv-x="1048" d="M410 0Q382 -5 352 -6T294 -8Q268 -8 236 -7T175 0V1354L189 1366H408V1263Q408 1184 409 1104T410 948V0ZM993 1366Q1000 1346 1002 1321T1005 1274Q1005 1217 973 1192T875 1166H590Q509 1166 442 1167T316 1171V1366H993ZM884
783Q890 761 892 733T895 686Q895 666 893 639T884 589H485Q447 589 402 590T321 592V780Q357 781 402 782T485 783H884Z" />
<glyph unicode="G" horiz-adv-x="1291" d="M1166 1247Q1159 1194 1125 1146T1055 1074Q983 1127 891 1160T705 1194Q599 1194 516 1143T384 977T335 671Q335 412 431 288T719 164Q823 164 911 187T1048 228L1168 58Q1109 36 1029 17T859 -14T677 -26Q518 -26 407
28T226 179T126 402T94 673Q94 862 144 998T281 1222T476 1350T699 1392Q825 1392 949 1353T1166 1247ZM946 401Q946 471 950 534T967 648L1168 580V58L946 54V401ZM1005 730Q1097 730 1132 690T1168 580V531H793Q763 531 737 538T695 567T679 631Q679 655 684
682T696 730H1005Z" />
<glyph unicode="H" horiz-adv-x="1354" d="M1062 -8Q1035 -8 1003 -7T944 0V459Q944 501 945 534T946 607V803Q946 844 945 876T944 951V1366Q971 1371 1002 1372T1060 1374Q1085 1374 1118 1373T1179 1366V0Q1151 -5 1120 -6T1062 -8ZM291 -8Q268 -8 235 -7T175
0V1366Q201 1371 234 1372T291 1374Q318 1374 350 1373T410 1366V951Q410 909 409 877T408 803V607Q408 567 409 534T410 459V0Q383 -5 351 -6T291 -8ZM268 605V805Q303 805 338 804T408 803Q420 803 442 803T486 804T519 805H835Q845 805 867 805T912 804T946
803Q980 803 1015 804T1085 805V605Q1051 605 1016 606T946 607Q935 607 913 607T868 606T835 605H519Q509 605 487 605T442 606T408 607Q374 607 339 606T268 605Z" />
<glyph unicode="I" horiz-adv-x="596" d="M181 1366Q207 1371 240 1372T297 1374Q324 1374 356 1373T415 1366V0Q388 -5 356 -6T297 -8Q273 -8 240 -7T181 0V1366Z" />
<glyph unicode="J" horiz-adv-x="906" d="M106 240Q150 213 205 195T314 176Q433 176 476 248T520 472V1366Q547 1371 580 1372T638 1374Q664 1374 695 1373T754 1366V502Q754 391 738 296T677 130T549 20T334 -20Q257 -20 172 2T20 64Q28 112 50 158T106 240Z" />
<glyph unicode="K" horiz-adv-x="1202" d="M175 1366Q201 1371 234 1372T291 1374Q318 1374 350 1373T410 1366V0Q383 -5 351 -6T291 -8Q268 -8 235 -7T175 0V1366ZM1173 60Q1150 25 1105 6T1016 -13Q948 -13 919 22T865 126L763 407Q724 518 673 562T536 606Q502
606 440 604T289 595V746H644Q748 746 811 716T911 630T978 494L1081 214Q1098 169 1112 141T1140 95T1173 60ZM832 1282Q857 1328 883 1350T967 1373Q997 1373 1032 1372T1102 1367L1117 1348L826 846Q780 763 709 715T527 666H289V800Q341 802 400 803T509 805Q541
805 555 818T589 863L832 1282Z" />
<glyph unicode="L" horiz-adv-x="1028" d="M409 -2H311Q250 -2 212 35T174 141V1362L187 1375H276Q346 1375 377 1340T409 1226V-2ZM976 201Q976 85 940 42T818 -2H311L188 168Q288 185 395 193T589 201H976Z" />
<glyph unicode="M" horiz-adv-x="1626" d="M246 1365Q286 1372 331 1373T405 1375Q435 1375 475 1374T554 1365L729 766Q736 744 747 700T771 605T793 509T807 439H818Q822 464 832 509T855 605T879 700T897 766L1073 1365Q1113 1372 1152 1373T1221 1375Q1250
1375 1294 1374T1379 1365L1485 3Q1461 -3 1428 -6T1366 -10Q1339 -10 1314 -8T1262 -2L1219 695Q1215 753 1212 827T1207 976T1203 1112H1191L932 207Q905 203 872 201T812 199Q788 199 754 201T694 207L435 1112H423Q422 1051 420 976T414 827T407 695L363 -2Q338
-6 312 -8T258 -10Q229 -10 197 -7T140 3L246 1365Z" />
<glyph unicode="N" horiz-adv-x="1366" d="M175 1364Q204 1369 246 1371T314 1374Q341 1374 379 1373T453 1366L392 1095L375 1091Q380 1018 384 928T390 747T393 579V0Q364 -5 337 -6T286 -8Q264 -8 234 -7T175 0V1364ZM506 814Q471 889 440 960T382 1093L272
1224L453 1366L853 553Q892 472 925 397T985 260L1102 137L910 0L506 814ZM1191 1364V2Q1172 -1 1147 -3T1096 -7T1050 -8Q1020 -8 983 -7T910 0L974 259L992 262Q987 345 983 439T976 624T974 783V1231Q974 1308 1002 1341T1101 1375H1178L1191 1364Z" />
<glyph unicode="O" horiz-adv-x="1319" d="M339 684Q339 596 351 504T398 333T495 207T659 158Q761 158 823 206T920 333T966 503T979 684Q979 772 967 864T920 1034T824 1160T659 1208Q558 1208 495 1160T398 1034T352 864T339 684ZM94 684Q94 888 155 1048T341
1300T659 1392Q804 1392 910 1339T1087 1191T1191 966T1225 684Q1225 479 1164 319T977 66T659 -26Q515 -26 408 27T232 176T128 401T94 684Z" />
<glyph unicode="P" horiz-adv-x="1144" d="M1075 924Q1075 775 1016 675T851 523T610 472H311V650Q343 652 401 653T516 655T599 656Q695 656 745 699T814 804T833 924Q833 982 815 1043T746 1147T599 1190Q560 1190 509 1190T410 1192V0Q383 -5 351 -6T291 -8Q268
-8 235 -7T175 0V1355L189 1368Q304 1370 405 1372T610 1374Q745 1374 850 1325T1015 1176T1075 924Z" />
<glyph unicode="Q" horiz-adv-x="1310" d="M336 684Q336 595 348 503T394 334T491 209T655 161Q756 161 819 208T915 333T960 503T972 684Q972 774 960 866T915 1035T819 1160T655 1208Q554 1208 491 1161T395 1036T349 866T336 684ZM94 684Q94 889 153 1048T336
1300T655 1392Q851 1392 975 1300T1158 1047T1217 683Q1217 562 1193 446T1119 235T990 84T804 25Q774 5 742 -10T661 -26Q461 -26 336 66T153 318T94 684ZM584 47L815 123L967 15Q1028 -28 1071 -51T1149 -83T1220 -93Q1217 -176 1170 -219T1064 -262Q1012 -262
973 -246T899 -203L584 47Z" />
<glyph unicode="R" horiz-adv-x="1207" d="M1089 960Q1089 867 1055 793T963 669T836 595Q887 578 922 531T980 423L1063 202Q1084 145 1105 112T1154 56Q1131 24 1086 5T996 -14Q931 -14 901 21T845 127L751 385Q728 450 687 495T556 540H312V720Q355 722 412
724T525 727T614 728Q708 728 758 762T828 850T847 960Q847 1019 828 1072T759 1158T614 1192Q588 1192 552 1192T479 1192T408 1194V0Q381 -5 349 -6T290 -8Q267 -8 234 -7T175 0V1355L189 1368Q304 1370 414 1372T629 1374Q768 1374 871 1328T1032 1189T1089
960Z" />
<glyph unicode="S" horiz-adv-x="1112" d="M54 123Q59 174 87 223T150 301Q237 246 343 207T554 167Q668 167 729 217T790 344Q790 406 748 458T619 547L378 648Q252 701 176 784T100 1000Q100 1112 159 1200T322 1340T560 1392Q689 1392 802 1360T993 1287Q990
1237 968 1188T909 1106Q831 1145 736 1173T563 1201Q457 1201 399 1150T340 1027Q340 967 382 928T496 857L737 758Q825 722 892 668T998 542T1037 380Q1037 264 982 172T817 27T540 -26Q416 -26 287 13T54 123Z" />
<glyph unicode="T" horiz-adv-x="991" d="M31 1169Q26 1195 24 1220T22 1267Q22 1289 24 1314T31 1366H965Q971 1347 974 1322T978 1274Q978 1217 947 1193T849 1169H732Q712 1169 674 1170T615 1171H380Q360 1171 322 1170T263 1169H31ZM380 1023Q380 1064 380
1096T381 1171V1268H614V1171Q614 1129 614 1097T615 1023V0Q587 -5 556 -6T498 -8Q472 -8 441 -7T380 0V1023Z" />
<glyph unicode="U" horiz-adv-x="1340" d="M1183 484Q1183 319 1120 205T942 33T669 -26Q513 -26 398 32T220 205T157 484V1362L170 1375H259Q329 1375 360 1340T392 1226V484Q392 325 461 244T670 162Q810 162 879 243T948 484V1366Q975 1371 1006 1372T1062
1374Q1087 1374 1121 1373T1183 1366V484Z" />
<glyph unicode="V" horiz-adv-x="1162" d="M913 1366Q937 1371 963 1372T1014 1374Q1039 1374 1069 1371T1122 1361L1132 1345L740 -1Q698 -5 651 -7T557 -10Q490 -10 453 13T397 101L36 1345Q69 1361 105 1370T179 1380Q228 1380 258 1355T306 1266L503 575Q517
524 532 464T562 342T588 227Q591 214 595 210T606 206L913 1366Z" />
<glyph unicode="W" horiz-adv-x="1722" d="M54 1353Q85 1367 117 1373T182 1380Q241 1380 269 1353T309 1254L426 608Q435 553 447 480T470 337T488 218Q491 201 494 198T506 194L714 1338Q748 1344 790 1346T865 1349Q900 1349 943 1347T1016 1338L1206 218Q1209
201 1213 198T1226 194Q1234 255 1246 330T1271 480T1294 610L1440 1366Q1465 1371 1493 1372T1545 1374Q1573 1374 1603 1371T1657 1361L1669 1345L1387 2Q1345 -4 1286 -7T1180 -10Q1128 -10 1088 9T1036 102L945 617Q928 720 908 851T869 1105H855Q837 983 815
852T772 617L656 1Q614 -4 558 -7T457 -10Q401 -10 359 9T302 103L54 1353Z" />
<glyph unicode="X" horiz-adv-x="1186" d="M77 1330Q113 1355 154 1368T231 1381Q277 1381 311 1361T379 1289L1154 37Q1119 11 1078 -2T1000 -15Q954 -15 919 5T850 78L77 1330ZM886 1366Q902 1370 928 1373T983 1376Q1018 1376 1051 1370T1105 1356L1112 1341L696
664L600 560L263 0Q246 -4 219 -7T163 -10Q128 -10 95 -4T39 11L32 26L495 772L591 877L886 1366Z" />
<glyph unicode="Y" horiz-adv-x="1022" d="M395 576H629V0Q602 -5 570 -6T512 -8Q488 -8 455 -7T395 0V576ZM789 1366Q813 1372 838 1374T887 1376Q917 1376 947 1372T1001 1360L1011 1344L612 393H415L13 1339Q49 1359 86 1370T159 1381Q209 1381 236 1357T284
1282L430 926Q452 872 474 803T515 669H526Q538 712 554 760T587 855T616 932L789 1366Z" />
<glyph unicode="Z" horiz-adv-x="1131" d="M615 971Q645 1017 688 1072T772 1180L766 1186Q740 1182 698 1179T609 1174T521 1171T455 1170H141Q135 1191 133 1210T131 1250Q131 1280 135 1308T149 1366H985Q1001 1313 1007 1285T1016 1242T1018 1217Q1018 1196
1012 1173T989 1126L498 403Q467 357 424 300T341 194L347 188Q411 193 480 196T600 200H789Q867 200 925 210T1023 239Q1030 216 1035 187T1040 129Q1040 65 999 33T880 0H120Q107 51 101 79T93 121T91 146Q91 169 98 194T121 243L615 971Z" />
<glyph unicode="[" horiz-adv-x="708" d="M198 1522L424 1442V-328L198 -390V1522ZM213 -405L198 -390L217 -216L627 -227Q634 -242 639 -269T645 -323Q645 -337 644 -356T637 -388L213 -405ZM637 1520Q642 1506 643 1487T645 1454Q645 1428 640 1401T627 1358L217
1347L198 1522L213 1535L637 1520Z" />
<glyph unicode="\" horiz-adv-x="856" d="M648 -325Q697 -320 750 -302T844 -251L214 1425Q164 1421 112 1403T17 1351L648 -325Z" />
<glyph unicode="]" horiz-adv-x="708" d="M510 1522L284 1442V-328L510 -390V1522ZM495 -405L510 -390L491 -216L81 -227Q75 -242 69 -269T62 -323Q62 -337 64 -356T71 -388L495 -405ZM71 1520Q66 1506 64 1487T62 1454Q62 1428 68 1401T81 1358L491 1347L510
1522L495 1535L71 1520Z" />
<glyph unicode="^" horiz-adv-x="1060" d="M979 612Q959 607 929 605T865 602Q835 602 806 604T756 612L606 941Q596 964 583 997T558 1063T537 1119H523Q514 1096 502 1064T478 998T454 941L304 612Q283 607 254 605T195 602Q162 602 132 604T81 612L408 1296Q429
1301 462 1303T532 1306Q567 1306 599 1304T652 1296L979 612Z" />
<glyph unicode="_" horiz-adv-x="1073" d="M-2 -319Q-11 -277 -11 -231Q-11 -184 -2 -142H1075Q1085 -184 1085 -231Q1085 -277 1075 -319H-2Z" />
<glyph unicode="`" horiz-adv-x="796" d="M329 1490Q282 1475 237 1434T176 1345L523 1077Q553 1086 580 1111T621 1168L329 1490Z" />
<glyph unicode="a" horiz-adv-x="1016" d="M82 269Q82 385 133 459T272 568T467 604Q521 604 591 600T721 582V431Q670 443 604 446T484 450Q398 450 352 406T306 285Q306 228 339 189T433 150Q503 150 580 199T711 342L745 177Q709 134 657 87T535 7T378 -26Q278
-26 212 18T114 130T82 269ZM930 103Q923 72 900 37T850 -15Q782 -5 739 30T675 114T649 216V663Q649 750 609 789T492 829Q419 829 340 807T181 756Q155 783 138 830T119 921Q177 946 250 966T399 999T543 1011Q639 1011 713 976T831 867T874 675V265Q874 212
886 171T930 103Z" />
<glyph unicode="b" horiz-adv-x="1058" d="M372 50H149V1458L162 1471H247Q317 1471 344 1438T372 1328V50ZM977 508Q978 336 917 219T752 43T518 -16Q420 -16 326 1T149 50L260 223Q320 187 383 169T521 151Q588 151 638 191T717 310T745 504Q745 671 697 745T573
819Q505 820 438 776T331 657L297 839Q330 878 378 917T489 981T629 1007Q745 1007 822 943T938 766T977 508Z" />
<glyph unicode="c" horiz-adv-x="944" d="M666 596Q668 663 656 719T607 809T502 843Q412 843 365 756T317 490Q317 314 373 236T532 157Q599 157 659 187T771 255Q801 237 829 198T865 122Q797 55 702 15T497 -26Q390 -26 312 14T183 125T108 289T83 490Q83 630
118 730T215 893T351 986T507 1016Q597 1016 665 990T781 919T851 820T875 709Q875 651 847 619T760 587Q708 587 666 596Z" />
<glyph unicode="d" horiz-adv-x="1063" d="M911 283Q911 227 923 179T967 103Q960 72 936 37T886 -15Q781 1 735 77T689 256V1458L702 1471H789Q859 1471 885 1438T911 1328V283ZM84 483Q84 660 139 776T283 950T470 1007Q567 1007 647 967T797 879L769 703Q711
748 643 788T504 829Q450 829 408 791T341 675T316 481Q316 368 339 298T401 194T484 161Q531 161 583 187T682 269T753 418L802 260Q785 190 733 125T603 17T430 -26Q315 -26 238 38T123 218T84 483Z" />
<glyph unicode="e" horiz-adv-x="999" d="M226 422V585H690V611Q690 676 672 730T613 817T505 850Q409 850 363 769T316 543V473Q316 385 334 313T399 198T536 156Q611 156 680 177T811 229Q839 203 857 162T880 86Q808 34 707 4T501 -26Q380 -26 299 16T171 132T103
298T83 492Q83 641 129 759T269 947T506 1016Q636 1016 725 960T861 807T907 591Q907 539 903 503T889 422H226Z" />
<glyph unicode="f" horiz-adv-x="681" d="M306 987L681 991Q691 952 691 909Q691 888 689 867T681 825L304 830L25 825Q20 845 18 866T15 909Q15 930 17 950T25 991L306 987ZM197 892Q191 962 182 1029T173 1160Q173 1251 211 1323T320 1437T491 1479Q564 1479
636 1464T756 1430Q757 1391 743 1347T705 1278Q668 1289 623 1298T536 1307Q467 1307 429 1266T390 1146Q390 1087 400 1021T419 889V0Q394 -4 365 -6T306 -8Q280 -8 251 -6T197 0V892Z" />
<glyph unicode="g" horiz-adv-x="1059" d="M969 887Q938 861 926 812T913 706V127Q913 7 902 -74T870 -211T816 -306Q767 -369 679 -405T477 -441Q385 -441 290 -422T125 -374Q125 -332 141 -283T184 -205Q247 -234 321 -250T455 -267Q551 -267 602 -232T673 -137T692
-3V734Q692 835 737 912T888 1004Q914 988 938 953T969 887ZM84 493Q84 670 140 785T284 958T470 1016Q559 1016 624 989T735 920T812 837L780 645Q727 732 652 784T507 837Q450 837 407 799T340 685T316 491Q316 321 364 246T482 170Q559 170 629 220T740 351L774
181Q746 133 696 88T578 12T434 -18Q317 -18 239 46T123 226T84 493Z" />
<glyph unicode="h" horiz-adv-x="1088" d="M372 0Q349 -4 320 -6T259 -8Q230 -8 202 -6T149 0V1458L162 1471H249Q319 1471 345 1438T372 1328V0ZM947 219Q947 166 955 118T983 35Q959 14 921 0T841 -14Q774 -14 747 22T720 130V621Q720 715 696 758T603 801Q556
801 502 779T397 713T315 610V823Q382 899 477 952T680 1006Q773 1006 832 962T919 843T947 673V219Z" />
<glyph unicode="i" horiz-adv-x="553" d="M407 0Q384 -4 355 -6T294 -8Q264 -8 234 -6T180 0V719Q180 771 161 798T92 825H67Q58 865 58 905Q58 924 60 945T67 987Q107 992 143 994T205 996H234Q315 996 361 946T407 807V0ZM119 1259Q119 1282 124 1308T138 1354Q158
1365 191 1372T256 1380Q287 1380 322 1373T374 1354Q383 1334 388 1308T393 1259Q393 1237 388 1211T374 1165Q358 1154 323 1147T256 1139Q225 1139 191 1146T138 1165Q129 1184 124 1210T119 1259Z" />
<glyph unicode="j" horiz-adv-x="566" d="M420 -22Q420 -146 394 -228T302 -361T113 -439Q89 -418 71 -380T47 -299Q104 -272 136 -243T182 -170T196 -53V719Q196 771 177 798T107 825H65Q56 865 56 905Q56 924 58 945T65 987Q109 992 152 994T221 996H251Q330
996 375 946T420 807V-22ZM129 1259Q129 1282 134 1308T148 1354Q168 1365 201 1372T266 1380Q297 1380 332 1373T384 1354Q393 1334 398 1308T403 1259Q403 1237 398 1211T384 1165Q368 1154 333 1147T266 1139Q235 1139 201 1146T148 1165Q139 1184 134 1210T129
1259Z" />
<glyph unicode="k" horiz-adv-x="1012" d="M372 0Q349 -4 320 -6T259 -8Q229 -8 201 -6T149 0V1458L162 1471H249Q319 1471 345 1438T372 1328V0ZM886 216Q910 152 932 115T982 57Q957 27 916 7T829 -14Q772 -14 744 16T693 107L617 298Q588 373 555 398T457 424Q426
424 396 422T330 416L256 408V571H533Q642 571 711 526T822 377L886 216ZM715 641Q673 569 608 536T448 503H281V607L432 612Q450 612 461 619T482 643L643 904Q668 949 700 972T786 996Q821 996 849 996T908 993L920 977L715 641Z" />
<glyph unicode="l" horiz-adv-x="595" d="M519 170Q528 146 533 117T538 57Q538 44 537 31T533 6Q496 1 447 -4T353 -9Q249 -9 198 45T146 211V1458L159 1471H246Q316 1471 342 1438T369 1328V259Q369 215 388 193T449 170H519Z" />
<glyph unicode="m" horiz-adv-x="1599" d="M246 999Q316 999 346 956T376 836V0Q353 -4 323 -6T263 -8Q233 -8 203 -6T149 0V985L162 999H246ZM690 622Q690 722 660 762T576 802Q528 802 473 771T372 688T300 575V791Q345 851 401 900T522 978T655 1007Q742 1007
800 966T888 855T918 696V0Q894 -4 864 -6T804 -8Q774 -8 744 -6T690 0V622ZM1230 624Q1230 724 1200 763T1116 802Q1070 802 1017 772T915 688T835 570V811Q884 865 943 909T1067 980T1200 1007Q1287 1007 1344 966T1430 853T1458 693V219Q1458 166 1466 118T1494
35Q1470 14 1432 0T1352 -14Q1285 -14 1258 22T1230 130V624Z" />
<glyph unicode="n" horiz-adv-x="1092" d="M247 999Q317 999 346 956T376 836V0Q353 -4 323 -6T263 -8Q233 -8 203 -6T149 0V986L162 999H247ZM951 219Q951 166 958 118T987 35Q963 14 925 0T844 -14Q777 -14 750 22T723 130V622Q723 716 699 759T607 802Q560
802 506 780T401 714T319 611V825Q387 900 481 953T683 1007Q776 1007 835 963T922 844T951 674V219Z" />
<glyph unicode="o" horiz-adv-x="1041" d="M958 495Q958 341 908 223T761 40T520 -26Q376 -26 278 40T132 224T83 495Q83 649 132 766T279 950T520 1016Q665 1016 762 950T909 766T958 495ZM317 495Q317 404 334 325T396 196T521 146Q602 146 645 195T706 324T723
495Q723 586 706 665T646 794T521 844Q440 844 396 795T335 666T317 495Z" />
<glyph unicode="p" horiz-adv-x="1063" d="M229 999Q301 999 336 951T372 817V-288Q372 -363 346 -397T249 -431H162L149 -418V986L162 999H229ZM980 507Q980 330 924 213T780 39T593 -18Q496 -18 416 22T267 112L295 287Q353 241 421 201T560 161Q614 161 656
199T723 315T748 508Q748 622 725 692T663 795T578 828Q532 828 480 803T381 721T309 571L262 729Q279 799 331 865T460 973T632 1016Q748 1016 825 952T941 772T980 507Z" />
<glyph unicode="q" horiz-adv-x="1062" d="M84 493Q84 670 140 785T284 958T470 1016Q559 1016 624 989T735 922T812 839L780 645Q727 732 652 784T507 837Q451 837 408 799T341 685T316 491Q316 378 339 307T400 203T482 170Q559 170 629 220T740 351L774 178Q746
131 696 86T578 12T434 -18Q317 -18 239 46T123 226T84 493ZM690 734Q690 835 736 912T887 1004Q913 988 937 953T969 887Q938 861 926 812T913 706V-418L900 -431H813Q742 -431 716 -397T690 -288V734Z" />
<glyph unicode="r" horiz-adv-x="748" d="M740 991Q740 947 727 886T684 777Q663 783 642 785T599 788Q545 788 505 767T435 710T385 630T349 540L318 580Q320 653 337 727T389 864T483 965T628 1003Q659 1003 685 1000T740 991ZM92 884Q99 915 122 950T171 1004Q279
985 332 904T393 697V0Q371 -4 341 -6T280 -8Q250 -8 220 -6T166 0V678Q166 760 142 811T92 884Z" />
<glyph unicode="s" horiz-adv-x="877" d="M57 73Q59 110 80 156T130 230Q193 196 264 169T409 142Q486 142 530 174T576 256Q576 296 546 329T457 384L342 426Q273 451 216 489T124 582T89 714Q89 808 136 875T264 979T449 1016Q534 1016 627 994T784 942Q785
914 777 882T754 822T718 777Q664 802 594 823T449 845Q389 845 353 816T317 739Q317 700 345 674T431 627L554 582Q667 541 739 468T811 276Q811 136 702 55T411 -26Q305 -26 214 3T57 73Z" />
<glyph unicode="t" horiz-adv-x="710" d="M187 1152Q187 1228 213 1261T309 1295H396L409 1281V258Q409 217 428 194T493 170H626Q634 146 639 116T644 57Q644 44 644 31T639 6Q588 0 529 -4T409 -9Q300 -9 244 45T187 211V1152ZM655 991Q665 951 665 909Q665
887 663 867T655 825L318 830L38 825Q29 866 29 909Q29 949 38 991L322 987L655 991Z" />
<glyph unicode="u" horiz-adv-x="1095" d="M944 281Q944 225 956 177T1000 101Q992 70 968 36T918 -15Q813 1 765 78T716 258V989Q738 994 768 996T829 998Q860 998 889 996T944 989V281ZM141 771Q141 824 133 871T105 954Q130 975 168 989T247 1003Q314 1003
341 967T369 860V367Q369 274 393 231T485 187Q532 187 586 210T691 275T773 378V166Q706 90 612 36T409 -18Q316 -18 257 26T170 145T141 316V771Z" />
<glyph unicode="v" horiz-adv-x="920" d="M701 990Q723 995 744 996T786 998Q817 998 846 994T902 980L909 971Q875 857 834 723T752 455T672 202T606 0Q569 -6 525 -8T440 -11Q373 -11 337 11T277 111L7 972Q43 988 76 996T137 1005Q187 1005 218 983T263 905L388
479Q403 432 416 378T441 276T458 197Q461 186 464 184T477 181L701 990Z" />
<glyph unicode="w" horiz-adv-x="1458" d="M38 975Q75 991 107 998T169 1005Q217 1005 241 983T276 911L361 514Q382 420 398 331T424 186Q427 169 440 169L596 983Q623 990 666 992T730 995Q755 995 798 993T866 983L1019 186Q1023 169 1035 169Q1052 253 1068
339T1104 514L1209 990Q1228 995 1253 997T1303 999Q1329 999 1363 995T1419 980L1426 969L1185 -1Q1151 -6 1103 -8T1014 -10Q949 -10 912 10T860 108L807 373Q798 425 786 493T761 635T736 781H726Q714 710 701 637T674 495T650 375L574 0Q537 -5 487 -7T394
-10Q335 -10 298 12T243 110L38 975Z" />
<glyph unicode="x" horiz-adv-x="929" d="M49 955Q84 980 126 993T205 1007Q248 1007 273 989T320 937L908 36Q876 14 834 -1T752 -16Q710 -16 683 1T634 53L49 955ZM659 989Q676 994 701 996T750 999Q784 999 812 995T863 983L870 966L552 472L493 411L242 -1Q227
-6 201 -8T149 -11Q116 -11 86 -7T32 7L25 24L374 567L439 630L659 989Z" />
<glyph unicode="y" horiz-adv-x="947" d="M211 -437Q161 -437 102 -427T9 -403Q6 -364 20 -316T57 -240Q83 -249 127 -257T212 -266Q276 -266 319 -238T392 -158T443 -36L450 -10Q384 -9 344 14T285 100L28 972Q66 989 102 997T167 1005Q208 1005 236 984T280
905L407 459Q420 416 433 363T457 260T476 172Q480 158 495 158L705 990Q725 995 751 997T800 999Q830 999 860 996T918 983L926 970L665 31Q624 -118 571 -222T433 -382T211 -437Z" />
<glyph unicode="z" horiz-adv-x="894" d="M409 628Q443 674 487 725T568 820L562 828Q532 824 486 821T390 817T300 815H101Q97 833 96 852T94 887Q94 910 97 937T106 989H781Q797 943 805 913T813 858Q813 841 807 822T786 783L477 367Q443 321 402 270T323 175L329
167Q377 172 424 174T508 176H598Q662 176 716 182T809 205Q820 178 825 154T831 106Q831 57 801 29T693 0H96Q79 47 73 73T66 121Q66 140 73 162T100 210L409 628Z" />
<glyph unicode="{" horiz-adv-x="714" d="M651 -442L542 -424Q416 -403 334 -320T251 -91V245Q251 331 204 394T85 478Q75 504 75 551T85 626Q156 646 203 708T251 858V1194Q251 1341 333 1423T542 1527L651 1544Q667 1527 678 1499T693 1441T693 1391L589 1357Q540
1342 511 1300T481 1192V862Q481 766 436 681T313 559V543Q390 509 435 424T481 241V-89Q481 -155 510 -197T589 -254L693 -288Q698 -308 694 -338T678 -396T651 -442Z" />
<glyph unicode="|" horiz-adv-x="517" d="M152 1548Q176 1554 207 1556T259 1558Q283 1558 311 1556T365 1548V-282Q339 -288 311 -290T259 -292Q238 -292 207 -290T152 -282V1548Z" />
<glyph unicode="}" horiz-adv-x="714" d="M62 -442Q47 -425 36 -397T20 -338T20 -288L124 -254Q174 -239 203 -197T232 -89V241Q232 338 278 423T401 543V559Q325 595 279 680T232 862V1192Q232 1258 203 1300T124 1357L20 1391Q16 1412 20 1441T35 1498T62 1544L171
1527Q298 1506 380 1424T463 1194V858Q463 771 510 709T628 626Q639 599 639 552T628 478Q558 458 511 395T463 245V-91Q463 -237 381 -320T171 -424L62 -442Z" />
<glyph unicode="~" horiz-adv-x="1190" d="M721 651Q748 640 773 634T820 627Q856 627 885 644T939 690L979 735Q1016 733 1057 709T1114 647L1085 596Q1037 510 966 463T801 415Q759 415 716 425T629 456L469 527Q443 539 418 545T369 552Q335 552 306 536T251
489L210 443Q175 447 134 470T76 532L106 583Q154 669 225 716T390 764Q431 764 474 753T562 723L721 651Z" />
<glyph unicode="&#xa0;" horiz-adv-x="440" />
<glyph unicode="&#xa1;" horiz-adv-x="585" d="M381 604Q393 406 407 210T421 -187V-366Q389 -374 341 -377T245 -378T164 -365V-184Q164 13 178 210T205 604Q228 611 250 613T293 616Q310 616 334 614T381 604ZM293 768Q260 768 228 775T173 794Q164 809 159
840T154 894Q154 916 159 946T173 991Q195 1004 227 1010T293 1017Q326 1017 358 1011T413 991Q421 976 425 946T430 894Q430 871 426 840T413 794Q391 782 359 775T293 768Z" />
<glyph unicode="&#xa2;" horiz-adv-x="1080" d="M563 -51Q542 -51 517 -49T474 -42V250H651V-42Q634 -46 610 -48T563 -51ZM480 1006V1308Q498 1312 522 1314T569 1317Q592 1317 616 1315T657 1308V1006H480ZM568 134Q440 134 354 178T216 295T142 455T120 628Q120
805 185 916T354 1079T575 1132Q670 1132 742 1106T862 1035T935 939T960 833Q960 770 932 736T839 702Q818 702 797 704T756 713Q758 772 742 828T684 921T569 958Q463 958 408 874T352 628Q352 469 419 395T601 320Q671 320 737 350T855 425Q885 406 914 369T954
295Q912 246 850 210T714 154T568 134Z" />
<glyph unicode="&#xa3;" horiz-adv-x="1080" d="M174 0Q154 56 149 84T143 131Q143 166 162 192T201 241L226 268Q267 314 296 365T325 488Q325 568 302 638T256 779T233 929Q233 1025 280 1108T415 1243T629 1295Q737 1295 822 1256T966 1163Q957 1120 927 1077T856
1011Q810 1053 755 1078T644 1104Q574 1104 519 1060T464 914Q464 852 482 789T518 656T536 505Q536 410 489 329T374 185L379 180Q448 187 534 189T713 192H981Q981 78 944 39T830 0H174ZM152 528Q143 562 143 610Q143 657 152 694L407 692L816 694Q820 677 822
656T825 612Q825 590 823 567T816 528L407 530L152 528Z" />
<glyph unicode="&#xa4;" horiz-adv-x="1080" d="M538 242Q424 242 336 291T197 429T147 632Q147 748 197 836T335 974T538 1024Q654 1024 742 975T881 837T931 632Q931 518 881 430T743 292T538 242ZM538 404Q632 404 678 471T725 632Q725 727 679 794T538 862Q446
862 400 795T353 632Q353 539 399 472T538 404ZM172 143Q137 162 105 195T51 264L261 494L403 351L172 143ZM261 769L51 999Q70 1035 103 1068T172 1121L401 913L261 769ZM820 771L678 914L908 1123Q943 1104 975 1071T1029 1002L820 771ZM904 142L675 351L818
492L1026 263Q1007 228 975 196T904 142Z" />
<glyph unicode="&#xa5;" horiz-adv-x="1080" d="M429 443L79 1247Q114 1265 152 1276T226 1287Q267 1287 292 1267T335 1199L454 910Q476 854 497 792T539 658H550Q570 722 595 789T641 910L787 1270Q810 1276 832 1278T876 1280Q904 1280 933 1277T993 1266L1001
1248L645 443H429ZM538 -8Q516 -8 483 -7T424 0V511H649V0Q621 -5 591 -6T538 -8ZM140 314Q136 332 134 351T131 393Q131 414 133 434T140 471H934Q944 433 944 393Q944 355 934 314H140ZM140 619Q136 635 134 655T131 698Q131 720 133 740T140 777H414V619H140ZM660
619V777H934Q938 762 941 742T944 698Q944 677 941 657T934 619H660Z" />
<glyph unicode="&#xa6;" horiz-adv-x="505" d="M147 492Q171 498 201 500T253 502Q277 502 305 500T358 492V-282Q333 -288 305 -290T253 -292Q232 -292 202 -290T147 -282V492ZM147 1548Q171 1554 201 1556T253 1558Q277 1558 305 1556T358 1548V774Q333 768
305 766T253 764Q232 764 202 766T147 774V1548Z" />
<glyph unicode="&#xa7;" horiz-adv-x="977" d="M508 373Q557 391 599 420T667 488T693 575Q693 619 665 652T591 710T490 757L389 797Q319 825 261 865T168 962T133 1096Q133 1182 180 1249T310 1354T498 1392Q580 1392 666 1372T815 1322Q817 1280 798 1232T749
1160Q695 1183 631 1202T503 1221Q441 1221 401 1192T361 1113Q361 1071 391 1044T477 995L593 948Q680 913 753 870T872 764T917 611Q917 529 870 460T747 340T583 262L508 373ZM468 802Q421 784 379 755T311 687T284 600Q284 556 311 524T384 466T488 417L588
378Q659 351 717 310T809 212T844 77Q844 -9 797 -76T664 -181T466 -220Q379 -220 287 -198T129 -136Q127 -94 149 -46T200 24Q251 -1 320 -25T469 -49Q536 -49 576 -20T617 60Q617 101 587 129T501 180L385 227Q299 262 225 305T106 411T60 564Q60 646 107 715T230
835T393 913L468 802Z" />
<glyph unicode="&#xa8;" horiz-adv-x="796" d="M90 1234Q90 1253 93 1276T105 1318Q124 1330 153 1336T209 1343Q235 1343 264 1337T313 1318Q321 1300 324 1277T328 1234Q328 1215 325 1192T313 1150Q293 1139 264 1132T209 1125Q183 1125 154 1132T105 1150Q97
1168 94 1191T90 1234ZM468 1234Q468 1253 471 1276T483 1318Q503 1330 532 1336T587 1343Q613 1343 642 1337T690 1318Q699 1300 702 1277T706 1234Q706 1215 703 1192T690 1150Q672 1139 643 1132T587 1125Q561 1125 532 1132T483 1150Q475 1168 472 1191T468
1234Z" />
<glyph unicode="&#xa9;" horiz-adv-x="1600" d="M77 682Q77 835 131 966T284 1196T514 1350T799 1405Q952 1405 1083 1350T1313 1197T1467 967T1523 682Q1523 529 1468 398T1314 168T1084 16T799 -39Q646 -39 515 15T285 168T132 397T77 682ZM262 682Q262 565
301 463T413 284T583 163T799 119Q916 119 1015 162T1186 283T1298 463T1338 682Q1338 799 1298 901T1186 1081T1015 1203T799 1247Q682 1247 584 1203T413 1082T302 902T262 682ZM931 753Q933 798 922 840T881 911T798 939Q725 939 685 874T645 683Q645 562 693
499T827 436Q874 436 925 459T1018 513Q1043 499 1064 468T1092 407Q1044 357 962 323T798 289Q679 289 603 342T490 486T453 683Q453 823 505 910T639 1038T805 1079Q901 1079 967 1044T1068 954T1102 843Q1102 797 1079 770T1003 743Q984 743 964 746T931 753Z"
/>
<glyph unicode="&#xaa;" horiz-adv-x="862" d="M79 712Q79 802 119 860T229 945T387 972Q432 972 488 968T595 958V828Q552 835 499 839T398 843Q337 843 304 811T270 724Q270 683 296 653T368 623Q421 623 485 664T591 776L623 642Q593 607 549 569T448 503T320
476Q241 476 188 510T107 598T79 712ZM774 585Q770 558 747 528T696 484Q616 495 572 552T528 704V1020Q528 1084 495 1112T414 1140Q351 1140 292 1126T166 1086Q144 1109 129 1145T113 1220Q183 1250 276 1271T454 1292Q531 1292 592 1265T688 1178T724 1027V716Q724
672 733 640T774 585Z" />
<glyph unicode="&#xab;" horiz-adv-x="1132" d="M937 69L540 440Q528 468 528 510T540 580L930 951Q968 941 1005 905T1055 832L785 514L1065 187Q1057 164 1037 139T990 96T937 69ZM723 69L326 440Q314 468 314 510T326 580L716 951Q754 941 791 905T841 832L571
514L851 187Q843 164 823 139T776 96T723 69Z" />
<glyph unicode="&#xac;" horiz-adv-x="1080" d="M111 736Q106 713 104 687T102 641Q102 622 104 595T111 545H650Q679 545 707 546T763 547L958 545V724L945 736H111ZM755 565Q756 538 755 507T753 447V274Q781 269 806 267T858 265Q885 265 910 267T958 274V640H753L755
565Z" />
<glyph unicode="&#xae;" horiz-adv-x="1189" d="M66 957Q66 1105 136 1225T326 1416T594 1487Q742 1487 862 1417T1052 1226T1123 957Q1123 809 1053 690T862 500T594 430Q446 430 326 500T136 689T66 957ZM212 957Q212 848 261 759T398 616T594 562Q704 562 790
615T927 758T977 957Q977 1067 927 1156T791 1300T594 1354Q485 1354 398 1300T262 1157T212 957ZM801 1070Q801 1012 770 980T700 937Q722 927 735 910T766 860L793 810Q802 793 812 777T837 752Q824 732 800 719T748 705Q720 705 703 720T670 766L623 858Q613
876 601 885T564 895H466V994Q492 995 531 995T590 996Q631 996 649 1014T667 1059Q667 1083 650 1101T597 1120Q579 1120 560 1120T526 1120V715Q500 707 461 707Q423 707 397 715V1209L403 1214Q453 1216 507 1217T607 1219Q709 1219 755 1177T801 1070Z" />
<glyph unicode="&#xaf;" horiz-adv-x="796" d="M113 1149Q106 1171 104 1191T101 1237Q101 1262 103 1283T113 1327H684Q690 1304 692 1285T695 1238Q695 1212 693 1192T684 1149H113Z" />
<glyph unicode="&#xb0;" horiz-adv-x="753" d="M60 974Q60 1066 101 1138T214 1251T377 1292Q469 1292 540 1251T652 1138T694 974Q694 881 653 809T540 695T377 653Q287 653 215 694T101 808T60 974ZM229 974Q229 899 269 852T378 805Q445 805 484 852T524 974Q524
1047 485 1094T378 1142Q309 1142 269 1095T229 974Z" />
<glyph unicode="&#xb1;" horiz-adv-x="1080" d="M142 787Q137 763 135 745T133 699Q133 673 135 653T142 608H339Q366 608 395 609T450 610H630Q657 610 686 609T742 608H938Q943 633 945 653T947 699Q947 726 945 744T938 787H742Q715 787 686 786T630 785H450Q424
785 395 786T339 787H142ZM439 894Q439 867 440 837T441 778V618Q441 592 440 561T439 503V314Q464 309 489 308T540 306Q566 306 591 307T641 314V503Q641 530 640 561T639 618V778Q639 806 640 836T641 894V1091Q617 1097 592 1098T540 1100Q514 1100 489 1099T439
1091V894ZM142 0Q137 25 135 46T133 93Q133 120 135 139T142 184H938Q943 158 945 139T947 93Q947 67 945 46T938 0H142Z" />
<glyph unicode="&#xb2;" horiz-adv-x="840" d="M117 1292Q141 1380 216 1441T406 1503Q532 1503 609 1428T686 1240Q686 1170 658 1117T591 1027T518 966L426 899Q365 856 331 820T296 753V638H168Q132 679 119 704T105 757Q105 815 151 876T260 987L385 1083Q424
1113 456 1149T488 1237Q488 1282 461 1310T389 1338Q345 1337 313 1305T263 1226Q239 1228 209 1237T154 1260T117 1292ZM709 809Q709 736 696 700T658 651T597 638H194L171 755Q215 775 269 786T386 803T514 809H709Z" />
<glyph unicode="&#xb3;" horiz-adv-x="840" d="M509 912Q509 974 471 1007T380 1040Q360 1040 340 1036T302 1022Q277 1034 255 1064T226 1125Q282 1142 342 1153T454 1164Q521 1164 578 1134T670 1046T705 910Q705 815 658 752T535 658T377 626Q290 626 219 651T101
715Q108 752 129 787T177 845Q216 818 263 800T366 781Q430 781 469 815T509 912ZM532 1203Q500 1174 444 1141T331 1089L226 1125L375 1270Q391 1285 412 1303T452 1334L447 1340Q422 1336 374 1333T295 1330H141Q136 1350 134 1368T132 1401Q132 1420 135 1443T148
1489H632Q645 1466 657 1436T669 1378Q669 1353 659 1334T626 1296L532 1203Z" />
<glyph unicode="&#xb4;" horiz-adv-x="796" d="M467 1490Q515 1475 559 1434T621 1345L273 1077Q243 1086 216 1111T175 1168L467 1490Z" />
<glyph unicode="&#xb5;" horiz-adv-x="1107" d="M230 460V325Q230 232 264 154T363 28T513 -19Q612 -19 682 35T792 172L778 374Q738 285 678 231T539 177Q462 177 418 227T374 366V460H230ZM956 989Q932 994 902 996T841 998Q811 998 781 996T728 989V259Q728
157 776 79T930 -15Q956 2 980 36T1012 101Q981 128 969 177T956 282V989ZM374 989Q350 994 321 996T262 998Q232 998 203 996T149 989V-205Q149 -246 143 -299T113 -391Q141 -413 176 -425T252 -437Q321 -437 341 -396T362 -284V160H374V989Z" />
<glyph unicode="&#xb6;" horiz-adv-x="1374" d="M569 122Q569 38 554 -19T498 -106T379 -135Q332 -135 280 -122T186 -93Q161 -126 147 -177T133 -264Q177 -282 251 -297T400 -313Q553 -313 640 -258T763 -97T799 162V1355L787 1368Q718 1371 664 1373T543 1376Q409
1376 304 1330T138 1188T77 939Q77 791 137 693T300 545T534 496H569V122ZM928 1353L941 1366H1161V-265Q1133 -270 1103 -272T1045 -274Q1021 -274 988 -272T928 -265V1353ZM1046 1366H1322Q1329 1344 1331 1305T1332 1228T1322 1166H1247Q1215 1166 1184 1168T1123
1170H1046V1366Z" />
<glyph unicode="&#xb7;" horiz-adv-x="619" d="M169 527Q169 545 173 578T188 631Q208 643 243 651T309 660Q339 660 375 652T431 631Q441 611 445 578T450 527Q450 509 446 476T431 423Q412 411 376 403T309 395Q278 395 243 403T188 423Q178 443 174 476T169 527Z" />
<glyph unicode="&#xb8;" horiz-adv-x="796" d="M258 -150Q270 -116 291 -67T331 12H465Q455 -2 442 -28T421 -71Q497 -78 549 -125T602 -247Q602 -337 532 -393T354 -450Q307 -450 264 -438T194 -409Q196 -378 208 -349T237 -298Q256 -309 282 -317T336 -325Q380
-325 400 -304T421 -252Q421 -221 401 -200T341 -178Q329 -178 317 -180T295 -187Q283 -182 273 -172T258 -150Z" />
<glyph unicode="&#xb9;" horiz-adv-x="840" d="M555 722H367V1087Q367 1109 369 1145T374 1220T376 1291L374 1487Q399 1492 422 1494T466 1496Q488 1496 507 1494T555 1487V722ZM270 797Q289 797 319 797T367 796H555Q571 796 605 796T656 797H717Q722 779 724
758T727 718Q727 699 725 679T717 638H166Q162 660 160 679T158 718Q158 736 160 757T166 797H270ZM110 1210Q216 1273 275 1337T374 1487L441 1360Q413 1261 352 1198T194 1090Q162 1106 139 1141T110 1210Z" />
<glyph unicode="&#xba;" horiz-adv-x="843" d="M769 885Q769 791 744 707T654 560Q612 518 551 497T421 475Q351 475 291 496T189 560Q126 623 100 707T74 885Q74 978 99 1062T189 1209Q232 1250 291 1271T421 1292Q490 1292 551 1272T654 1209Q717 1144 743 1061T769
885ZM269 885Q269 814 283 756T331 662T422 626Q479 626 512 661T559 755T574 885Q574 956 560 1014T512 1108T422 1143Q365 1143 332 1108T284 1015T269 885Z" />
<glyph unicode="&#xbb;" horiz-adv-x="1132" d="M195 951L592 580Q604 552 604 510T592 440L202 69Q164 80 127 116T77 188L348 506L67 833Q75 858 95 882T143 925T195 951ZM665 951L1062 580Q1074 552 1074 510T1062 440L672 69Q634 80 597 116T546 188L817 506L536
833Q545 858 565 882T612 925T665 951Z" />
<glyph unicode="&#xbc;" horiz-adv-x="2024" d="M555 855H367V1220Q367 1242 369 1278T374 1353T376 1424L374 1620Q399 1625 422 1627T466 1629Q488 1629 507 1627T555 1620V855ZM270 930Q289 930 319 930T367 929H555Q571 929 605 929T656 930H717Q722 912 724
891T727 851Q727 832 725 812T717 771H166Q162 793 160 812T158 851Q158 869 160 890T166 930H270ZM110 1343Q216 1406 275 1470T374 1620L441 1493Q413 1394 352 1331T194 1223Q162 1239 139 1274T110 1343ZM1341 1366Q1370 1374 1414 1376T1501 1376T1563 1366L809
0Q780 -8 735 -10T649 -10T586 0L1341 1366ZM1315 154Q1299 181 1286 212T1273 268Q1273 286 1283 315T1302 360L1531 861Q1574 867 1628 856T1711 820L1571 517Q1559 491 1541 453T1502 376T1461 312L1464 308Q1490 311 1519 312T1574 313T1612 314H1808Q1823
314 1840 314T1873 315H1925Q1928 300 1930 281T1932 243Q1932 220 1929 196T1919 154H1869Q1856 154 1838 154T1807 155H1631Q1616 155 1591 155T1546 154H1315ZM1629 79Q1629 100 1630 119T1631 155V290Q1631 301 1630 322T1629 356V416Q1629 477 1662 515T1752
553H1802L1809 546V409Q1809 387 1808 361T1807 314V155Q1807 138 1808 119T1809 79V2Q1790 -3 1766 -5T1720 -8Q1697 -8 1673 -6T1629 2V79Z" />
<glyph unicode="&#xbd;" horiz-adv-x="2057" d="M555 855H367V1220Q367 1242 369 1278T374 1353T376 1424L374 1620Q399 1625 422 1627T466 1629Q488 1629 507 1627T555 1620V855ZM270 930Q289 930 319 930T367 929H555Q571 929 605 929T656 930H717Q722 912 724
891T727 851Q727 832 725 812T717 771H166Q162 793 160 812T158 851Q158 869 160 890T166 930H270ZM110 1343Q216 1406 275 1470T374 1620L441 1493Q413 1394 352 1331T194 1223Q162 1239 139 1274T110 1343ZM1341 1366Q1370 1374 1414 1376T1501 1376T1563 1366L809
0Q780 -8 735 -10T649 -10T586 0L1341 1366ZM1334 654Q1358 742 1433 803T1623 865Q1749 865 1826 790T1903 602Q1903 532 1875 479T1808 389T1735 328L1643 261Q1582 218 1548 182T1513 115V0H1385Q1349 41 1336 66T1322 119Q1322 177 1368 238T1477 349L1602
445Q1641 475 1673 511T1705 599Q1705 644 1678 672T1606 700Q1562 699 1530 667T1480 588Q1456 590 1426 599T1371 622T1334 654ZM1926 171Q1926 98 1913 62T1875 13T1814 0H1411L1388 117Q1432 137 1486 148T1603 165T1731 171H1926Z" />
<glyph unicode="&#xbe;" horiz-adv-x="1982" d="M509 1045Q509 1107 471 1140T380 1173Q360 1173 340 1169T302 1155Q277 1167 255 1197T226 1258Q282 1275 342 1286T454 1297Q521 1297 578 1267T670 1179T705 1043Q705 948 658 885T535 791T377 759Q290 759 219
784T101 848Q108 885 129 920T177 978Q216 951 263 933T366 914Q430 914 469 948T509 1045ZM532 1336Q500 1307 444 1274T331 1222L226 1258L375 1403Q391 1418 412 1436T452 1467L447 1473Q422 1469 374 1466T295 1463H141Q136 1483 134 1501T132 1534Q132 1553
135 1576T148 1622H632Q645 1599 657 1569T669 1511Q669 1486 659 1467T626 1429L532 1336ZM1296 1366Q1325 1374 1369 1376T1456 1376T1518 1366L764 0Q735 -8 690 -10T604 -10T541 0L1296 1366ZM1273 154Q1257 181 1244 212T1231 268Q1231 286 1241 315T1260
360L1489 861Q1532 867 1586 856T1669 820L1529 517Q1517 491 1499 453T1460 376T1419 312L1422 308Q1448 311 1477 312T1532 313T1570 314H1766Q1781 314 1798 314T1831 315H1883Q1886 300 1888 281T1890 243Q1890 220 1887 196T1877 154H1827Q1814 154 1796 154T1765
155H1589Q1574 155 1549 155T1504 154H1273ZM1587 79Q1587 100 1588 119T1589 155V290Q1589 301 1588 322T1587 356V416Q1587 477 1620 515T1710 553H1760L1767 546V409Q1767 387 1766 361T1765 314V155Q1765 138 1766 119T1767 79V2Q1748 -3 1724 -5T1678 -8Q1655
-8 1631 -6T1587 2V79Z" />
<glyph unicode="&#xbf;" horiz-adv-x="801" d="M792 -302Q711 -348 612 -377T405 -407Q227 -407 126 -312T25 -61Q25 80 100 174T286 328L410 397L427 590Q447 597 468 599T511 602Q533 602 557 600T601 590L614 292L595 268L495 219Q394 168 331 107T267 -37Q267
-114 316 -160T456 -207Q522 -207 586 -185T709 -134Q740 -159 764 -208T792 -302ZM512 758Q479 758 446 765T392 784Q383 799 378 830T373 883Q373 905 378 935T392 981Q413 994 446 1001T512 1008Q586 1008 632 981Q641 966 645 936T650 883Q650 861 646 830T632
784Q611 772 579 765T512 758Z" />
<glyph unicode="&#xc0;" horiz-adv-x="1234" d="M485 1366Q512 1370 552 1372T621 1374Q648 1374 688 1372T753 1365L1198 15Q1173 0 1136 -7T1063 -14Q1007 -14 976 11T923 110L718 768Q691 854 663 955T611 1139H600Q590 1093 576 1037T546 927T519 832L257
-2Q235 -7 210 -8T156 -10Q127 -10 96 -6T43 4L35 17L485 1366ZM468 321Q458 321 432 321T378 322T341 323H228L300 511H400Q410 511 434 511T481 512T515 513H704Q715 513 738 513T787 512T822 511H924L986 323H874Q863 323 836 323T782 322T745 321H468ZM442
1820Q421 1805 400 1775T363 1709T343 1637L788 1456Q817 1474 833 1507T856 1572L442 1820Z" />
<glyph unicode="&#xc1;" horiz-adv-x="1234" d="M485 1366Q512 1370 552 1372T621 1374Q648 1374 688 1372T753 1365L1198 15Q1173 0 1136 -7T1063 -14Q1007 -14 976 11T923 110L718 768Q691 854 663 955T611 1139H600Q590 1093 576 1037T546 927T519 832L257
-2Q235 -7 210 -8T156 -10Q127 -10 96 -6T43 4L35 17L485 1366ZM468 321Q458 321 432 321T378 322T341 323H228L300 511H400Q410 511 434 511T481 512T515 513H704Q715 513 738 513T787 512T822 511H924L986 323H874Q863 323 836 323T782 322T745 321H468ZM823
1820Q844 1805 865 1775T901 1709T920 1637L476 1456Q450 1472 432 1507T409 1572L823 1820Z" />
<glyph unicode="&#xc2;" horiz-adv-x="1234" d="M485 1366Q512 1370 552 1372T621 1374Q648 1374 688 1372T753 1365L1198 15Q1173 0 1136 -7T1063 -14Q1007 -14 976 11T923 110L718 768Q691 854 663 955T611 1139H600Q590 1093 576 1037T546 927T519 832L257
-2Q235 -7 210 -8T156 -10Q127 -10 96 -6T43 4L35 17L485 1366ZM468 321Q458 321 432 321T378 322T341 323H228L300 511H400Q410 511 434 511T481 512T515 513H704Q715 513 738 513T787 512T822 511H924L986 323H874Q863 323 836 323T782 322T745 321H468ZM717
1785L942 1571Q930 1535 900 1509T844 1474L618 1623L391 1474Q366 1482 336 1508T294 1571L518 1785Q539 1788 565 1790T618 1793Q645 1793 670 1791T717 1785Z" />
<glyph unicode="&#xc3;" horiz-adv-x="1234" d="M485 1366Q512 1370 552 1372T621 1374Q648 1374 688 1372T753 1365L1198 15Q1173 0 1136 -7T1063 -14Q1007 -14 976 11T923 110L718 768Q691 854 663 955T611 1139H600Q590 1093 576 1037T546 927T519 832L257
-2Q235 -7 210 -8T156 -10Q127 -10 96 -6T43 4L35 17L485 1366ZM468 321Q458 321 432 321T378 322T341 323H228L300 511H400Q410 511 434 511T481 512T515 513H704Q715 513 738 513T787 512T822 511H924L986 323H874Q863 323 836 323T782 322T745 321H468ZM530
1566Q514 1574 498 1579T465 1584Q445 1584 425 1571T387 1534L365 1506Q332 1507 298 1526T251 1575L266 1609Q298 1681 353 1723T481 1766Q515 1766 546 1756T602 1734L705 1685Q722 1676 740 1671T775 1665Q795 1665 815 1677T853 1714L874 1742Q907 1741 942
1722T989 1673L974 1639Q942 1567 887 1525T759 1482Q724 1482 693 1492T637 1513L530 1566Z" />
<glyph unicode="&#xc4;" horiz-adv-x="1234" d="M485 1366Q512 1370 552 1372T621 1374Q648 1374 688 1372T753 1365L1198 15Q1173 0 1136 -7T1063 -14Q1007 -14 976 11T923 110L718 768Q691 854 663 955T611 1139H600Q590 1093 576 1037T546 927T519 832L257
-2Q235 -7 210 -8T156 -10Q127 -10 96 -6T43 4L35 17L485 1366ZM468 321Q458 321 432 321T378 322T341 323H228L300 511H400Q410 511 434 511T481 512T515 513H704Q715 513 738 513T787 512T822 511H924L986 323H874Q863 323 836 323T782 322T745 321H468ZM834
1486Q806 1486 777 1492T727 1511Q719 1533 716 1556T712 1597Q712 1616 715 1639T727 1684Q748 1697 777 1703T834 1709Q861 1709 890 1703T939 1684Q948 1662 951 1639T955 1597Q955 1580 952 1557T939 1511Q919 1499 890 1493T834 1486ZM406 1486Q379 1486 350
1492T300 1511Q292 1533 289 1556T285 1597Q285 1616 288 1639T300 1684Q321 1697 350 1703T406 1709Q434 1709 463 1703T513 1684Q522 1662 525 1639T528 1597Q528 1580 525 1557T513 1511Q492 1499 463 1493T406 1486Z" />
<glyph unicode="&#xc5;" horiz-adv-x="1234" d="M487 1374H751L1198 15Q1173 0 1136 -7T1063 -14Q1007 -14 976 11T923 110L718 768Q691 854 663 955T611 1139H600Q590 1093 576 1037T546 927T519 832L257 -2Q235 -7 210 -8T156 -10Q127 -10 96 -6T43 4L35 17L487
1374ZM468 321Q458 321 432 321T378 322T341 323H228L300 511H400Q410 511 434 511T481 512T515 513H704Q715 513 738 513T787 512T822 511H924L986 323H874Q863 323 836 323T782 322T745 321H468ZM369 1564Q369 1661 438 1729T620 1797Q731 1797 800 1729T869
1564Q869 1468 800 1400T620 1332Q508 1332 439 1400T369 1564ZM519 1564Q519 1518 547 1488T620 1457Q664 1457 692 1487T720 1564Q720 1611 692 1641T620 1672Q576 1672 548 1642T519 1564Z" />
<glyph unicode="&#xc6;" horiz-adv-x="1757" d="M669 1344Q696 1357 737 1361T810 1366H969L798 1139H787Q759 1066 724 983T658 831L264 -1Q238 -6 208 -8T151 -10Q119 -10 88 -6T34 5L26 17L669 1344ZM518 321Q503 321 479 321T432 322T394 323H301L389 510H474Q495
510 527 511T582 512H696Q712 512 736 512T783 511T820 510H904V323H819Q806 323 783 323T736 322T697 321H518ZM797 1353L810 1366H1022V1174Q1022 1132 1023 1104T1024 1035V303Q1024 274 1023 249T1022 192V-2H930Q868 -2 833 35T797 140V1353ZM1514 786Q1522
764 1524 737T1527 690Q1527 669 1525 643T1514 592H1150Q1127 592 1091 592T1015 594T945 595V783Q976 784 1015 784T1090 785T1150 786H1514ZM1625 1366Q1631 1340 1632 1317T1633 1273Q1633 1253 1629 1224T1615 1168H1150Q1127 1168 1091 1168T1015 1169T945
1171V1366H1625ZM1666 196Q1666 82 1631 40T1512 -2H945V187Q997 190 1045 193T1157 196H1666Z" />
<glyph unicode="&#xc7;" horiz-adv-x="1209" d="M910 880Q911 957 887 1031T805 1155T642 1204Q491 1204 416 1069T340 676Q340 435 424 306T660 177Q756 177 843 218T1013 327Q1050 303 1084 260T1128 176Q1072 120 993 74T819 1T619 -26Q473 -26 373 33T211
193T122 419T94 677Q94 927 170 1085T372 1318T649 1393Q799 1393 908 1338T1077 1193T1137 998Q1137 935 1105 901T1004 866Q978 866 957 869T910 880ZM514 -150Q526 -116 547 -67T587 12H721Q711 -2 698 -28T677 -71Q753 -78 805 -125T858 -247Q858 -337 788
-393T610 -450Q563 -450 520 -438T450 -409Q452 -378 464 -349T493 -298Q512 -309 538 -317T592 -325Q636 -325 656 -304T677 -252Q677 -221 657 -200T597 -178Q585 -178 573 -180T551 -187Q539 -182 529 -172T514 -150Z" />
<glyph unicode="&#xc8;" horiz-adv-x="1135" d="M174 1353L187 1366H403V1174Q403 1132 404 1104T405 1035V302Q405 272 404 248T403 192V-2H309Q246 -2 210 35T174 140V1353ZM893 786Q900 764 902 737T905 690Q905 669 903 643T893 592H532Q509 592 472 592T395
594T324 595V783Q355 784 394 784T471 785T532 786H893ZM1004 1366Q1009 1340 1010 1317T1011 1273Q1011 1253 1007 1224T993 1168H532Q509 1168 472 1168T395 1169T324 1171V1366H1004ZM1045 196Q1045 91 1013 45T890 -2H324V187Q376 190 425 193T538 196H1045ZM420
1820Q399 1805 378 1775T341 1709T321 1637L766 1456Q795 1474 811 1507T834 1572L420 1820Z" />
<glyph unicode="&#xc9;" horiz-adv-x="1135" d="M174 1353L187 1366H403V1174Q403 1132 404 1104T405 1035V302Q405 272 404 248T403 192V-2H309Q246 -2 210 35T174 140V1353ZM893 786Q900 764 902 737T905 690Q905 669 903 643T893 592H532Q509 592 472 592T395
594T324 595V783Q355 784 394 784T471 785T532 786H893ZM1004 1366Q1009 1340 1010 1317T1011 1273Q1011 1253 1007 1224T993 1168H532Q509 1168 472 1168T395 1169T324 1171V1366H1004ZM1045 196Q1045 91 1013 45T890 -2H324V187Q376 190 425 193T538 196H1045ZM801
1820Q822 1805 843 1775T879 1709T898 1637L454 1456Q428 1472 410 1507T387 1572L801 1820Z" />
<glyph unicode="&#xca;" horiz-adv-x="1135" d="M174 1353L187 1366H403V1174Q403 1132 404 1104T405 1035V302Q405 272 404 248T403 192V-2H309Q246 -2 210 35T174 140V1353ZM893 786Q900 764 902 737T905 690Q905 669 903 643T893 592H532Q509 592 472 592T395
594T324 595V783Q355 784 394 784T471 785T532 786H893ZM1004 1366Q1009 1340 1010 1317T1011 1273Q1011 1253 1007 1224T993 1168H532Q509 1168 472 1168T395 1169T324 1171V1366H1004ZM1045 196Q1045 91 1013 45T890 -2H324V187Q376 190 425 193T538 196H1045ZM696
1785L921 1571Q909 1535 879 1509T823 1474L597 1623L370 1474Q345 1482 315 1508T273 1571L497 1785Q518 1788 544 1790T597 1793Q624 1793 649 1791T696 1785Z" />
<glyph unicode="&#xcb;" horiz-adv-x="1135" d="M174 1353L187 1366H403V1174Q403 1132 404 1104T405 1035V302Q405 272 404 248T403 192V-2H309Q246 -2 210 35T174 140V1353ZM893 786Q900 764 902 737T905 690Q905 669 903 643T893 592H532Q509 592 472 592T395
594T324 595V783Q355 784 394 784T471 785T532 786H893ZM1004 1366Q1009 1340 1010 1317T1011 1273Q1011 1253 1007 1224T993 1168H532Q509 1168 472 1168T395 1169T324 1171V1366H1004ZM1045 196Q1045 91 1013 45T890 -2H324V187Q376 190 425 193T538 196H1045ZM812
1486Q784 1486 755 1492T705 1511Q697 1533 694 1556T690 1597Q690 1616 693 1639T705 1684Q726 1697 755 1703T812 1709Q839 1709 868 1703T917 1684Q926 1662 929 1639T933 1597Q933 1580 930 1557T917 1511Q897 1499 868 1493T812 1486ZM384 1486Q357 1486 328
1492T278 1511Q270 1533 267 1556T263 1597Q263 1616 266 1639T278 1684Q299 1697 328 1703T384 1709Q412 1709 441 1703T491 1684Q500 1662 503 1639T506 1597Q506 1580 503 1557T491 1511Q470 1499 441 1493T384 1486Z" />
<glyph unicode="&#xcc;" horiz-adv-x="596" d="M181 1366Q207 1371 240 1372T297 1374Q324 1374 356 1373T415 1366V0Q388 -5 356 -6T297 -8Q273 -8 240 -7T181 0V1366ZM120 1821Q99 1806 78 1776T41 1710T21 1638L466 1457Q495 1475 511 1508T534 1573L120 1821Z" />
<glyph unicode="&#xcd;" horiz-adv-x="596" d="M181 1366Q207 1371 240 1372T297 1374Q324 1374 356 1373T415 1366V0Q388 -5 356 -6T297 -8Q273 -8 240 -7T181 0V1366ZM501 1821Q522 1806 543 1776T579 1710T598 1638L154 1457Q128 1473 110 1508T87 1573L501 1821Z" />
<glyph unicode="&#xce;" horiz-adv-x="596" d="M181 1366Q207 1371 240 1372T297 1374Q324 1374 356 1373T415 1366V0Q388 -5 356 -6T297 -8Q273 -8 240 -7T181 0V1366ZM396 1786L621 1572Q609 1536 579 1510T523 1475L297 1624L70 1475Q45 1483 15 1509T-27 1572L197
1786Q218 1789 244 1791T297 1794Q324 1794 349 1792T396 1786Z" />
<glyph unicode="&#xcf;" horiz-adv-x="596" d="M181 1366Q207 1371 240 1372T297 1374Q324 1374 356 1373T415 1366V0Q388 -5 356 -6T297 -8Q273 -8 240 -7T181 0V1366ZM512 1487Q484 1487 455 1493T405 1512Q397 1534 394 1557T390 1598Q390 1617 393 1640T405
1685Q426 1698 455 1704T512 1710Q539 1710 568 1704T617 1685Q626 1663 629 1640T633 1598Q633 1581 630 1558T617 1512Q597 1500 568 1494T512 1487ZM84 1487Q57 1487 28 1493T-22 1512Q-30 1534 -33 1557T-37 1598Q-37 1617 -34 1640T-22 1685Q-1 1698 28 1704T84
1710Q112 1710 141 1704T191 1685Q200 1663 203 1640T206 1598Q206 1581 203 1558T191 1512Q170 1500 141 1494T84 1487Z" />
<glyph unicode="&#xd0;" horiz-adv-x="1335" d="M1239 684Q1239 567 1224 460T1162 259T1025 92Q981 56 919 34T792 1T673 -10Q591 -10 521 -9T378 -6T219 -2L206 11V1355L219 1368Q306 1371 378 1372T520 1374T673 1374Q727 1374 791 1364T918 1332T1025 1273Q1115
1199 1161 1106T1223 907T1239 684ZM996 684Q996 771 985 859T940 1022T842 1142T672 1188Q611 1188 557 1188T436 1190V178Q502 178 556 178T672 177Q778 177 842 223T939 344T984 508T996 684ZM57 596Q51 618 49 641T47 690Q47 715 49 740T57 789H735Q740 766
742 743T744 692Q744 665 742 642T735 596H57Z" />
<glyph unicode="&#xd1;" horiz-adv-x="1366" d="M175 1364Q204 1369 246 1371T314 1374Q341 1374 379 1373T453 1366L392 1095L375 1091Q380 1018 384 928T390 747T393 579V0Q364 -5 337 -6T286 -8Q264 -8 234 -7T175 0V1364ZM506 814Q471 889 440 960T382 1093L272
1224L453 1366L853 553Q892 472 925 397T985 260L1102 137L910 0L506 814ZM1191 1364V2Q1172 -1 1147 -3T1096 -7T1050 -8Q1020 -8 983 -7T910 0L974 259L992 262Q987 345 983 439T976 624T974 783V1231Q974 1308 1002 1341T1101 1375H1178L1191 1364ZM599 1566Q583
1574 567 1579T534 1584Q514 1584 494 1571T456 1534L434 1506Q401 1507 367 1526T320 1575L335 1609Q367 1681 422 1723T550 1766Q584 1766 615 1756T671 1734L774 1685Q791 1676 809 1671T844 1665Q864 1665 884 1677T922 1714L943 1742Q976 1741 1011 1722T1058
1673L1043 1639Q1011 1567 956 1525T828 1482Q793 1482 762 1492T706 1513L599 1566Z" />
<glyph unicode="&#xd2;" horiz-adv-x="1319" d="M339 684Q339 596 351 504T398 333T495 207T659 158Q761 158 823 206T920 333T966 503T979 684Q979 772 967 864T920 1034T824 1160T659 1208Q558 1208 495 1160T398 1034T352 864T339 684ZM94 684Q94 888 155 1048T341
1300T659 1392Q804 1392 910 1339T1087 1191T1191 966T1225 684Q1225 479 1164 319T977 66T659 -26Q515 -26 408 27T232 176T128 401T94 684ZM482 1820Q461 1805 440 1775T403 1709T383 1637L828 1456Q857 1474 873 1507T896 1572L482 1820Z" />
<glyph unicode="&#xd3;" horiz-adv-x="1319" d="M339 684Q339 596 351 504T398 333T495 207T659 158Q761 158 823 206T920 333T966 503T979 684Q979 772 967 864T920 1034T824 1160T659 1208Q558 1208 495 1160T398 1034T352 864T339 684ZM94 684Q94 888 155 1048T341
1300T659 1392Q804 1392 910 1339T1087 1191T1191 966T1225 684Q1225 479 1164 319T977 66T659 -26Q515 -26 408 27T232 176T128 401T94 684ZM862 1820Q883 1805 904 1775T940 1709T959 1637L515 1456Q489 1472 471 1507T448 1572L862 1820Z" />
<glyph unicode="&#xd4;" horiz-adv-x="1319" d="M339 684Q339 596 351 504T398 333T495 207T659 158Q761 158 823 206T920 333T966 503T979 684Q979 772 967 864T920 1034T824 1160T659 1208Q558 1208 495 1160T398 1034T352 864T339 684ZM94 684Q94 888 155 1048T341
1300T659 1392Q804 1392 910 1339T1087 1191T1191 966T1225 684Q1225 479 1164 319T977 66T659 -26Q515 -26 408 27T232 176T128 401T94 684ZM757 1785L982 1571Q970 1535 940 1509T884 1474L658 1623L431 1474Q406 1482 376 1508T334 1571L558 1785Q579 1788 605
1790T658 1793Q685 1793 710 1791T757 1785Z" />
<glyph unicode="&#xd5;" horiz-adv-x="1319" d="M339 684Q339 596 351 504T398 333T495 207T659 158Q761 158 823 206T920 333T966 503T979 684Q979 772 967 864T920 1034T824 1160T659 1208Q558 1208 495 1160T398 1034T352 864T339 684ZM94 684Q94 888 155 1048T341
1300T659 1392Q804 1392 910 1339T1087 1191T1191 966T1225 684Q1225 479 1164 319T977 66T659 -26Q515 -26 408 27T232 176T128 401T94 684ZM569 1566Q553 1574 537 1579T504 1584Q484 1584 464 1571T426 1534L404 1506Q371 1507 337 1526T290 1575L305 1609Q337
1681 392 1723T520 1766Q554 1766 585 1756T641 1734L744 1685Q761 1676 779 1671T814 1665Q834 1665 854 1677T892 1714L913 1742Q946 1741 981 1722T1028 1673L1013 1639Q981 1567 926 1525T798 1482Q763 1482 732 1492T676 1513L569 1566Z" />
<glyph unicode="&#xd6;" horiz-adv-x="1319" d="M339 684Q339 596 351 504T398 333T495 207T659 158Q761 158 823 206T920 333T966 503T979 684Q979 772 967 864T920 1034T824 1160T659 1208Q558 1208 495 1160T398 1034T352 864T339 684ZM94 684Q94 888 155 1048T341
1300T659 1392Q804 1392 910 1339T1087 1191T1191 966T1225 684Q1225 479 1164 319T977 66T659 -26Q515 -26 408 27T232 176T128 401T94 684ZM873 1486Q845 1486 816 1492T766 1511Q758 1533 755 1556T751 1597Q751 1616 754 1639T766 1684Q787 1697 816 1703T873
1709Q900 1709 929 1703T978 1684Q987 1662 990 1639T994 1597Q994 1580 991 1557T978 1511Q958 1499 929 1493T873 1486ZM445 1486Q418 1486 389 1492T339 1511Q331 1533 328 1556T324 1597Q324 1616 327 1639T339 1684Q360 1697 389 1703T445 1709Q473 1709 502
1703T552 1684Q561 1662 564 1639T567 1597Q567 1580 564 1557T552 1511Q531 1499 502 1493T445 1486Z" />
<glyph unicode="&#xd7;" horiz-adv-x="1080" d="M336 695Q355 676 377 655T417 616L526 507Q544 489 565 467T605 426L792 238Q814 248 836 263T875 295Q910 330 932 377L744 565Q725 584 703 604T662 645L554 752Q535 771 515 793T475 833L287 1022Q265 1012
244 998T205 965Q187 946 173 926T148 882L336 695ZM475 426Q494 445 514 466T554 507L662 615Q681 634 703 654T744 694L932 882Q911 928 873 965Q856 983 835 997T792 1021L605 832Q586 814 565 792T526 752L417 643Q399 625 377 604T336 564L148 377Q158 353
173 333T206 295Q222 279 243 264T287 237L475 426Z" />
<glyph unicode="&#xd8;" horiz-adv-x="1323" d="M876 1282L991 1483Q1032 1477 1075 1454T1142 1400L1006 1158L448 87L332 -114Q292 -108 249 -85T181 -32L318 210L876 1282ZM332 684Q332 595 345 502T395 330T495 203T661 154Q764 154 828 202T928 330T977 502T990
684Q990 773 977 865T929 1036T829 1163T661 1212Q559 1212 495 1164T395 1037T346 866T332 684ZM94 684Q94 887 155 1047T343 1299T661 1392Q855 1392 981 1299T1168 1046T1229 684Q1229 481 1168 321T981 67T661 -26Q516 -26 409 28T232 178T128 404T94 684Z"
/>
<glyph unicode="&#xd9;" horiz-adv-x="1340" d="M1183 484Q1183 319 1120 205T942 33T669 -26Q513 -26 398 32T220 205T157 484V1362L170 1375H259Q329 1375 360 1340T392 1226V484Q392 325 461 244T670 162Q810 162 879 243T948 484V1366Q975 1371 1006 1372T1062
1374Q1087 1374 1121 1373T1183 1366V484ZM489 1820Q468 1805 447 1775T410 1709T390 1637L835 1456Q864 1474 880 1507T903 1572L489 1820Z" />
<glyph unicode="&#xda;" horiz-adv-x="1340" d="M1183 484Q1183 319 1120 205T942 33T669 -26Q513 -26 398 32T220 205T157 484V1362L170 1375H259Q329 1375 360 1340T392 1226V484Q392 325 461 244T670 162Q810 162 879 243T948 484V1366Q975 1371 1006 1372T1062
1374Q1087 1374 1121 1373T1183 1366V484ZM870 1820Q891 1805 912 1775T948 1709T967 1637L523 1456Q497 1472 479 1507T456 1572L870 1820Z" />
<glyph unicode="&#xdb;" horiz-adv-x="1340" d="M1183 484Q1183 319 1120 205T942 33T669 -26Q513 -26 398 32T220 205T157 484V1362L170 1375H259Q329 1375 360 1340T392 1226V484Q392 325 461 244T670 162Q810 162 879 243T948 484V1366Q975 1371 1006 1372T1062
1374Q1087 1374 1121 1373T1183 1366V484ZM764 1785L989 1571Q977 1535 947 1509T891 1474L665 1623L438 1474Q413 1482 383 1508T341 1571L565 1785Q586 1788 612 1790T665 1793Q692 1793 717 1791T764 1785Z" />
<glyph unicode="&#xdc;" horiz-adv-x="1340" d="M1183 484Q1183 319 1120 205T942 33T669 -26Q513 -26 398 32T220 205T157 484V1362L170 1375H259Q329 1375 360 1340T392 1226V484Q392 325 461 244T670 162Q810 162 879 243T948 484V1366Q975 1371 1006 1372T1062
1374Q1087 1374 1121 1373T1183 1366V484ZM881 1486Q853 1486 824 1492T774 1511Q766 1533 763 1556T759 1597Q759 1616 762 1639T774 1684Q795 1697 824 1703T881 1709Q908 1709 937 1703T986 1684Q995 1662 998 1639T1002 1597Q1002 1580 999 1557T986 1511Q966
1499 937 1493T881 1486ZM453 1486Q426 1486 397 1492T347 1511Q339 1533 336 1556T332 1597Q332 1616 335 1639T347 1684Q368 1697 397 1703T453 1709Q481 1709 510 1703T560 1684Q569 1662 572 1639T575 1597Q575 1580 572 1557T560 1511Q539 1499 510 1493T453
1486Z" />
<glyph unicode="&#xdd;" horiz-adv-x="1022" d="M395 576H629V0Q602 -5 570 -6T512 -8Q488 -8 455 -7T395 0V576ZM789 1366Q813 1372 838 1374T887 1376Q917 1376 947 1372T1001 1360L1011 1344L612 393H415L13 1339Q49 1359 86 1370T159 1381Q209 1381 236 1357T284
1282L430 926Q452 872 474 803T515 669H526Q538 712 554 760T587 855T616 932L789 1366ZM721 1820Q742 1805 763 1775T799 1709T818 1637L374 1456Q348 1472 330 1507T307 1572L721 1820Z" />
<glyph unicode="&#xde;" horiz-adv-x="1150" d="M291 1161Q370 1164 448 1166T606 1168Q742 1168 847 1122T1013 978T1074 728Q1074 580 1014 482T848 335T606 286H291V466Q315 467 357 468T447 470T535 471T595 472Q692 472 742 512T812 611T831 728Q831 786
812 845T743 944T595 983Q566 983 512 984T397 986T291 987V1161ZM175 1366Q201 1371 234 1372T291 1374Q318 1374 350 1373T410 1366V0Q383 -5 351 -6T291 -8Q268 -8 235 -7T175 0V1366Z" />
<glyph unicode="&#xdf;" horiz-adv-x="1266" d="M315 945L316 772L34 767Q29 787 27 813T25 860Q25 880 27 904T34 949L315 945ZM206 1010Q206 1137 262 1223T419 1353T650 1398Q788 1398 889 1349T1046 1210T1102 1001Q1102 961 1095 921T1071 841L828 823Q851
861 861 903T871 991Q871 1053 847 1105T774 1190T649 1223Q539 1223 488 1159T437 986V0Q412 -4 381 -6T321 -8Q294 -8 263 -6T206 0V1010ZM574 44Q576 81 595 129T644 205Q685 177 732 163T819 148Q884 148 922 179T961 260Q961 298 940 331T885 393L805 462Q773
490 743 523T694 596T674 686Q674 765 731 833T883 934L1071 840Q987 820 951 778T915 699Q915 664 938 637T982 593L1057 528Q1126 468 1164 401T1203 263Q1203 175 1159 110T1033 10T846 -26Q779 -26 705 -9T574 44Z" />
<glyph unicode="&#xe0;" horiz-adv-x="1016" d="M82 269Q82 385 133 459T272 568T467 604Q521 604 591 600T721 582V431Q670 443 604 446T484 450Q398 450 352 406T306 285Q306 228 339 189T433 150Q503 150 580 199T711 342L745 177Q709 134 657 87T535 7T378
-26Q278 -26 212 18T114 130T82 269ZM930 103Q923 72 900 37T850 -15Q782 -5 739 30T675 114T649 216V663Q649 750 609 789T492 829Q419 829 340 807T181 756Q155 783 138 830T119 921Q177 946 250 966T399 999T543 1011Q639 1011 713 976T831 867T874 675V265Q874
212 886 171T930 103ZM374 1490Q327 1475 282 1434T221 1345L568 1077Q598 1086 625 1111T666 1168L374 1490Z" />
<glyph unicode="&#xe1;" horiz-adv-x="1016" d="M82 269Q82 385 133 459T272 568T467 604Q521 604 591 600T721 582V431Q670 443 604 446T484 450Q398 450 352 406T306 285Q306 228 339 189T433 150Q503 150 580 199T711 342L745 177Q709 134 657 87T535 7T378
-26Q278 -26 212 18T114 130T82 269ZM930 103Q923 72 900 37T850 -15Q782 -5 739 30T675 114T649 216V663Q649 750 609 789T492 829Q419 829 340 807T181 756Q155 783 138 830T119 921Q177 946 250 966T399 999T543 1011Q639 1011 713 976T831 867T874 675V265Q874
212 886 171T930 103ZM626 1490Q674 1475 718 1434T780 1345L432 1077Q402 1086 375 1111T334 1168L626 1490Z" />
<glyph unicode="&#xe2;" horiz-adv-x="1016" d="M82 269Q82 385 133 459T272 568T467 604Q521 604 591 600T721 582V431Q670 443 604 446T484 450Q398 450 352 406T306 285Q306 228 339 189T433 150Q503 150 580 199T711 342L745 177Q709 134 657 87T535 7T378
-26Q278 -26 212 18T114 130T82 269ZM930 103Q923 72 900 37T850 -15Q782 -5 739 30T675 114T649 216V663Q649 750 609 789T492 829Q419 829 340 807T181 756Q155 783 138 830T119 921Q177 946 250 966T399 999T543 1011Q639 1011 713 976T831 867T874 675V265Q874
212 886 171T930 103ZM592 1444L785 1192Q770 1156 738 1130T679 1095L493 1275L308 1095Q281 1103 249 1129T202 1192L394 1444Q414 1449 440 1452T493 1456Q521 1456 547 1453T592 1444Z" />
<glyph unicode="&#xe3;" horiz-adv-x="1016" d="M82 269Q82 385 133 459T272 568T467 604Q521 604 591 600T721 582V431Q670 443 604 446T484 450Q398 450 352 406T306 285Q306 228 339 189T433 150Q503 150 580 199T711 342L745 177Q709 134 657 87T535 7T378
-26Q278 -26 212 18T114 130T82 269ZM930 103Q923 72 900 37T850 -15Q782 -5 739 30T675 114T649 216V663Q649 750 609 789T492 829Q419 829 340 807T181 756Q155 783 138 830T119 921Q177 946 250 966T399 999T543 1011Q639 1011 713 976T831 867T874 675V265Q874
212 886 171T930 103ZM618 1114Q584 1114 555 1124T502 1145L418 1191Q408 1197 391 1204T354 1211Q323 1211 305 1193T276 1162L254 1134Q222 1135 190 1154T145 1204L162 1242Q193 1311 246 1353T367 1395Q403 1395 433 1385T482 1363L567 1318Q577 1313 594
1305T633 1297Q661 1297 679 1314T709 1347L730 1375Q763 1374 794 1355T839 1304L822 1265Q791 1194 737 1154T618 1114Z" />
<glyph unicode="&#xe4;" horiz-adv-x="1016" d="M82 269Q82 385 133 459T272 568T467 604Q521 604 591 600T721 582V431Q670 443 604 446T484 450Q398 450 352 406T306 285Q306 228 339 189T433 150Q503 150 580 199T711 342L745 177Q709 134 657 87T535 7T378
-26Q278 -26 212 18T114 130T82 269ZM930 103Q923 72 900 37T850 -15Q782 -5 739 30T675 114T649 216V663Q649 750 609 789T492 829Q419 829 340 807T181 756Q155 783 138 830T119 921Q177 946 250 966T399 999T543 1011Q639 1011 713 976T831 867T874 675V265Q874
212 886 171T930 103ZM183 1234Q183 1253 186 1276T198 1318Q217 1330 246 1336T302 1343Q328 1343 357 1337T406 1318Q414 1300 417 1277T421 1234Q421 1215 418 1192T406 1150Q386 1139 357 1132T302 1125Q276 1125 247 1132T198 1150Q190 1168 187 1191T183
1234ZM561 1234Q561 1253 564 1276T576 1318Q596 1330 625 1336T680 1343Q706 1343 735 1337T783 1318Q792 1300 795 1277T799 1234Q799 1215 796 1192T783 1150Q765 1139 736 1132T680 1125Q654 1125 625 1132T576 1150Q568 1168 565 1191T561 1234Z" />
<glyph unicode="&#xe5;" horiz-adv-x="1016" d="M82 269Q82 385 133 459T272 568T467 604Q521 604 591 600T721 582V431Q670 443 604 446T484 450Q398 450 352 406T306 285Q306 228 339 189T433 150Q503 150 580 199T711 342L745 177Q709 134 657 87T535 7T378
-26Q278 -26 212 18T114 130T82 269ZM930 103Q923 72 900 37T850 -15Q782 -5 739 30T675 114T649 216V663Q649 750 609 789T492 829Q419 829 340 807T181 756Q155 783 138 830T119 921Q177 946 250 966T399 999T543 1011Q639 1011 713 976T831 867T874 675V265Q874
212 886 171T930 103ZM241 1312Q241 1216 310 1148T491 1079Q602 1079 671 1147T741 1312Q741 1408 672 1476T491 1544Q380 1544 311 1476T241 1312ZM391 1312Q391 1358 419 1389T491 1420Q535 1420 563 1389T591 1312Q591 1266 563 1235T491 1204Q447 1204 419
1235T391 1312Z" />
<glyph unicode="&#xe6;" horiz-adv-x="1553" d="M82 270Q82 386 133 459T272 568T467 604Q526 604 593 599T721 582V429Q668 440 603 445T484 450Q398 450 352 406T306 286Q306 229 339 190T433 150Q482 150 535 172T638 239T723 355L772 180Q735 131 677 84T544
5T378 -26Q278 -26 212 17T114 129T82 270ZM649 493V663Q649 750 609 789T493 829Q420 829 341 808T181 756Q155 783 138 830T119 921Q206 957 319 984T530 1011Q629 1011 701 973T812 860T852 671V493H649ZM788 422V585H1247V608Q1247 674 1230 728T1172 816T1065
850Q968 850 923 769T877 538V473Q877 385 894 313T959 198T1097 156Q1170 156 1238 177T1370 229Q1397 203 1414 162T1438 86Q1365 34 1266 4T1061 -26Q860 -26 755 106T648 493Q648 585 673 677T749 846T880 970T1066 1016Q1196 1016 1285 960T1419 807T1465
591Q1465 539 1461 503T1448 422H788Z" />
<glyph unicode="&#xe7;" horiz-adv-x="944" d="M666 596Q668 663 656 719T607 809T502 843Q412 843 365 756T317 490Q317 314 373 236T532 157Q599 157 659 187T771 255Q801 237 829 198T865 122Q797 55 702 15T497 -26Q390 -26 312 14T183 125T108 289T83 490Q83
630 118 730T215 893T351 986T507 1016Q597 1016 665 990T781 919T851 820T875 709Q875 651 847 619T760 587Q708 587 666 596ZM368 -150Q380 -116 401 -67T441 12H575Q565 -2 552 -28T531 -71Q607 -78 659 -125T712 -247Q712 -337 642 -393T464 -450Q417 -450
374 -438T304 -409Q306 -378 318 -349T347 -298Q366 -309 392 -317T446 -325Q490 -325 510 -304T531 -252Q531 -221 511 -200T451 -178Q439 -178 427 -180T405 -187Q393 -182 383 -172T368 -150Z" />
<glyph unicode="&#xe8;" horiz-adv-x="999" d="M226 422V585H690V611Q690 676 672 730T613 817T505 850Q409 850 363 769T316 543V473Q316 385 334 313T399 198T536 156Q611 156 680 177T811 229Q839 203 857 162T880 86Q808 34 707 4T501 -26Q380 -26 299 16T171
132T103 298T83 492Q83 641 129 759T269 947T506 1016Q636 1016 725 960T861 807T907 591Q907 539 903 503T889 422H226ZM393 1490Q346 1475 301 1434T240 1345L587 1077Q617 1086 644 1111T685 1168L393 1490Z" />
<glyph unicode="&#xe9;" horiz-adv-x="999" d="M226 422V585H690V611Q690 676 672 730T613 817T505 850Q409 850 363 769T316 543V473Q316 385 334 313T399 198T536 156Q611 156 680 177T811 229Q839 203 857 162T880 86Q808 34 707 4T501 -26Q380 -26 299 16T171
132T103 298T83 492Q83 641 129 759T269 947T506 1016Q636 1016 725 960T861 807T907 591Q907 539 903 503T889 422H226ZM645 1490Q693 1475 737 1434T799 1345L451 1077Q421 1086 394 1111T353 1168L645 1490Z" />
<glyph unicode="&#xea;" horiz-adv-x="999" d="M226 422V585H690V611Q690 676 672 730T613 817T505 850Q409 850 363 769T316 543V473Q316 385 334 313T399 198T536 156Q611 156 680 177T811 229Q839 203 857 162T880 86Q808 34 707 4T501 -26Q380 -26 299 16T171
132T103 298T83 492Q83 641 129 759T269 947T506 1016Q636 1016 725 960T861 807T907 591Q907 539 903 503T889 422H226ZM611 1444L804 1192Q789 1156 757 1130T698 1095L512 1275L327 1095Q300 1103 268 1129T221 1192L413 1444Q433 1449 459 1452T512 1456Q540
1456 566 1453T611 1444Z" />
<glyph unicode="&#xeb;" horiz-adv-x="999" d="M226 422V585H690V611Q690 676 672 730T613 817T505 850Q409 850 363 769T316 543V473Q316 385 334 313T399 198T536 156Q611 156 680 177T811 229Q839 203 857 162T880 86Q808 34 707 4T501 -26Q380 -26 299 16T171
132T103 298T83 492Q83 641 129 759T269 947T506 1016Q636 1016 725 960T861 807T907 591Q907 539 903 503T889 422H226ZM202 1234Q202 1253 205 1276T217 1318Q236 1330 265 1336T321 1343Q347 1343 376 1337T425 1318Q433 1300 436 1277T440 1234Q440 1215 437
1192T425 1150Q405 1139 376 1132T321 1125Q295 1125 266 1132T217 1150Q209 1168 206 1191T202 1234ZM580 1234Q580 1253 583 1276T595 1318Q615 1330 644 1336T699 1343Q725 1343 754 1337T802 1318Q811 1300 814 1277T818 1234Q818 1215 815 1192T802 1150Q784
1139 755 1132T699 1125Q673 1125 644 1132T595 1150Q587 1168 584 1191T580 1234Z" />
<glyph unicode="&#xec;" horiz-adv-x="553" d="M407 0Q384 -4 355 -6T294 -8Q264 -8 234 -6T180 0V719Q180 771 161 798T92 825H67Q58 865 58 905Q58 924 60 945T67 987Q107 992 143 994T205 996H234Q315 996 361 946T407 807V0ZM139 1490Q92 1475 47 1434T-14
1345L333 1077Q363 1086 390 1111T431 1168L139 1490Z" />
<glyph unicode="&#xed;" horiz-adv-x="553" d="M407 0Q384 -4 355 -6T294 -8Q264 -8 234 -6T180 0V719Q180 771 161 798T92 825H67Q58 865 58 905Q58 924 60 945T67 987Q107 992 143 994T205 996H234Q315 996 361 946T407 807V0ZM391 1490Q439 1475 483 1434T545
1345L197 1077Q167 1086 140 1111T99 1168L391 1490Z" />
<glyph unicode="&#xee;" horiz-adv-x="553" d="M407 0Q384 -4 355 -6T294 -8Q264 -8 234 -6T180 0V719Q180 771 161 798T92 825H67Q58 865 58 905Q58 924 60 945T67 987Q107 992 143 994T205 996H234Q315 996 361 946T407 807V0ZM357 1444L550 1192Q535 1156 503
1130T444 1095L258 1275L73 1095Q46 1103 14 1129T-33 1192L159 1444Q179 1449 205 1452T258 1456Q286 1456 312 1453T357 1444Z" />
<glyph unicode="&#xef;" horiz-adv-x="553" d="M407 0Q384 -4 355 -6T294 -8Q264 -8 234 -6T180 0V719Q180 771 161 798T92 825H67Q58 865 58 905Q58 924 60 945T67 987Q107 992 143 994T205 996H234Q315 996 361 946T407 807V0ZM-52 1234Q-52 1253 -49 1276T-37
1318Q-18 1330 11 1336T67 1343Q93 1343 122 1337T171 1318Q179 1300 182 1277T186 1234Q186 1215 183 1192T171 1150Q151 1139 122 1132T67 1125Q41 1125 12 1132T-37 1150Q-45 1168 -48 1191T-52 1234ZM326 1234Q326 1253 329 1276T341 1318Q361 1330 390 1336T445
1343Q471 1343 500 1337T548 1318Q557 1300 560 1277T564 1234Q564 1215 561 1192T548 1150Q530 1139 501 1132T445 1125Q419 1125 390 1132T341 1150Q333 1168 330 1191T326 1234Z" />
<glyph unicode="&#xf0;" horiz-adv-x="1039" d="M957 492Q957 339 907 223T759 40T518 -26Q375 -26 278 40T131 221T82 482Q82 626 132 737T277 911T505 974Q589 974 664 934T786 844V671Q740 728 671 767T520 806Q443 806 398 763T334 647T315 480Q315 395 332
318T394 192T519 143Q600 143 644 193T705 322T723 492Q723 619 706 701T659 855Q649 954 584 1049T424 1223T227 1355Q234 1397 259 1438T317 1497Q522 1411 664 1265T882 923T957 492ZM715 1488Q740 1471 765 1438T795 1373L294 1028Q268 1046 244 1079T214 1143L715
1488Z" />
<glyph unicode="&#xf1;" horiz-adv-x="1092" d="M247 999Q317 999 346 956T376 836V0Q353 -4 323 -6T263 -8Q233 -8 203 -6T149 0V986L162 999H247ZM951 219Q951 166 958 118T987 35Q963 14 925 0T844 -14Q777 -14 750 22T723 130V622Q723 716 699 759T607 802Q560
802 506 780T401 714T319 611V825Q387 900 481 953T683 1007Q776 1007 835 963T922 844T951 674V219ZM684 1114Q650 1114 621 1124T568 1145L484 1191Q474 1197 457 1204T420 1211Q389 1211 371 1193T342 1162L320 1134Q288 1135 256 1154T211 1204L228 1242Q259
1311 312 1353T433 1395Q469 1395 499 1385T548 1363L633 1318Q643 1313 660 1305T699 1297Q727 1297 745 1314T775 1347L796 1375Q829 1374 860 1355T905 1304L888 1265Q857 1194 803 1154T684 1114Z" />
<glyph unicode="&#xf2;" horiz-adv-x="1041" d="M958 495Q958 341 908 223T761 40T520 -26Q376 -26 278 40T132 224T83 495Q83 649 132 766T279 950T520 1016Q665 1016 762 950T909 766T958 495ZM317 495Q317 404 334 325T396 196T521 146Q602 146 645 195T706
324T723 495Q723 586 706 665T646 794T521 844Q440 844 396 795T335 666T317 495ZM403 1490Q356 1475 311 1434T250 1345L597 1077Q627 1086 654 1111T695 1168L403 1490Z" />
<glyph unicode="&#xf3;" horiz-adv-x="1041" d="M958 495Q958 341 908 223T761 40T520 -26Q376 -26 278 40T132 224T83 495Q83 649 132 766T279 950T520 1016Q665 1016 762 950T909 766T958 495ZM317 495Q317 404 334 325T396 196T521 146Q602 146 645 195T706
324T723 495Q723 586 706 665T646 794T521 844Q440 844 396 795T335 666T317 495ZM655 1490Q703 1475 747 1434T809 1345L461 1077Q431 1086 404 1111T363 1168L655 1490Z" />
<glyph unicode="&#xf4;" horiz-adv-x="1041" d="M958 495Q958 341 908 223T761 40T520 -26Q376 -26 278 40T132 224T83 495Q83 649 132 766T279 950T520 1016Q665 1016 762 950T909 766T958 495ZM317 495Q317 404 334 325T396 196T521 146Q602 146 645 195T706
324T723 495Q723 586 706 665T646 794T521 844Q440 844 396 795T335 666T317 495ZM621 1444L814 1192Q799 1156 767 1130T708 1095L522 1275L337 1095Q310 1103 278 1129T231 1192L423 1444Q443 1449 469 1452T522 1456Q550 1456 576 1453T621 1444Z" />
<glyph unicode="&#xf5;" horiz-adv-x="1041" d="M958 495Q958 341 908 223T761 40T520 -26Q376 -26 278 40T132 224T83 495Q83 649 132 766T279 950T520 1016Q665 1016 762 950T909 766T958 495ZM317 495Q317 404 334 325T396 196T521 146Q602 146 645 195T706
324T723 495Q723 586 706 665T646 794T521 844Q440 844 396 795T335 666T317 495ZM646 1114Q612 1114 583 1124T530 1145L446 1191Q436 1197 419 1204T382 1211Q351 1211 333 1193T304 1162L282 1134Q250 1135 218 1154T173 1204L190 1242Q221 1311 274 1353T395
1395Q431 1395 461 1385T510 1363L595 1318Q605 1313 622 1305T661 1297Q689 1297 707 1314T737 1347L758 1375Q791 1374 822 1355T867 1304L850 1265Q819 1194 765 1154T646 1114Z" />
<glyph unicode="&#xf6;" horiz-adv-x="1041" d="M958 495Q958 341 908 223T761 40T520 -26Q376 -26 278 40T132 224T83 495Q83 649 132 766T279 950T520 1016Q665 1016 762 950T909 766T958 495ZM317 495Q317 404 334 325T396 196T521 146Q602 146 645 195T706
324T723 495Q723 586 706 665T646 794T521 844Q440 844 396 795T335 666T317 495ZM212 1234Q212 1253 215 1276T227 1318Q246 1330 275 1336T331 1343Q357 1343 386 1337T435 1318Q443 1300 446 1277T450 1234Q450 1215 447 1192T435 1150Q415 1139 386 1132T331
1125Q305 1125 276 1132T227 1150Q219 1168 216 1191T212 1234ZM590 1234Q590 1253 593 1276T605 1318Q625 1330 654 1336T709 1343Q735 1343 764 1337T812 1318Q821 1300 824 1277T828 1234Q828 1215 825 1192T812 1150Q794 1139 765 1132T709 1125Q683 1125 654
1132T605 1150Q597 1168 594 1191T590 1234Z" />
<glyph unicode="&#xf7;" horiz-adv-x="1080" d="M412 985Q412 1036 429 1074Q449 1086 479 1092T540 1099Q569 1099 600 1093T650 1074Q658 1057 663 1032T668 985Q668 963 663 939T650 896Q634 885 602 879T540 872Q510 872 479 878T429 896Q412 934 412 985ZM412
271Q412 323 429 361Q449 372 479 378T540 385Q569 385 600 379T650 361Q658 343 663 319T668 271Q668 249 663 225T650 182Q634 171 602 165T540 158Q510 158 479 164T429 182Q412 220 412 271ZM121 535Q116 557 114 583T112 629Q112 650 114 676T121 726H959Q964
703 966 677T968 629Q968 610 966 584T959 535H121Z" />
<glyph unicode="&#xf8;" horiz-adv-x="1045" d="M960 496Q960 378 930 271T819 84Q762 29 687 2T521 -26Q433 -26 358 1T226 84Q146 163 116 270T85 496Q85 614 115 720T226 905Q283 962 358 989T521 1016Q612 1016 687 989T819 905Q899 826 929 720T960 496ZM300
496Q300 407 319 325T386 191T522 139Q611 139 659 191T726 325T745 496Q745 585 726 666T659 800T522 852Q434 852 386 800T319 667T300 496ZM657 907L770 1105Q804 1099 839 1080T896 1035L762 799L390 88L273 -114Q239 -108 203 -89T146 -43L282 193L657 907Z"
/>
<glyph unicode="&#xf9;" horiz-adv-x="1095" d="M944 281Q944 225 956 177T1000 101Q992 70 968 36T918 -15Q813 1 765 78T716 258V989Q738 994 768 996T829 998Q860 998 889 996T944 989V281ZM141 771Q141 824 133 871T105 954Q130 975 168 989T247 1003Q314
1003 341 967T369 860V367Q369 274 393 231T485 187Q532 187 586 210T691 275T773 378V166Q706 90 612 36T409 -18Q316 -18 257 26T170 145T141 316V771ZM418 1490Q371 1475 326 1434T265 1345L612 1077Q642 1086 669 1111T710 1168L418 1490Z" />
<glyph unicode="&#xfa;" horiz-adv-x="1095" d="M944 281Q944 225 956 177T1000 101Q992 70 968 36T918 -15Q813 1 765 78T716 258V989Q738 994 768 996T829 998Q860 998 889 996T944 989V281ZM141 771Q141 824 133 871T105 954Q130 975 168 989T247 1003Q314
1003 341 967T369 860V367Q369 274 393 231T485 187Q532 187 586 210T691 275T773 378V166Q706 90 612 36T409 -18Q316 -18 257 26T170 145T141 316V771ZM670 1490Q718 1475 762 1434T824 1345L476 1077Q446 1086 419 1111T378 1168L670 1490Z" />
<glyph unicode="&#xfb;" horiz-adv-x="1095" d="M944 281Q944 225 956 177T1000 101Q992 70 968 36T918 -15Q813 1 765 78T716 258V989Q738 994 768 996T829 998Q860 998 889 996T944 989V281ZM141 771Q141 824 133 871T105 954Q130 975 168 989T247 1003Q314
1003 341 967T369 860V367Q369 274 393 231T485 187Q532 187 586 210T691 275T773 378V166Q706 90 612 36T409 -18Q316 -18 257 26T170 145T141 316V771ZM636 1444L829 1192Q814 1156 782 1130T723 1095L537 1275L352 1095Q325 1103 293 1129T246 1192L438 1444Q458
1449 484 1452T537 1456Q565 1456 591 1453T636 1444Z" />
<glyph unicode="&#xfc;" horiz-adv-x="1095" d="M944 281Q944 225 956 177T1000 101Q992 70 968 36T918 -15Q813 1 765 78T716 258V989Q738 994 768 996T829 998Q860 998 889 996T944 989V281ZM141 771Q141 824 133 871T105 954Q130 975 168 989T247 1003Q314
1003 341 967T369 860V367Q369 274 393 231T485 187Q532 187 586 210T691 275T773 378V166Q706 90 612 36T409 -18Q316 -18 257 26T170 145T141 316V771ZM227 1234Q227 1253 230 1276T242 1318Q261 1330 290 1336T346 1343Q372 1343 401 1337T450 1318Q458 1300
461 1277T465 1234Q465 1215 462 1192T450 1150Q430 1139 401 1132T346 1125Q320 1125 291 1132T242 1150Q234 1168 231 1191T227 1234ZM605 1234Q605 1253 608 1276T620 1318Q640 1330 669 1336T724 1343Q750 1343 779 1337T827 1318Q836 1300 839 1277T843 1234Q843
1215 840 1192T827 1150Q809 1139 780 1132T724 1125Q698 1125 669 1132T620 1150Q612 1168 609 1191T605 1234Z" />
<glyph unicode="&#xfd;" horiz-adv-x="947" d="M211 -437Q161 -437 102 -427T9 -403Q6 -364 20 -316T57 -240Q83 -249 127 -257T212 -266Q276 -266 319 -238T392 -158T443 -36L450 -10Q384 -9 344 14T285 100L28 972Q66 989 102 997T167 1005Q208 1005 236 984T280
905L407 459Q420 416 433 363T457 260T476 172Q480 158 495 158L705 990Q725 995 751 997T800 999Q830 999 860 996T918 983L926 970L665 31Q624 -118 571 -222T433 -382T211 -437ZM607 1490Q655 1475 699 1434T761 1345L413 1077Q383 1086 356 1111T315 1168L607
1490Z" />
<glyph unicode="&#xfe;" horiz-adv-x="1059" d="M369 -288Q369 -363 343 -397T246 -431H162L149 -418V1458L162 1471H246Q316 1471 342 1438T369 1328V-288ZM976 516Q976 329 919 211T774 38T593 -18Q499 -18 415 20T261 112L290 286Q348 240 418 200T554 160Q609
160 651 198T718 312T743 505Q743 618 720 687T659 788T574 820Q527 820 475 795T377 713T305 563L257 720Q275 790 326 856T456 964T628 1007Q739 1007 816 944T935 770T976 516Z" />
<glyph unicode="&#xff;" horiz-adv-x="947" d="M211 -437Q161 -437 102 -427T9 -403Q6 -364 20 -316T57 -240Q83 -249 127 -257T212 -266Q276 -266 319 -238T392 -158T443 -36L450 -10Q384 -9 344 14T285 100L28 972Q66 989 102 997T167 1005Q208 1005 236 984T280
905L407 459Q420 416 433 363T457 260T476 172Q480 158 495 158L705 990Q725 995 751 997T800 999Q830 999 860 996T918 983L926 970L665 31Q624 -118 571 -222T433 -382T211 -437ZM164 1234Q164 1253 167 1276T179 1318Q198 1330 227 1336T283 1343Q309 1343 338
1337T387 1318Q395 1300 398 1277T402 1234Q402 1215 399 1192T387 1150Q367 1139 338 1132T283 1125Q257 1125 228 1132T179 1150Q171 1168 168 1191T164 1234ZM542 1234Q542 1253 545 1276T557 1318Q577 1330 606 1336T661 1343Q687 1343 716 1337T764 1318Q773
1300 776 1277T780 1234Q780 1215 777 1192T764 1150Q746 1139 717 1132T661 1125Q635 1125 606 1132T557 1150Q549 1168 546 1191T542 1234Z" />
<glyph unicode="&#x2013;" horiz-adv-x="1071" d="M130 439Q123 461 121 485T119 528Q119 549 121 573T130 621H943Q948 598 950 574T952 528Q952 509 950 485T943 439H130Z" />
<glyph unicode="&#x2014;" horiz-adv-x="1588" d="M149 439Q143 461 141 485T139 528Q139 549 141 573T149 621H1440Q1446 598 1448 574T1450 528Q1450 509 1448 485T1440 439H149Z" />
<glyph unicode="&#x2018;" horiz-adv-x="472" d="M104 1031Q92 1060 87 1095T81 1168Q81 1292 151 1392T362 1541Q393 1526 408 1495T419 1431Q386 1417 353 1393T297 1335T273 1261Q294 1259 319 1253T358 1236Q367 1222 372 1192T378 1136Q378 1111 373 1079T358
1031Q338 1019 301 1011T230 1002Q198 1002 161 1010T104 1031Z" />
<glyph unicode="&#x2019;" horiz-adv-x="472" d="M370 1510Q382 1481 387 1446T393 1373Q393 1249 323 1149T112 1000Q82 1015 67 1046T55 1110Q88 1124 121 1148T177 1206T201 1280Q181 1283 155 1288T116 1305Q108 1320 102 1349T96 1405Q96 1431 101 1463T116
1510Q136 1522 173 1530T244 1539Q276 1539 313 1531T370 1510Z" />
<glyph unicode="&#x201a;" horiz-adv-x="472" d="M371 212Q383 183 388 148T394 75Q394 -49 324 -149T113 -298Q82 -283 67 -252T55 -188Q89 -173 122 -149T177 -92T202 -18Q181 -15 156 -10T116 7Q108 22 102 51T96 106Q96 132 102 165T116 212Q136 224 174 232T245
241Q277 241 314 233T371 212Z" />
<glyph unicode="&#x201c;" horiz-adv-x="877" d="M104 1031Q92 1060 87 1095T81 1168Q81 1292 151 1392T362 1541Q393 1526 408 1495T419 1431Q386 1417 353 1393T297 1335T273 1261Q294 1259 319 1253T358 1236Q367 1222 372 1192T378 1136Q378 1111 373 1079T358
1031Q338 1019 301 1011T230 1002Q198 1002 161 1010T104 1031ZM509 1031Q497 1060 492 1095T486 1168Q486 1292 556 1392T767 1541Q798 1526 813 1495T824 1431Q791 1417 758 1393T702 1335T678 1261Q699 1259 724 1253T763 1236Q772 1222 777 1192T783 1136Q783
1111 778 1079T763 1031Q743 1019 706 1011T635 1002Q603 1002 566 1010T509 1031Z" />
<glyph unicode="&#x201d;" horiz-adv-x="877" d="M374 1510Q387 1481 392 1446T398 1373Q398 1249 328 1149T117 1000Q86 1015 73 1044T59 1110Q92 1124 125 1148T181 1206T206 1280Q185 1283 159 1288T120 1305Q112 1320 106 1349T100 1405Q100 1431 105 1463T120
1510Q140 1522 178 1530T248 1539Q280 1539 318 1531T374 1510ZM780 1510Q792 1481 797 1446T803 1373Q803 1249 733 1149T522 1000Q492 1015 477 1046T465 1110Q498 1124 531 1148T587 1206T611 1280Q591 1283 565 1288T526 1305Q518 1320 512 1349T506 1405Q506
1431 511 1463T526 1510Q546 1522 583 1530T654 1539Q686 1539 723 1531T780 1510Z" />
<glyph unicode="&#x201e;" horiz-adv-x="877" d="M371 212Q383 183 388 148T394 75Q394 -49 324 -149T113 -298Q82 -283 67 -252T55 -188Q89 -173 122 -149T177 -92T202 -18Q181 -15 156 -10T116 7Q108 22 102 51T96 106Q96 132 102 165T116 212Q136 224 174 232T245
241Q277 241 314 233T371 212ZM777 212Q789 183 794 148T800 75Q800 -49 730 -149T519 -298Q488 -283 473 -252T461 -188Q495 -173 528 -149T583 -92T608 -18Q587 -15 562 -10T522 7Q514 22 508 51T502 106Q502 132 508 165T522 212Q542 224 580 232T651 241Q683
241 720 233T777 212Z" />
<glyph unicode="&#x2022;" horiz-adv-x="900" d="M213 540Q213 571 220 627T245 717Q279 738 337 751T450 765Q500 765 561 752T656 717Q672 683 679 627T687 540Q687 509 680 453T656 364Q634 350 599 340T523 323T450 317Q396 317 338 329T245 364Q228 397 221
453T213 540Z" />
<glyph unicode="&#x2039;" horiz-adv-x="670" d="M471 69L74 440Q62 468 62 510T74 580L464 951Q502 941 539 905T589 832L319 514L599 187Q591 164 571 139T524 96T471 69Z" />
<glyph unicode="&#x203a;" horiz-adv-x="670" d="M206 69Q168 80 131 116T81 188L352 506L71 833Q79 858 99 882T147 925T199 951L596 580Q608 552 608 510T596 440L206 69Z" />
</font>
</defs>
</svg>
