<?xml version="1.0" standalone="no"?>
<!DOCTYPE svg PUBLIC "-//W3C//DTD SVG 1.1//EN" "http://www.w3.org/Graphics/SVG/1.1/DTD/svg11.dtd">
<svg xmlns="http://www.w3.org/2000/svg">
<defs >
<font id="Signika" horiz-adv-x="1241" ><font-face
    font-family="Signika Light SemiBold"
    units-per-em="2000"
    panose-1="0 0 0 0 0 0 0 0 0 0"
    ascent="1880"
    descent="-584"
    alphabetic="0" />
<glyph unicode=" " horiz-adv-x="440" />
<glyph unicode="!" horiz-adv-x="597" d="M198 404Q184 600 168 795T152 1188V1365Q189 1375 244 1378T354 1379T445 1364V1185Q445 989 428 795T398 404Q372 396 346 394T298 392Q279 392 251 394T198 404ZM298 250Q335 250 370 243T429 221Q438 204 443 171T449
114Q449 90 444 58T429 9Q405 -5 370 -12T298 -20Q262 -20 227 -13T167 9Q158 25 153 57T148 114Q148 138 153 171T167 221Q192 235 227 242T298 250Z" />
<glyph unicode="&quot;" horiz-adv-x="834" d="M485 1422Q485 1450 488 1477T498 1530Q522 1544 551 1552T616 1561Q649 1561 679 1553T734 1530Q739 1504 742 1477T746 1422Q746 1403 737 1335T712 1174T680 983Q659 969 617 969T552 983Q536 1081 520 1174T495
1335T485 1422ZM88 1422Q88 1450 91 1477T101 1530Q125 1544 154 1552T219 1561Q252 1561 282 1553T337 1530Q342 1504 345 1477T349 1422Q349 1403 340 1335T315 1174T283 983Q262 969 220 969T155 983Q139 1081 123 1174T98 1335T88 1422Z" />
<glyph unicode="#" horiz-adv-x="1365" d="M188 25Q208 16 238 11T302 6Q335 6 366 11T419 25L703 1290Q684 1300 653 1304T589 1309Q556 1309 525 1305T472 1290L188 25ZM662 25Q682 16 713 11T776 6Q810 6 841 11T893 25L1177 1290Q1157 1300 1127 1304T1063
1309Q1031 1309 1000 1305T946 1290L662 25ZM1210 286Q1226 333 1226 391Q1226 450 1210 496H54Q38 453 38 391Q38 330 54 286H1210ZM1311 820Q1328 865 1328 925Q1328 985 1311 1030H155Q139 986 139 925Q139 864 155 820H1311Z" />
<glyph unicode="$" horiz-adv-x="1080" d="M537 48Q451 48 368 67T217 114T107 172Q108 206 121 246T157 320T206 370Q275 325 364 293T531 260Q602 259 645 289T689 374Q690 416 664 452T570 512L390 577Q283 617 211 690T139 881Q139 984 190 1061T328 1181T526
1225Q652 1225 751 1199T928 1132Q928 1079 903 1024T837 934Q764 971 691 991T553 1012Q486 1012 448 984T409 908Q409 861 441 837T529 790L701 726Q818 682 889 599T961 384Q961 284 908 208T760 90T537 48ZM525 -126Q497 -126 472 -124T426 -116V130H621V-116Q603
-121 578 -123T525 -126ZM446 1139V1389Q466 1394 492 1396T544 1399Q569 1399 595 1397T642 1389V1139H446Z" />
<glyph unicode="%" horiz-adv-x="1900" d="M1477 -25Q1356 -25 1284 28T1179 177T1147 398Q1147 586 1222 702T1477 819Q1597 819 1669 766T1774 618T1807 398Q1807 208 1732 92T1477 -25ZM422 449Q302 449 230 502T125 651T92 872Q92 998 125 1092T230 1240T422
1293Q542 1293 614 1240T720 1092T753 872Q753 682 678 566T422 449ZM423 613Q472 613 497 648T530 743T538 872Q538 942 530 1000T497 1093T423 1129Q374 1129 350 1094T317 1000T308 872Q308 802 316 743T349 649T423 613ZM1478 139Q1527 139 1551 175T1584 270T1592
398Q1592 468 1584 526T1552 619T1478 655Q1429 655 1404 620T1371 526T1362 398Q1362 329 1370 270T1404 175T1478 139ZM1183 1286Q1217 1295 1268 1297T1367 1296T1436 1286L726 0Q692 -8 641 -10T542 -10T472 0L1183 1286Z" />
<glyph unicode="&amp;" horiz-adv-x="1280" d="M1024 832Q1080 832 1133 841T1225 867Q1242 847 1251 813T1260 743Q1260 673 1214 641T1090 609H624Q535 609 478 579T393 497T365 380Q365 279 416 229T547 178Q623 178 683 205T780 263V485Q780 533 782 601T788
731H1030Q1035 670 1037 602T1039 486V312Q1039 244 1042 157T1052 0Q1029 -8 998 -11T931 -15Q897 -15 865 -12T810 -3L792 81Q732 33 650 3T477 -27Q350 -27 264 24T133 164T89 359Q89 473 140 559T272 695T437 745V715Q356 717 291 759T187 873T148 1033Q148
1138 199 1219T347 1346T575 1393Q685 1393 790 1376T972 1331Q974 1281 956 1225T903 1131Q837 1152 764 1168T613 1185Q520 1185 472 1136T424 1012Q424 926 477 879T645 832H1024Z" />
<glyph unicode="&apos;" horiz-adv-x="437" d="M88 1422Q88 1450 91 1477T101 1530Q125 1544 154 1552T219 1561Q252 1561 282 1553T337 1530Q342 1504 345 1477T349 1422Q349 1403 340 1335T315 1174T283 983Q262 969 220 969T155 983Q139 1081 123 1174T98 1335T88
1422Z" />
<glyph unicode="(" horiz-adv-x="708" d="M396 547Q396 398 426 242T517 -63T673 -341Q648 -394 607 -428T520 -479Q389 -352 300 -180T166 181T121 547Q121 724 166 913T300 1274T520 1573Q566 1557 607 1523T673 1434Q578 1306 517 1158T426 853T396 547Z" />
<glyph unicode=")" horiz-adv-x="708" d="M188 -479Q143 -463 102 -429T35 -341Q130 -212 191 -63T281 242T311 547Q311 697 282 853T191 1157T35 1434Q60 1488 101 1522T188 1573Q320 1447 408 1275T542 913T588 547Q588 370 543 181T409 -180T188 -479Z" />
<glyph unicode="*" horiz-adv-x="1025" d="M404 1461Q429 1471 470 1474T553 1475T621 1461L617 1340Q614 1272 594 1201T556 1064Q537 1042 513 1042Q487 1042 469 1064Q451 1129 431 1200T409 1340L404 1461ZM80 1068Q78 1095 87 1135T113 1214T147 1274L260
1233Q325 1210 386 1168T505 1089Q521 1064 513 1042Q509 1030 501 1021T477 1009Q411 1010 337 1013T197 1036L80 1068ZM353 640Q327 646 292 667T225 715T178 767L252 861Q294 916 353 962T464 1049Q493 1055 513 1042Q533 1026 534 999Q511 935 485 866T420
740L353 640ZM845 766Q831 743 801 716T735 668T671 638L604 739Q565 795 540 865T491 998Q493 1028 513 1042Q522 1049 534 1051T560 1049Q613 1008 671 961T771 860L845 766ZM877 1272Q895 1253 911 1215T937 1137T945 1068L828 1034Q764 1016 689 1014T548 1009Q534
1014 526 1022T513 1042Q504 1063 520 1088Q576 1127 638 1167T764 1231L877 1272Z" />
<glyph unicode="+" horiz-adv-x="1080" d="M119 740Q108 691 108 633Q108 573 119 526H310Q343 526 374 527T436 528H644Q676 528 706 527T770 526H961Q972 575 972 633Q972 663 970 687T961 740H770Q737 740 707 739T644 738H436Q405 738 374 739T310 740H119ZM426
858Q426 825 427 794T428 732V536Q428 504 427 474T426 411V203Q455 198 483 196T543 194Q572 194 599 196T654 203V411Q654 444 653 474T652 536V732Q652 763 653 794T654 858V1064Q627 1070 598 1071T540 1073Q510 1073 483 1072T426 1064V858Z" />
<glyph unicode="," horiz-adv-x="565" d="M423 232Q435 199 440 163T446 87Q446 -2 410 -87T301 -240T119 -342Q85 -325 68 -289T55 -217Q125 -190 174 -137T231 -17Q209 -12 185 -5T147 13Q139 29 133 61T127 120Q127 147 132 181T147 232Q170 245 210 254T286
264Q321 264 361 256T423 232Z" />
<glyph unicode="-" horiz-adv-x="727" d="M98 429Q92 455 90 485T87 536Q87 557 89 587T98 644H628Q635 618 637 588T639 536Q639 516 637 486T628 429H98Z" />
<glyph unicode="." horiz-adv-x="550" d="M113 123Q113 141 118 176T135 234Q160 248 199 257T275 266Q310 266 350 257T416 234Q427 211 432 176T437 123Q437 105 432 70T416 13Q392 -2 351 -10T275 -19Q239 -19 200 -11T135 13Q124 35 119 70T113 123Z" />
<glyph unicode="/" horiz-adv-x="874" d="M638 1429Q695 1424 754 1403T862 1345L232 -331Q175 -325 116 -304T8 -246L638 1429Z" />
<glyph unicode="0" horiz-adv-x="1080" d="M85 633Q85 804 111 939T229 1174Q284 1227 356 1260T541 1293Q654 1293 725 1260T851 1174Q943 1075 969 940T995 633Q995 462 969 327T851 92Q796 39 725 6T540 -27Q428 -27 357 6T229 92Q138 192 112 327T85 633ZM356
633Q356 483 368 388T411 245Q431 208 465 191T540 174Q583 174 616 190T669 245Q697 293 710 388T724 633Q724 785 711 879T669 1021Q649 1058 616 1075T540 1092Q499 1092 465 1075T411 1021Q383 973 370 879T356 633Z" />
<glyph unicode="1" horiz-adv-x="1080" d="M726 356Q726 316 725 277T724 195V104H473V195Q473 237 472 276T471 356V681Q471 718 475 779T482 902T485 1007L479 1266Q513 1273 544 1275T603 1277Q631 1277 661 1275T726 1266V356ZM352 216Q373 216 414 215T477
214H720Q742 214 786 215T851 216H973Q986 163 986 108Q986 56 973 0H179Q173 26 170 54T166 108Q166 165 179 216H352ZM96 871Q244 963 337 1063T479 1266L571 1063Q543 985 484 918T351 801T206 718Q167 738 136 780T96 871Z" />
<glyph unicode="2" horiz-adv-x="1080" d="M115 979Q142 1064 199 1135T341 1250T533 1293Q657 1293 748 1245T890 1110T940 908Q940 818 906 749T817 622T696 509L548 390Q503 352 461 313T390 239T362 180L354 -1H195Q159 39 130 80T101 170Q101 227 134 285T222
403T340 517L547 694Q603 742 638 794T673 913Q673 987 628 1033T508 1080Q431 1080 379 1025T301 896Q254 898 197 919T115 979ZM973 224Q973 95 935 47T805 -1H213L140 160Q209 183 304 197T493 217T654 224H973Z" />
<glyph unicode="3" horiz-adv-x="1080" d="M708 404Q708 496 652 546T507 596Q477 596 445 589T386 568Q351 587 323 627T286 708Q345 732 413 748T582 765Q692 765 781 724T924 600T977 395Q977 291 938 212T833 80T683 0T509 -27Q375 -27 269 12T95 111Q104
157 135 204T206 283Q261 241 328 213T475 184Q543 184 595 209T678 284T708 404ZM694 818Q656 780 607 747T511 691T429 652L286 708L502 927Q520 945 545 969T596 1018T638 1055L631 1066Q607 1059 572 1055T498 1047T418 1044H157Q146 1074 143 1099T140 1142Q140
1168 144 1201T163 1266H873Q903 1210 915 1173T927 1108Q927 1051 875 996L694 818Z" />
<glyph unicode="4" horiz-adv-x="1080" d="M126 249Q102 288 85 331T68 410Q68 438 81 472T107 537L441 1279Q478 1288 526 1284T617 1265T681 1228L500 827Q479 779 448 711T382 576T316 465L322 456Q361 460 412 462T507 466T569 468H827Q859 468 878 469T931
470H1010Q1014 445 1015 421T1016 373Q1016 348 1013 315T1000 252H931Q898 252 879 252T827 252H578Q546 252 514 251T450 249H126ZM576 126Q576 159 577 190T578 252V433Q578 444 577 474T576 519V628Q576 723 623 778T753 833H818L829 821V594Q829 561 828 530T827
468V252Q827 221 828 190T829 126V0Q796 -6 764 -7T701 -9Q672 -9 641 -8T576 0V126Z" />
<glyph unicode="5" horiz-adv-x="1080" d="M416 864Q413 822 405 781T382 700Q332 681 272 672T151 659L183 1251L413 1212Q418 1183 421 1136T424 1043T424 971L416 864ZM102 105Q109 144 140 196T210 277Q270 235 332 210T470 185Q531 185 583 210T667 289T699
422Q699 503 667 551T584 620T477 642Q425 642 375 623T280 568Q245 575 208 601T151 659Q191 698 250 741T386 815T551 845Q745 845 856 733T968 435Q968 276 899 174T720 22T491 -27Q373 -27 272 8T102 105ZM900 1266Q911 1235 915 1207T919 1159Q919 1047 805
1047H470Q420 1047 364 1049T261 1053T192 1059L183 1251L198 1266H900Z" />
<glyph unicode="6" horiz-adv-x="1080" d="M553 -27Q457 -27 391 -2T286 56T227 112Q213 129 191 161T146 251T107 399T91 625Q91 832 152 982T333 1212T623 1293Q717 1293 796 1276T931 1227Q928 1177 906 1127T844 1046Q805 1063 755 1075T643 1087Q542 1087
481 1039T392 907T364 714V523Q364 465 371 410T393 308T432 231Q452 205 482 187T556 169Q646 169 689 235T732 407Q732 491 711 541T652 614T563 636Q514 636 465 616T373 559T295 470L248 606Q279 669 333 724T463 814T631 849Q793 849 893 747T994 423Q994
283 935 182T776 27T553 -27Z" />
<glyph unicode="7" horiz-adv-x="1080" d="M945 1266Q961 1230 976 1184T992 1106Q992 1084 982 1057T951 1000Q855 872 787 762T675 546T605 328T567 83L559 0Q534 -5 500 -8T427 -11Q393 -11 358 -8T293 0L301 89Q317 268 375 444T527 779T746 1056L738 1066Q716
1060 676 1056T591 1050T507 1046T448 1044H126Q120 1064 117 1088T113 1134Q113 1169 119 1203T137 1266H945Z" />
<glyph unicode="8" horiz-adv-x="1080" d="M79 320Q79 413 126 489T248 618T402 698L580 625Q456 578 400 500T344 338Q344 283 369 242T438 178T539 156Q597 156 640 179T708 243T733 337Q733 390 707 432T633 505T526 557L483 573Q371 614 288 664T159 785T113
953Q113 1050 169 1127T321 1248T540 1293Q668 1293 763 1251T911 1133T965 960Q965 879 924 816T817 709T680 644L508 719Q606 753 658 813T711 950Q711 1020 663 1063T538 1106Q467 1106 419 1064T371 954Q371 886 424 843T568 770L611 756Q721 718 809 663T949
528T1001 335Q1001 222 937 141T765 16T529 -27Q326 -27 203 64T79 320Z" />
<glyph unicode="9" horiz-adv-x="1080" d="M527 1293Q624 1293 689 1268T795 1211T853 1154Q867 1137 889 1105T934 1015T973 867T989 641Q989 434 928 284T747 54T457 -27Q363 -27 285 -9T149 39Q152 89 174 139T236 220Q276 204 326 192T437 179Q538 179 599
227T688 360T716 552V743Q716 801 709 857T687 959T648 1035Q628 1061 598 1079T524 1097Q434 1097 391 1031T348 859Q348 775 369 725T428 652T517 630Q567 630 615 650T707 707T785 796L832 660Q801 598 747 543T617 453T450 418Q287 418 187 519T86 843Q86 983
145 1084T304 1239T527 1293Z" />
<glyph unicode=":" horiz-adv-x="564" d="M120 123Q120 141 125 176T142 234Q167 248 206 257T282 266Q317 266 357 257T423 234Q434 211 439 176T444 123Q444 105 439 70T423 13Q399 -2 358 -10T282 -19Q246 -19 207 -11T142 13Q131 35 126 70T120 123ZM120 760Q120
778 125 813T142 871Q167 885 206 894T282 903Q317 903 357 894T423 871Q434 848 439 813T444 760Q444 742 439 707T423 650Q399 635 358 627T282 618Q246 618 207 626T142 650Q131 672 126 707T120 760Z" />
<glyph unicode=";" horiz-adv-x="572" d="M678 232Q690 199 695 163T701 87Q701 -2 665 -87T556 -240T374 -342Q340 -325 323 -289T310 -217Q380 -190 429 -137T486 -17Q464 -12 440 -5T402 13Q394 29 388 61T382 120Q382 147 387 181T402 232Q425 245 465 254T541
264Q576 264 616 256T678 232ZM124 760Q124 778 129 813T146 871Q171 885 210 894T286 903Q321 903 361 894T427 871Q438 848 443 813T448 760Q448 742 443 707T427 650Q403 635 362 627T286 618Q250 618 211 626T146 650Q135 672 130 707T124 760Z" />
<glyph unicode="&lt;" horiz-adv-x="1080" d="M839 1130Q888 1104 921 1048T958 927L539 710Q510 695 459 673T380 639V625Q408 615 459 593T539 555L958 337Q953 275 919 217T838 132L115 531Q104 575 103 630T115 732L839 1130Z" />
<glyph unicode="=" horiz-adv-x="1080" d="M119 317Q112 343 110 373T108 424Q108 445 110 475T119 532H961Q968 506 970 476T972 424Q972 403 970 373T961 317H119ZM119 739Q112 765 110 795T108 846Q108 867 110 897T119 954H961Q968 928 970 898T972 846Q972
825 970 795T961 739H119Z" />
<glyph unicode="&gt;" horiz-adv-x="1080" d="M241 135Q193 163 160 219T122 338L541 556Q571 572 621 594T700 626V640Q672 651 622 673T541 710L122 928Q128 991 162 1049T242 1134L965 734Q977 691 977 635T965 533L241 135Z" />
<glyph unicode="?" horiz-adv-x="817" d="M17 1285Q99 1333 200 1364T414 1395Q602 1395 704 1297T807 1041Q807 897 732 803T546 649L423 583L405 405Q382 398 358 395T309 392Q285 392 258 395T207 405L193 703L213 730L318 779Q412 825 471 881T531 1013Q531
1083 486 1125T355 1168Q291 1168 230 1147T111 1096Q76 1124 48 1179T17 1285ZM309 246Q345 246 380 239T440 216Q449 200 454 168T460 110Q460 86 455 54T440 5Q415 -10 380 -17T309 -25Q229 -25 177 5Q168 21 163 53T157 110Q157 135 162 167T177 216Q202 231
237 238T309 246Z" />
<glyph unicode="@" horiz-adv-x="1930" d="M1359 321Q1359 257 1376 230T1433 202Q1476 202 1514 238T1575 361T1599 593Q1599 771 1525 900T1315 1099T997 1170Q851 1170 732 1117T527 966T395 737T349 447Q349 234 420 92T622 -121T927 -192Q1032 -192 1132
-173T1325 -117Q1357 -151 1374 -202T1392 -297Q1325 -324 1244 -345T1076 -379T908 -392Q670 -392 485 -301T195 -23T89 447Q89 646 156 813T345 1104T633 1296T997 1364Q1183 1364 1339 1311T1612 1158T1792 913T1856 586Q1856 389 1793 261T1633 71T1429 9Q1335
9 1264 48T1154 153T1115 303V737Q1092 758 1061 770T991 783Q930 783 893 740T839 624T823 464Q823 337 852 269T953 200Q994 200 1036 225T1114 291T1167 375L1259 255Q1235 198 1179 140T1049 42T894 2Q790 2 718 59T609 217T571 453Q571 601 619 717T762 901T991
968Q1103 968 1201 925T1359 823V321Z" />
<glyph unicode="A" horiz-adv-x="1250" d="M475 1366Q506 1371 551 1373T630 1375Q661 1375 707 1373T783 1365L1222 17Q1194 1 1151 -7T1068 -15Q1004 -15 969 14T908 128L727 726Q702 812 673 918T620 1114H608Q598 1064 583 1003T551 883T521 777L282 -2Q257
-8 228 -9T167 -11Q135 -11 98 -7T37 5L28 20L475 1366ZM474 307Q462 307 439 307T392 308T357 309H222L304 521H423Q435 521 456 521T499 522T532 523H704Q717 523 738 523T781 522T815 521H937L1007 309H873Q861 309 837 309T790 308T754 307H474Z" />
<glyph unicode="B" horiz-adv-x="1220" d="M180 1369Q295 1371 405 1373T619 1375Q762 1375 863 1335T1018 1214T1072 1013Q1072 939 1039 875T948 768T819 718V749Q901 745 973 696T1091 566T1136 388Q1136 262 1081 173T916 38T647 -9Q529 -9 415 -7T180 -3L166
11V1355L180 1369ZM431 182Q487 184 539 184T635 184Q706 184 751 204T821 257T855 328T865 400Q865 447 845 497T773 583T628 619H328V815H607Q687 815 730 843T790 914T807 999Q807 1044 791 1085T732 1153T609 1180Q575 1180 525 1180T431 1182V182Z" />
<glyph unicode="C" horiz-adv-x="1213" d="M892 857Q894 936 873 1010T797 1132T643 1180Q501 1180 434 1051T367 676Q367 445 446 326T669 206Q768 206 853 248T1017 352Q1058 325 1096 276T1144 179Q1088 123 1006 76T826 1T621 -27Q470 -27 367 33T202 194T113
421T85 677Q85 928 163 1086T369 1320T652 1395Q804 1395 916 1340T1089 1193T1150 991Q1150 916 1112 879T997 842Q968 842 944 846T892 857Z" />
<glyph unicode="D" horiz-adv-x="1316" d="M1229 683Q1229 566 1213 459T1151 258T1010 91Q965 55 902 33T773 0T652 -11Q569 -11 494 -10T343 -7T180 -3L166 11V1355L180 1369Q266 1372 342 1373T493 1375T652 1375Q707 1375 773 1365T903 1333T1010 1275Q1103
1201 1149 1108T1212 907T1229 683ZM952 683Q952 766 941 851T900 1006T810 1120T652 1164Q595 1164 545 1165T434 1166V201Q494 202 544 202T652 201Q750 201 809 244T899 359T941 516T952 683Z" />
<glyph unicode="E" horiz-adv-x="1139" d="M165 1353L178 1366H428V1146Q428 1104 429 1074T430 1003V342Q430 309 429 282T428 219V-3H319Q247 -3 206 39T165 156V1353ZM899 798Q907 773 910 742T914 689Q914 665 911 635T899 578H560Q536 578 495 578T411 579T337
581V795Q368 796 411 796T495 797T560 798H899ZM1013 1366Q1019 1336 1020 1310T1021 1260Q1021 1237 1016 1204T1000 1140H560Q536 1140 495 1140T411 1142T337 1144V1366H1013ZM1057 222Q1057 107 1022 52T881 -3H337V212Q394 215 447 218T568 222H1057Z" />
<glyph unicode="F" horiz-adv-x="1057" d="M435 0Q402 -6 368 -7T303 -9Q274 -9 237 -8T166 0V1354L180 1366H433V1266Q433 1186 434 1104T435 944V0ZM1004 1366Q1011 1344 1014 1315T1017 1262Q1017 1196 981 1167T871 1138H599Q521 1138 454 1139T325 1142V1366H1004ZM890
794Q897 770 900 738T904 684Q904 661 901 630T890 573H495Q455 573 411 574T333 576V791Q366 792 410 793T495 794H890Z" />
<glyph unicode="G" horiz-adv-x="1298" d="M1180 1249Q1174 1190 1136 1136T1057 1054Q984 1105 894 1137T715 1169Q611 1169 531 1119T406 960T360 671Q360 422 453 305T724 187Q826 187 910 208T1044 246L1183 56Q1124 35 1044 16T870 -15T678 -27Q520 -27 408
25T224 171T119 394T85 674Q85 860 136 996T276 1220T475 1350T703 1393Q834 1393 959 1354T1180 1249ZM930 389Q930 459 934 529T954 656L1183 579V56L930 52V389ZM1001 748Q1103 748 1143 702T1183 579V522H800Q762 522 733 532T687 566T670 636Q670 664 676
694T690 748H1001Z" />
<glyph unicode="H" horiz-adv-x="1361" d="M1063 -9Q1033 -9 996 -8T926 0V445Q926 487 927 520T928 593V816Q928 857 927 889T926 964V1366Q959 1372 995 1373T1060 1375Q1087 1375 1125 1374T1195 1366V0Q1162 -6 1127 -7T1063 -9ZM300 -9Q274 -9 236 -8T166
0V1366Q197 1372 235 1373T300 1375Q328 1375 365 1374T435 1366V964Q435 922 434 890T433 816V593Q433 553 434 520T435 445V0Q402 -6 365 -7T300 -9ZM272 591V818Q312 818 353 817T433 816Q446 816 466 816T507 817T540 818H822Q834 818 854 818T896 817T928
816Q968 816 1008 817T1089 818V591Q1049 591 1009 592T928 593Q917 593 896 593T855 592T822 591H540Q528 591 507 591T466 592T433 593Q394 593 353 592T272 591Z" />
<glyph unicode="I" horiz-adv-x="609" d="M171 1366Q201 1372 239 1373T304 1375Q333 1375 369 1374T439 1366V0Q406 -6 370 -7T304 -9Q278 -9 240 -8T171 0V1366Z" />
<glyph unicode="J" horiz-adv-x="920" d="M115 265Q159 239 210 221T313 203Q428 203 468 272T508 481V1366Q540 1372 578 1373T643 1375Q671 1375 707 1374T776 1366V511Q776 397 758 300T693 132T561 20T339 -20Q261 -20 175 2T20 65Q29 118 53 171T115 265Z" />
<glyph unicode="K" horiz-adv-x="1218" d="M166 1366Q197 1372 235 1373T300 1375Q328 1375 365 1374T435 1366V0Q402 -6 365 -7T300 -9Q274 -9 236 -8T166 0V1366ZM1195 67Q1169 28 1119 7T1016 -15Q941 -15 908 24T848 142L757 404Q721 508 673 550T545 593Q507
593 444 590T298 580V749H669Q777 749 840 718T941 632T1003 502L1098 235Q1116 185 1130 155T1159 105T1195 67ZM820 1276Q847 1326 876 1350T967 1375Q1001 1375 1043 1373T1125 1367L1141 1347L869 862Q819 769 741 716T537 662H298V814Q350 816 407 817T515
819Q549 819 564 832T599 881L820 1276Z" />
<glyph unicode="L" horiz-adv-x="1035" d="M434 -3H321Q250 -3 208 39T165 157V1363L178 1377H278Q357 1377 395 1337T434 1207V-3ZM988 228Q988 98 946 48T806 -3H321L179 191Q291 210 406 219T616 228H988Z" />
<glyph unicode="M" horiz-adv-x="1642" d="M234 1365Q278 1372 329 1374T415 1377Q451 1377 496 1375T586 1365L739 809Q744 789 754 745T777 648T800 546T815 468H827Q832 497 842 546T865 648T888 745T904 809L1057 1365Q1102 1372 1147 1374T1227 1377Q1262
1377 1313 1375T1408 1365L1514 3Q1485 -4 1448 -7T1378 -11Q1347 -11 1318 -9T1259 -2L1221 639Q1218 703 1215 780T1209 934T1205 1074H1193L958 205Q928 200 889 198T820 195Q794 195 754 197T684 205L450 1074H438Q437 1011 435 934T429 780T422 639L382 -2Q354
-7 324 -9T263 -11Q231 -11 194 -8T128 3L234 1365Z" />
<glyph unicode="N" horiz-adv-x="1376" d="M166 1363Q198 1369 247 1372T325 1375Q353 1375 397 1374T482 1366L414 1059L395 1053Q401 975 405 879T413 685T416 508V0Q383 -6 351 -7T293 -9Q269 -9 234 -8T166 0V1363ZM522 775Q487 851 457 923T402 1056L277
1202L482 1366L846 592Q884 509 917 432T975 295L1110 151L891 0L522 775ZM1210 1365V3Q1189 -1 1159 -4T1099 -8T1049 -9Q1018 -9 976 -8T891 0L962 293L983 298Q976 385 971 486T964 682T962 846V1213Q962 1302 996 1339T1110 1377H1196L1210 1365Z" />
<glyph unicode="O" horiz-adv-x="1325" d="M366 684Q366 599 377 511T419 348T508 227T662 181Q758 181 816 227T905 348T947 511T958 684Q958 769 947 856T905 1018T816 1139T662 1185Q567 1185 509 1139T419 1019T377 857T366 684ZM85 684Q85 892 147 1052T338
1302T662 1393Q810 1393 918 1341T1098 1194T1205 969T1240 684Q1240 475 1177 315T986 64T662 -27Q514 -27 406 25T226 172T120 398T85 684Z" />
<glyph unicode="P" horiz-adv-x="1157" d="M1093 915Q1093 764 1032 662T864 507T618 454H321V655Q352 657 409 658T521 661T601 662Q690 662 737 703T800 802T817 915Q817 969 801 1027T737 1126T601 1167Q565 1167 523 1167T435 1169V0Q402 -6 365 -7T300 -9Q274
-9 236 -8T166 0V1355L180 1369Q300 1371 405 1373T618 1375Q756 1375 863 1325T1031 1173T1093 915Z" />
<glyph unicode="Q" horiz-adv-x="1322" d="M361 684Q361 599 372 511T415 348T505 229T661 183Q756 183 815 228T905 348T947 510T958 684Q958 770 947 858T906 1020T816 1139T661 1185Q565 1185 506 1140T415 1020T373 858T361 684ZM85 684Q85 891 146 1051T335
1302T661 1393Q860 1393 987 1301T1176 1049T1237 683Q1237 560 1213 444T1137 236T1007 88T819 31Q786 8 750 -9T664 -27Q462 -27 335 64T146 316T85 684ZM573 56L827 140L994 22Q1052 -19 1094 -41T1172 -71T1246 -81Q1244 -173 1192 -223T1072 -273Q1013 -273
969 -255T888 -205L573 56Z" />
<glyph unicode="R" horiz-adv-x="1216" d="M1106 953Q1106 859 1071 785T978 661T857 588Q910 569 946 522T1005 411L1079 211Q1098 158 1121 123T1172 64Q1147 29 1097 7T993 -15Q920 -15 886 24T824 143L739 381Q718 441 680 482T555 524H323V728Q364 730 421
732T532 736T615 737Q703 737 749 768T813 849T831 953Q831 1010 814 1059T750 1139T615 1170Q591 1170 561 1170T497 1170T432 1172V0Q400 -6 364 -7T298 -9Q273 -9 235 -8T166 0V1355L180 1369Q300 1371 413 1373T635 1375Q774 1375 880 1329T1046 1190T1106
953Z" />
<glyph unicode="S" horiz-adv-x="1113" d="M45 121Q50 179 81 234T151 324Q238 270 344 231T556 191Q659 191 711 238T763 350Q763 400 730 448T610 532L369 632Q244 685 166 770T88 991Q88 1108 149 1198T317 1341T558 1393Q692 1393 809 1359T1005 1285Q1002
1227 977 1172T912 1081Q835 1118 737 1147T560 1176Q462 1176 412 1130T362 1025Q362 973 397 938T503 872L746 772Q837 734 905 678T1010 549T1047 387Q1047 270 991 176T822 28T539 -27Q415 -27 283 11T45 121Z" />
<glyph unicode="T" horiz-adv-x="1002" d="M26 1142Q20 1172 18 1201T16 1253Q16 1277 18 1306T26 1366H982Q989 1344 992 1316T996 1262Q996 1196 961 1169T852 1142H758Q737 1142 699 1143T637 1144H369Q348 1144 309 1143T248 1142H26ZM369 996Q369 1037 369
1069T370 1144V1255H636V1144Q636 1102 636 1070T637 996V0Q604 -6 568 -7T504 -9Q474 -9 438 -8T369 0V996Z" />
<glyph unicode="U" horiz-adv-x="1343" d="M1195 492Q1195 325 1133 209T953 33T671 -27Q508 -27 391 33T211 209T147 492V1363L161 1377H261Q339 1377 377 1337T416 1207V491Q416 341 478 264T672 187Q804 187 865 264T927 491V1366Q959 1372 994 1373T1058 1375Q1084
1375 1124 1374T1195 1366V492Z" />
<glyph unicode="V" horiz-adv-x="1182" d="M907 1366Q935 1372 965 1373T1023 1375Q1049 1375 1084 1372T1146 1359L1157 1343L772 -1Q725 -6 669 -8T561 -11Q484 -11 442 14T378 113L29 1342Q66 1359 107 1370T191 1381Q249 1381 283 1351T336 1250L516 607Q531
553 545 492T573 370T597 252Q600 238 604 234T617 230L907 1366Z" />
<glyph unicode="W" horiz-adv-x="1755" d="M45 1351Q77 1365 115 1373T189 1381Q258 1381 290 1351T336 1236L439 641Q450 582 461 509T483 366T499 248Q501 230 504 227T518 223L708 1339Q748 1346 795 1348T881 1351Q922 1351 969 1349T1053 1339L1228 248Q1231
230 1235 227T1249 223Q1256 281 1267 356T1290 507T1313 644L1447 1366Q1475 1372 1507 1373T1567 1375Q1599 1375 1633 1372T1694 1359L1708 1342L1433 2Q1385 -4 1319 -7T1199 -11Q1140 -11 1094 10T1035 114L954 596Q936 705 918 834T885 1075H870Q855 964
835 835T794 596L688 1Q640 -4 578 -7T462 -11Q398 -11 351 10T288 115L45 1351Z" />
<glyph unicode="X" horiz-adv-x="1204" d="M66 1324Q106 1352 153 1367T241 1383Q296 1383 334 1361T411 1278L1178 42Q1138 14 1092 -1T1003 -17Q948 -17 909 6T831 90L66 1324ZM878 1366Q898 1371 927 1374T989 1377Q1028 1377 1066 1370T1130 1354L1137 1339L717
652L607 531L290 0Q270 -5 240 -8T176 -11Q137 -11 99 -4T33 13L26 29L491 781L600 902L878 1366Z" />
<glyph unicode="Y" horiz-adv-x="1047" d="M390 590H658V0Q626 -6 590 -7T525 -9Q498 -9 459 -8T390 0V590ZM789 1366Q817 1373 845 1375T900 1377Q935 1377 969 1372T1031 1358L1042 1341L642 389H410L6 1335Q44 1356 87 1368T171 1381Q228 1381 259 1355T314
1271L439 962Q463 904 485 834T527 693H538Q551 739 566 788T599 885T632 970L789 1366Z" />
<glyph unicode="Z" horiz-adv-x="1142" d="M592 951Q622 995 667 1051T751 1155L745 1161Q715 1157 674 1154T588 1149T503 1146T435 1145H132Q126 1169 124 1191T121 1235Q121 1270 126 1301T140 1366H996Q1014 1304 1021 1272T1031 1225T1034 1198Q1034 1175
1027 1150T1002 1099L529 420Q498 376 455 321T372 219L378 213Q443 218 518 222T650 226H808Q885 226 942 238T1039 268Q1047 243 1052 210T1058 145Q1058 72 1010 36T878 0H116Q102 59 96 90T87 137T85 164Q85 190 93 217T118 270L592 951Z" />
<glyph unicode="[" horiz-adv-x="740" d="M197 1529L454 1439V-331L197 -399V1529ZM213 -414L197 -399L219 -203L656 -215Q664 -232 670 -262T676 -323Q676 -339 674 -361T667 -397L213 -414ZM667 1527Q672 1513 674 1491T676 1453Q676 1423 670 1392T656 1345L219
1333L197 1529L213 1544L667 1527Z" />
<glyph unicode="\" horiz-adv-x="874" d="M642 -331Q699 -324 759 -303T866 -246L237 1429Q179 1424 120 1403T13 1345L642 -331Z" />
<glyph unicode="]" horiz-adv-x="740" d="M543 1529L286 1439V-331L543 -399V1529ZM527 -414L543 -399L522 -203L84 -215Q78 -232 71 -262T63 -323Q63 -339 65 -361T73 -397L527 -414ZM73 1527Q68 1513 66 1491T63 1453Q63 1423 70 1392T84 1345L522 1333L543
1529L527 1544L73 1527Z" />
<glyph unicode="^" horiz-adv-x="1060" d="M989 612Q965 606 931 604T860 601Q826 601 794 603T737 612L608 905Q599 928 585 965T558 1038T537 1097H523Q515 1075 502 1039T476 965T452 905L323 612Q299 606 267 604T200 601Q164 601 130 603T71 612L390 1296Q413
1302 452 1304T533 1307Q573 1307 610 1305T670 1296L989 612Z" />
<glyph unicode="_" horiz-adv-x="1096" d="M-2 -333Q-13 -284 -13 -233Q-13 -182 -2 -133H1098Q1109 -182 1109 -233Q1109 -284 1098 -333H-2Z" />
<glyph unicode="`" horiz-adv-x="796" d="M332 1509Q282 1494 232 1449T165 1351L521 1079Q555 1089 586 1117T631 1181L332 1509Z" />
<glyph unicode="a" horiz-adv-x="1020" d="M73 271Q73 389 126 464T268 575T463 611Q513 611 582 608T710 591V422Q662 433 599 435T486 438Q407 438 368 398T329 289Q329 238 358 204T442 170Q508 170 579 217T700 350L738 172Q700 128 649 82T530 4T372 -27Q271
-27 205 17T106 130T73 271ZM945 119Q937 84 912 44T859 -15Q783 -8 735 28T661 115T629 220V659Q629 737 592 773T483 810Q413 810 335 789T178 740Q149 772 132 824T110 926Q173 952 249 972T404 1003T548 1015Q641 1015 718 981T842 873T889 677V269Q889 219
901 182T945 119Z" />
<glyph unicode="b" horiz-adv-x="1063" d="M393 50H137V1458L150 1471H249Q327 1471 360 1435T393 1310V50ZM990 510Q991 342 930 224T762 45T515 -17Q413 -17 316 1T137 50L263 246Q321 209 384 191T519 173Q584 173 629 211T699 324T723 505Q723 661 681 729T569
798Q511 800 450 761T350 651L312 854Q348 894 395 930T504 988T639 1011Q757 1011 834 947T951 769T990 510Z" />
<glyph unicode="c" horiz-adv-x="946" d="M648 580Q649 651 638 706T596 792T502 824Q420 824 381 744T342 493Q342 323 393 252T540 180Q604 180 663 208T771 272Q804 253 835 208T875 123Q807 55 708 14T499 -27Q391 -27 311 11T179 120T100 286T74 493Q74 635
110 735T209 899T349 991T507 1021Q595 1021 665 996T784 926T858 824T884 704Q884 638 850 604T754 570Q693 570 648 580Z" />
<glyph unicode="d" horiz-adv-x="1069" d="M928 285Q928 232 941 188T984 119Q976 84 951 44T898 -15Q782 -5 728 76T673 268V1458L686 1471H787Q866 1471 897 1435T928 1310V285ZM76 485Q76 660 131 777T275 952T468 1011Q568 1011 648 970T797 884L760 690Q702
736 637 774T510 812Q458 812 421 775T364 664T343 483Q343 378 363 312T417 216T492 185Q533 185 581 208T674 287T743 440L801 275Q787 200 735 131T603 18T427 -27Q310 -27 232 38T115 218T76 485Z" />
<glyph unicode="e" horiz-adv-x="997" d="M239 413V596H669V621Q669 678 653 726T601 803T505 832Q418 832 379 760T339 550V471Q339 390 354 323T414 217T544 177Q616 177 683 196T813 245Q843 215 862 170T887 85Q814 32 712 3T503 -27Q377 -27 294 15T163 131T94
298T74 492Q74 642 120 761T262 951T507 1021Q638 1021 728 965T866 812T914 596Q914 538 909 499T893 413H239Z" />
<glyph unicode="f" horiz-adv-x="698" d="M315 991L697 995Q707 951 707 902Q707 879 705 854T697 806L312 812L16 806Q11 829 9 854T6 902Q6 925 8 949T16 995L315 991ZM188 883Q182 951 173 1017T164 1148Q164 1243 204 1317T318 1435T494 1479Q575 1479 650
1463T775 1428Q777 1383 761 1333T718 1254Q684 1264 640 1273T554 1282Q488 1282 451 1244T414 1131Q414 1074 425 1008T444 880V0Q414 -5 381 -7T314 -9Q283 -9 251 -7T188 0V883Z" />
<glyph unicode="g" horiz-adv-x="1064" d="M986 874Q957 851 944 806T930 707V149Q930 21 919 -64T885 -206T831 -302Q777 -370 686 -405T477 -441Q384 -441 287 -422T116 -375Q116 -328 134 -272T182 -183Q246 -212 318 -228T453 -244Q540 -244 588 -213T656
-128T676 -5V726Q676 837 730 917T900 1008Q927 990 953 950T986 874ZM76 495Q76 669 131 786T276 962T468 1021Q561 1021 627 992T738 919T813 833L774 616Q719 712 648 766T512 821Q459 821 421 784T363 673T343 493Q343 335 385 265T490 194Q560 194 625 240T731
368L768 179Q738 128 687 83T570 10T430 -19Q311 -19 233 46T115 227T76 495Z" />
<glyph unicode="h" horiz-adv-x="1087" d="M393 0Q366 -5 333 -7T263 -9Q231 -9 199 -7T137 0V1458L150 1471H251Q330 1471 361 1435T393 1310V0ZM957 231Q957 176 966 127T998 41Q970 18 927 2T835 -15Q757 -15 727 27T696 148V614Q696 698 674 737T591 776Q551
776 502 755T406 694T329 592V829Q397 902 487 956T685 1010Q777 1010 837 966T927 844T957 668V231Z" />
<glyph unicode="i" horiz-adv-x="570" d="M436 0Q409 -5 375 -7T306 -9Q272 -9 238 -7T174 0V696Q174 748 155 777T84 806H57Q46 850 46 896Q46 919 49 943T57 991Q100 996 141 998T210 1000H245Q334 1000 385 944T436 791V0ZM114 1267Q114 1292 119 1319T135
1371Q157 1383 193 1390T265 1398Q300 1398 338 1391T395 1371Q405 1347 410 1319T416 1267Q416 1243 411 1215T395 1164Q376 1152 338 1144T265 1136Q230 1136 193 1143T135 1164Q125 1187 120 1215T114 1267Z" />
<glyph unicode="j" horiz-adv-x="583" d="M448 6Q448 -127 421 -215T321 -357T111 -439Q84 -416 63 -371T38 -280Q95 -254 128 -226T176 -152T191 -34V696Q191 748 171 777T100 806H56Q45 850 45 896Q45 919 47 943T56 991Q103 996 150 998T226 1000H261Q349 1000
398 944T448 791V6ZM122 1267Q122 1292 127 1319T143 1371Q165 1383 201 1390T273 1398Q308 1398 346 1391T403 1371Q413 1347 418 1319T424 1267Q424 1243 419 1215T403 1164Q384 1152 346 1144T273 1136Q238 1136 201 1143T143 1164Q133 1187 128 1215T122 1267Z"
/>
<glyph unicode="k" horiz-adv-x="1025" d="M393 0Q366 -5 332 -7T263 -9Q230 -9 198 -7T137 0V1458L150 1471H251Q330 1471 361 1435T393 1310V0ZM905 230Q930 161 951 124T1001 67Q972 32 925 9T826 -15Q765 -15 735 16T681 113L611 297Q585 368 555 391T469
415Q433 415 402 413T337 405L260 396V580H552Q660 580 734 535T847 386L905 230ZM758 660Q715 581 642 544T460 506H290V626L441 630Q461 630 472 637T494 662L633 899Q659 948 694 974T788 1000Q829 1000 862 1000T931 997L943 981L758 660Z" />
<glyph unicode="l" horiz-adv-x="607" d="M537 193Q546 165 552 132T558 66Q558 52 557 37T552 7Q512 1 460 -4T358 -9Q241 -9 188 50T134 234V1458L148 1471H249Q328 1471 359 1435T390 1310V284Q390 240 410 217T473 193H537Z" />
<glyph unicode="m" horiz-adv-x="1606" d="M247 1004Q325 1004 361 954T398 816V0Q371 -5 337 -7T268 -9Q235 -9 201 -7T137 0V990L150 1004H247ZM676 614Q676 706 647 741T572 776Q526 775 474 743T378 662T312 556V793Q358 850 414 900T536 980T670 1011Q757
1011 817 970T907 858T937 698V0Q910 -5 876 -7T807 -9Q774 -9 740 -7T676 0V614ZM1214 616Q1214 708 1184 742T1108 776Q1065 776 1015 744T919 661T845 548V809Q892 863 951 909T1078 983T1214 1011Q1302 1011 1360 969T1447 856T1476 695V231Q1476 176 1484
127T1517 41Q1489 18 1446 2T1354 -15Q1276 -15 1245 27T1214 148V616Z" />
<glyph unicode="n" horiz-adv-x="1093" d="M249 1004Q326 1004 362 954T398 816V0Q371 -5 337 -7T268 -9Q235 -9 201 -7T137 0V991L150 1004H249ZM962 231Q962 176 971 127T1004 41Q975 18 932 2T840 -15Q762 -15 732 27T701 148V615Q701 698 680 737T597 776Q556
776 507 756T412 695T334 592V830Q403 902 492 956T689 1011Q782 1011 842 967T932 845T962 668V231Z" />
<glyph unicode="o" horiz-adv-x="1042" d="M968 497Q968 340 917 222T767 38T521 -27Q373 -27 274 39T124 223T74 497Q74 653 124 771T274 955T521 1021Q668 1021 768 955T918 771T968 497ZM342 497Q342 409 356 335T410 215T521 169Q595 169 633 214T685 334T699
497Q699 584 685 659T633 779T521 825Q449 825 410 780T357 659T342 497Z" />
<glyph unicode="p" horiz-adv-x="1068" d="M224 1004Q305 1004 349 947T394 790V-270Q394 -357 362 -394T251 -431H150L137 -418V991L150 1004H224ZM993 509Q993 333 938 216T793 40T600 -19Q500 -19 420 23T272 110L309 303Q367 257 432 220T559 182Q610 182
648 219T706 330T726 510Q726 616 706 681T651 777T575 808Q535 808 487 785T395 707T324 552L268 718Q282 792 334 861T465 976T640 1021Q758 1021 836 956T954 775T993 509Z" />
<glyph unicode="q" horiz-adv-x="1068" d="M76 495Q76 669 131 786T276 962T468 1021Q561 1021 627 992T738 921T813 835L774 616Q719 712 648 766T512 821Q460 821 422 784T364 673T343 493Q343 388 363 322T416 225T490 194Q560 194 625 240T731 368L768 177Q738
127 687 82T570 9T430 -19Q311 -19 233 46T115 227T76 495ZM674 726Q674 837 728 917T898 1008Q925 990 951 950T985 874Q957 851 943 806T929 707V-418L916 -431H815Q736 -431 705 -394T674 -270V726Z" />
<glyph unicode="r" horiz-adv-x="766" d="M761 993Q761 944 745 873T696 748Q673 755 650 759T604 763Q555 763 519 744T454 693T404 617T365 526L332 568Q336 646 352 723T403 864T495 968T641 1007Q678 1007 705 1004T761 993ZM79 872Q87 907 112 947T165 1008Q285
992 344 907T415 686V0Q389 -5 355 -7T285 -9Q251 -9 217 -7T154 0V665Q154 750 129 801T79 872Z" />
<glyph unicode="s" horiz-adv-x="881" d="M50 71Q52 114 75 166T129 249Q193 215 264 190T407 164Q476 164 514 191T554 260Q554 296 527 325T446 373L332 414Q263 440 206 478T115 573T81 707Q81 804 128 874T259 983T452 1021Q540 1021 638 998T799 943Q801
912 792 875T765 807T726 757Q668 783 597 805T452 828Q400 828 371 803T341 739Q341 705 365 682T439 641L563 596Q676 556 749 482T823 284Q823 140 712 57T411 -27Q304 -27 211 2T50 71Z" />
<glyph unicode="t" horiz-adv-x="726" d="M177 1136Q177 1223 208 1260T318 1297H418L432 1283V283Q432 241 451 217T518 193H642Q652 165 657 132T662 66Q662 52 662 37T657 7Q604 1 540 -4T415 -9Q296 -9 237 50T177 234V1136ZM674 995Q686 949 686 902Q686
878 683 854T674 806L323 812L25 806Q14 852 14 902Q14 947 25 995L329 990L674 995Z" />
<glyph unicode="u" horiz-adv-x="1096" d="M956 283Q956 230 969 185T1012 117Q1004 81 979 43T925 -15Q809 -5 752 77T694 270V993Q721 998 756 1000T825 1003Q859 1003 893 1001T956 993V283ZM131 762Q131 817 122 866T89 951Q118 976 161 991T252 1007Q330
1007 361 966T392 844V378Q392 295 414 256T496 217Q537 217 586 237T681 299T758 400V164Q690 91 601 37T403 -18Q311 -18 251 26T161 148T131 325V762Z" />
<glyph unicode="v" horiz-adv-x="936" d="M690 993Q714 998 738 1000T786 1002Q821 1002 855 998T920 981L928 971Q896 859 857 726T777 458T700 204T636 0Q593 -6 542 -8T443 -11Q367 -11 325 14T258 121L1 973Q39 989 77 999T147 1009Q207 1009 243 983T295
891L406 486Q419 442 430 392T451 296T466 220Q468 208 472 206T486 204L690 993Z" />
<glyph unicode="w" horiz-adv-x="1480" d="M26 977Q66 994 103 1001T175 1009Q233 1009 260 982T298 900L374 532Q394 437 409 351T433 210Q436 194 449 194L587 985Q618 992 666 995T739 998Q766 998 816 995T894 985L1031 210Q1035 194 1047 194Q1062 272 1077
357T1111 532L1209 993Q1231 998 1259 1000T1313 1003Q1342 1003 1382 999T1449 981L1457 967L1219 -1Q1180 -6 1126 -8T1025 -11Q950 -11 909 11T854 117L809 362Q801 413 790 478T768 615T745 757H735Q725 688 713 617T690 481T668 365L600 0Q558 -5 502 -8T398
-11Q327 -11 286 13T227 119L26 977Z" />
<glyph unicode="x" horiz-adv-x="942" d="M40 953Q81 983 129 997T218 1011Q267 1011 295 991T350 931L931 42Q893 17 845 0T753 -17Q704 -17 673 3T616 62L40 953ZM655 993Q675 998 703 1000T758 1003Q796 1003 828 999T888 985L895 967L570 463L505 398L265
-1Q246 -6 218 -8T161 -11Q123 -11 88 -7T25 9L16 27L370 576L441 642L655 993Z" />
<glyph unicode="y" horiz-adv-x="966" d="M225 -437Q171 -437 107 -426T7 -401Q3 -356 19 -300T61 -214Q89 -223 135 -232T225 -242Q285 -242 326 -217T395 -147T443 -39L450 -11Q378 -11 333 14T268 105L21 973Q62 992 105 1000T181 1009Q228 1009 260 985T309
896L423 474Q435 435 445 384T466 283T482 197Q485 183 500 183L696 993Q718 998 747 1000T802 1003Q836 1003 871 1000T940 985L949 969L694 29Q654 -115 600 -219T458 -380T225 -437Z" />
<glyph unicode="z" horiz-adv-x="896" d="M378 610Q413 657 458 709T538 802L532 810Q499 806 454 803T361 798T275 796H94Q90 816 88 838T85 877Q85 905 89 935T99 993H783Q801 943 810 908T819 846Q819 827 813 805T791 764L507 385Q473 340 432 290T354 198L360
189Q406 194 450 196T531 199H613Q669 199 721 205T814 230Q827 197 833 172T840 119Q840 65 808 33T691 0H91Q74 50 67 79T59 133Q59 155 67 180T97 233L378 610Z" />
<glyph unicode="{" horiz-adv-x="747" d="M676 -449L558 -430Q426 -409 340 -324T254 -88V242Q254 325 207 388T87 469Q75 500 75 553T87 638Q159 655 206 718T254 864V1194Q254 1345 340 1430T558 1536L676 1555Q694 1536 707 1504T725 1438T725 1382L614 1346Q572
1333 545 1294T517 1192V868Q517 769 471 683T345 561V545Q424 511 470 424T517 238V-86Q517 -149 544 -188T614 -240L725 -276Q730 -298 725 -331T707 -397T676 -449Z" />
<glyph unicode="|" horiz-adv-x="526" d="M141 1547Q169 1554 205 1556T265 1559Q290 1559 322 1557T385 1547V-283Q355 -290 323 -292T265 -294Q242 -294 206 -292T141 -283V1547Z" />
<glyph unicode="}" horiz-adv-x="747" d="M70 -449Q53 -430 40 -398T22 -332T21 -276L132 -240Q174 -227 201 -188T229 -86V238Q229 337 276 424T401 545V561Q324 596 277 682T229 868V1192Q229 1254 202 1293T132 1346L21 1382Q17 1405 22 1438T40 1503T70 1555L189
1536Q321 1515 407 1430T493 1194V864Q493 781 540 718T660 638Q672 607 672 554T660 469Q588 452 541 389T493 242V-88Q493 -238 407 -323T189 -430L70 -449Z" />
<glyph unicode="~" horiz-adv-x="1220" d="M740 668Q766 658 790 652T835 645Q869 645 897 660T951 704L995 752Q1036 749 1083 722T1149 651L1116 594Q1065 505 990 454T817 403Q775 403 731 413T642 444L479 517Q454 529 430 535T384 541Q351 541 323 526T270
482L225 433Q185 437 137 464T70 535L105 592Q156 681 231 731T403 782Q445 782 489 772T578 742L740 668Z" />
<glyph unicode="&#xa0;" horiz-adv-x="440" />
<glyph unicode="&#xa1;" horiz-adv-x="597" d="M399 600Q413 404 429 210T445 -184V-360Q409 -370 354 -374T244 -374T152 -360V-181Q152 15 169 209T199 600Q226 608 252 610T299 613Q318 613 346 611T399 600ZM299 755Q263 755 228 762T168 784Q159 800 154
833T148 891Q148 915 153 947T168 995Q192 1009 227 1016T299 1024Q335 1024 370 1017T430 995Q440 979 444 947T449 891Q449 866 445 833T430 784Q406 770 371 763T299 755Z" />
<glyph unicode="&#xa2;" horiz-adv-x="1080" d="M562 -53Q538 -53 511 -50T464 -43V262H660V-43Q641 -47 614 -50T562 -53ZM470 994V1309Q490 1313 517 1316T568 1319Q594 1319 620 1316T666 1309V994H470ZM570 133Q438 133 350 177T209 295T135 455T113 629Q113
808 179 919T352 1081T576 1133Q667 1133 739 1108T863 1039T940 941T967 828Q967 755 933 719T829 682Q806 682 782 685T736 694Q737 754 723 809T671 901T569 937Q472 937 424 859T376 629Q376 477 440 410T610 343Q674 343 739 372T853 443Q887 422 918 380T962
298Q921 248 857 211T718 154T570 133Z" />
<glyph unicode="&#xa3;" horiz-adv-x="1080" d="M170 0Q149 61 143 91T137 144Q137 181 157 208T199 262L223 288Q261 330 288 378T315 494Q315 575 293 642T247 777T224 925Q224 1026 273 1110T414 1245T631 1296Q736 1296 823 1258T973 1163Q963 1115 929 1066T850
992Q807 1030 756 1055T652 1080Q588 1080 537 1041T485 905Q485 847 502 788T535 661T552 515Q552 428 509 350T399 209L404 204Q478 212 567 214T754 216H987Q987 91 945 46T814 0H170ZM146 520Q137 558 137 613Q137 667 146 707L412 705L824 707Q829 689 831
664T834 615Q834 591 832 565T824 520L412 522L146 520Z" />
<glyph unicode="&#xa4;" horiz-adv-x="1080" d="M538 236Q422 236 332 286T192 425T141 632Q141 751 191 840T332 980T538 1030Q656 1030 745 980T886 841T937 632Q937 515 886 426T746 286T538 236ZM538 418Q625 418 665 480T706 632Q706 722 666 785T538 848Q452
848 412 785T371 632Q371 544 411 481T538 418ZM181 136Q142 158 106 195T45 272L261 510L421 350L181 136ZM261 752L45 991Q66 1031 104 1067T181 1126L418 912L261 752ZM820 754L660 915L899 1130Q938 1108 974 1071T1035 994L820 754ZM895 134L656 350L817 507L1031
270Q1009 231 973 195T895 134Z" />
<glyph unicode="&#xa5;" horiz-adv-x="1080" d="M413 442L69 1243Q106 1262 150 1275T236 1289Q282 1289 310 1266T356 1192L453 947Q474 892 496 827T539 684H549Q571 754 596 823T642 947L771 1269Q796 1277 820 1279T869 1281Q900 1281 933 1278T1003 1265L1011
1245L658 442H413ZM537 -9Q513 -9 476 -8T407 0V519H664V0Q631 -6 597 -7T537 -9ZM130 299Q125 319 122 340T119 387Q119 411 122 433T130 474H942Q953 432 953 388Q953 343 942 299H130ZM130 611Q125 630 122 652T119 700Q119 724 122 746T130 788H406V611H130ZM665
611V788H942Q946 772 949 750T953 700Q953 676 950 654T942 611H665Z" />
<glyph unicode="&#xa6;" horiz-adv-x="514" d="M137 491Q165 498 200 500T259 503Q284 503 316 501T377 491V-283Q348 -290 316 -292T259 -294Q236 -294 201 -292T137 -283V491ZM137 1547Q165 1554 200 1556T259 1559Q284 1559 316 1557T377 1547V773Q348 766
316 764T259 762Q236 762 201 764T137 773V1547Z" />
<glyph unicode="&#xa7;" horiz-adv-x="986" d="M510 385Q554 401 592 428T654 491T677 571Q677 613 651 644T579 701T479 748L383 786Q312 815 254 855T161 953T127 1087Q127 1174 174 1243T307 1352T503 1393Q589 1393 676 1373T828 1322Q831 1275 809 1221T754
1141Q697 1165 635 1182T512 1200Q457 1200 422 1176T386 1108Q386 1072 412 1048T489 1005L604 957Q692 922 766 877T885 770T930 615Q930 534 883 464T759 342T592 260L510 385ZM477 786Q433 770 395 743T333 679T309 599Q309 558 334 527T405 471T509 422L604
385Q676 357 734 315T826 215T860 81Q860 -6 812 -75T677 -185T471 -226Q381 -226 287 -204T126 -142Q124 -95 147 -41T203 38Q256 13 326 -10T472 -33Q530 -33 565 -8T601 60Q601 96 575 121T499 166L384 213Q296 250 222 294T103 401T57 555Q57 637 104 707T228
829T394 911L477 786Z" />
<glyph unicode="&#xa8;" horiz-adv-x="796" d="M74 1241Q74 1260 77 1285T90 1331Q112 1345 143 1352T204 1359Q233 1359 264 1352T318 1331Q326 1311 330 1286T334 1241Q334 1222 330 1197T318 1151Q296 1138 265 1131T204 1123Q175 1123 144 1130T90 1151Q81
1171 78 1196T74 1241ZM462 1241Q462 1260 466 1285T478 1331Q500 1345 531 1352T592 1359Q621 1359 652 1352T706 1331Q715 1311 718 1286T722 1241Q722 1222 719 1197T706 1151Q684 1138 653 1131T592 1123Q563 1123 532 1130T478 1151Q470 1171 466 1196T462
1241Z" />
<glyph unicode="&#xa9;" horiz-adv-x="1591" d="M71 682Q71 835 126 967T279 1197T509 1351T795 1407Q948 1407 1080 1352T1310 1198T1464 967T1520 682Q1520 529 1465 397T1311 167T1080 14T795 -41Q641 -41 510 14T280 167T126 397T71 682ZM275 682Q275 568
313 469T421 296T586 179T795 136Q909 136 1004 178T1169 295T1277 469T1316 682Q1316 796 1278 895T1169 1069T1004 1187T795 1230Q681 1230 586 1187T422 1069T314 895T275 682ZM909 743Q911 787 901 828T866 896T793 923Q728 923 695 863T661 683Q661 571 705
513T830 454Q872 454 920 476T1009 525Q1036 509 1058 474T1087 407Q1040 359 957 326T796 292Q671 292 595 347T484 491T450 683Q450 825 502 911T636 1036T801 1076Q892 1076 958 1043T1061 955T1097 841Q1097 789 1071 761T986 733Q967 733 945 736T909 743Z"
/>
<glyph unicode="&#xaa;" horiz-adv-x="883" d="M79 703Q79 796 120 855T233 942T393 970Q434 970 490 966T595 957V815Q555 820 504 823T409 827Q353 827 323 798T293 717Q293 680 317 653T384 626Q434 626 493 666T593 770L628 628Q597 592 553 554T453 490T325
463Q245 463 191 497T108 586T79 703ZM800 587Q796 555 771 522T715 471Q625 479 574 541T522 710V1016Q522 1074 490 1099T415 1124Q354 1124 297 1110T172 1073Q148 1100 133 1139T115 1221Q190 1252 287 1272T468 1293Q543 1293 606 1266T709 1179T748 1023V710Q748
668 758 637T800 587Z" />
<glyph unicode="&#xab;" horiz-adv-x="1169" d="M960 62L559 433Q546 464 546 510T559 587L954 961Q997 951 1040 910T1096 826L835 515L1105 196Q1097 169 1073 141T1019 91T960 62ZM721 62L320 433Q307 464 307 510T320 587L715 961Q758 951 801 910T857 826L596
515L866 196Q858 169 834 141T780 91T721 62Z" />
<glyph unicode="&#xac;" horiz-adv-x="1080" d="M109 751Q102 725 100 695T98 644Q98 625 100 594T109 536H617Q650 536 680 537T742 538L962 536V738L949 751H109ZM734 561Q735 529 734 495T732 428V280Q765 274 793 272T851 270Q880 270 908 272T962 280V651H732L734
561Z" />
<glyph unicode="&#xae;" horiz-adv-x="1195" d="M61 950Q61 1100 132 1222T324 1415T597 1487Q747 1487 868 1416T1061 1222T1133 950Q1133 800 1062 679T869 486T597 415Q446 415 325 486T132 678T61 950ZM221 950Q221 843 269 754T403 613T597 560Q705 560 790
612T924 754T974 950Q974 1058 925 1147T790 1289T597 1342Q489 1342 404 1289T270 1147T221 950ZM808 1065Q808 1006 777 974T707 931Q731 922 745 903T773 856L798 809Q807 791 818 775T843 750Q829 728 802 714T746 699Q717 699 699 714T664 760L619 850Q609
868 598 877T563 886H470V992Q496 993 535 993T591 994Q629 994 645 1011T662 1052Q662 1074 647 1090T597 1107Q580 1107 566 1107T535 1107V709Q508 701 465 701Q423 701 395 709V1203L401 1208Q454 1210 508 1211T610 1213Q716 1213 762 1170T808 1065Z" />
<glyph unicode="&#xaf;" horiz-adv-x="796" d="M104 1147Q97 1172 94 1194T91 1244Q91 1271 94 1293T104 1343H693Q700 1316 702 1296T705 1246Q705 1217 703 1195T693 1147H104Z" />
<glyph unicode="&#xb0;" horiz-adv-x="772" d="M59 966Q59 1062 101 1135T218 1251T387 1293Q481 1293 554 1251T670 1136T712 966Q712 870 670 796T555 679T387 637Q293 637 219 679T102 795T59 966ZM247 966Q247 894 284 850T387 805Q450 805 487 849T524 966Q524
1037 487 1081T387 1126Q322 1126 285 1082T247 966Z" />
<glyph unicode="&#xb1;" horiz-adv-x="1080" d="M140 809Q134 781 132 761T130 712Q130 683 132 662T140 612H315Q347 612 377 613T438 614H642Q672 614 702 613T765 612H940Q946 641 948 662T950 712Q950 741 948 761T940 809H765Q733 809 703 808T642 807H438Q408
807 378 808T315 809H140ZM428 930Q428 897 429 865T430 800V622Q430 592 429 559T428 494V332Q455 326 483 324T541 322Q569 322 597 324T652 332V494Q652 525 651 558T650 622V800Q650 832 651 864T652 930V1103Q625 1110 597 1111T541 1113Q512 1113 484 1112T428
1103V930ZM140 0Q134 28 132 51T130 103Q130 132 132 153T140 203H940Q946 175 948 154T950 103Q950 74 948 51T940 0H140Z" />
<glyph unicode="&#xb2;" horiz-adv-x="840" d="M106 1289Q129 1383 207 1447T404 1511Q535 1511 614 1434T694 1241Q694 1167 665 1113T595 1022T524 962L438 900Q381 860 345 827T308 763V633H165Q125 681 110 709T95 766Q95 826 140 885T246 992L373 1089Q409
1117 440 1151T472 1235Q472 1275 448 1300T384 1324Q343 1323 314 1292T272 1218Q245 1219 211 1229T148 1255T106 1289ZM718 825Q718 742 703 701T658 646T588 633H197L173 762Q222 784 280 798T408 818T556 825H718Z" />
<glyph unicode="&#xb3;" horiz-adv-x="840" d="M492 912Q492 967 457 996T373 1026Q354 1026 337 1023T303 1012Q274 1025 249 1059T216 1127Q279 1144 340 1154T456 1164Q523 1164 582 1134T677 1046T713 910Q713 815 665 751T539 654T375 622Q287 622 215 648T94
714Q102 753 126 792T180 858Q218 832 262 814T361 796Q420 796 456 827T492 912ZM547 1198Q515 1171 456 1138T333 1085L216 1127L355 1257Q373 1273 395 1291T435 1322L431 1328Q404 1324 356 1321T279 1318H135Q130 1340 128 1359T125 1395Q125 1417 129 1443T144
1497H634Q649 1470 663 1435T678 1369Q678 1337 665 1316T625 1272L547 1198Z" />
<glyph unicode="&#xb4;" horiz-adv-x="796" d="M464 1509Q515 1494 564 1449T631 1351L274 1079Q241 1089 210 1117T165 1181L464 1509Z" />
<glyph unicode="&#xb5;" horiz-adv-x="1106" d="M231 468V335Q231 242 265 162T363 31T511 -19Q608 -19 675 36T777 174L759 392Q722 306 668 255T541 204Q471 204 434 250T396 375V468H231ZM966 993Q938 998 903 1000T834 1003Q801 1003 767 1001T704 993V271Q704
161 761 78T934 -15Q962 4 987 42T1022 117Q993 140 980 185T966 284V993ZM396 993Q368 998 335 1000T268 1003Q234 1003 200 1001T138 993V-192Q138 -231 131 -287T97 -385Q129 -410 168 -423T255 -437Q335 -437 357 -388T380 -261V162H396V993Z" />
<glyph unicode="&#xb6;" horiz-adv-x="1424" d="M562 124Q562 45 547 -8T491 -88T376 -115Q328 -115 276 -103T181 -74Q152 -112 137 -170T123 -266Q169 -284 245 -299T401 -315Q561 -315 653 -260T785 -95T825 174V1355L812 1368Q737 1371 676 1374T544 1377Q407
1377 299 1332T129 1188T67 935Q67 784 128 685T295 536T531 487H562V124ZM951 1353L965 1366H1217V-263Q1185 -270 1150 -272T1086 -274Q1060 -274 1021 -272T951 -263V1353ZM1086 1366H1378Q1387 1341 1389 1297T1390 1209T1378 1139H1312Q1276 1139 1241 1141T1172
1144H1086V1366Z" />
<glyph unicode="&#xb7;" horiz-adv-x="635" d="M166 528Q166 546 170 581T185 639Q209 653 246 662T318 671Q349 671 387 662T449 639Q460 616 464 581T469 528Q469 510 465 475T449 418Q427 403 388 395T318 386Q283 386 246 394T185 418Q175 440 171 475T166 528Z" />
<glyph unicode="&#xb8;" horiz-adv-x="796" d="M250 -152Q261 -119 284 -69T326 12H471Q460 -2 447 -27T427 -68Q505 -75 557 -123T610 -245Q610 -338 537 -397T350 -456Q302 -456 257 -443T185 -412Q187 -380 199 -348T232 -292Q250 -303 275 -311T328 -319Q369
-319 388 -300T408 -252Q408 -223 389 -204T334 -184Q322 -184 311 -186T290 -192Q278 -187 267 -176T250 -152Z" />
<glyph unicode="&#xb9;" horiz-adv-x="840" d="M567 731H355V1056Q355 1078 357 1117T362 1200T364 1279L363 1493Q390 1498 416 1500T466 1503Q491 1503 513 1501T567 1493V731ZM257 812Q276 812 307 812T355 811H567Q584 811 619 811T672 812H728Q734 791 736
768T739 722Q739 702 737 679T728 633H156Q151 656 149 678T146 722Q146 742 148 766T156 812H257ZM94 1211Q203 1276 262 1340T363 1493L435 1358Q407 1251 350 1188T191 1077Q154 1094 128 1134T94 1211Z" />
<glyph unicode="&#xba;" horiz-adv-x="870" d="M793 879Q793 784 767 698T676 548Q631 505 569 483T435 461Q363 461 301 482T195 548Q130 613 104 698T77 879Q77 973 103 1058T195 1207Q240 1251 301 1272T435 1293Q506 1293 569 1273T676 1207Q740 1142 766
1058T793 879ZM297 879Q297 809 310 753T353 663T435 630Q488 630 517 663T560 752T573 879Q573 949 560 1005T518 1093T435 1126Q384 1126 354 1094T310 1005T297 879Z" />
<glyph unicode="&#xbb;" horiz-adv-x="1169" d="M209 961L609 591Q623 560 623 514T609 436L214 62Q171 73 129 114T73 197L333 509L63 828Q72 856 95 883T149 932T209 961ZM704 961L1104 591Q1118 560 1118 514T1104 436L709 62Q667 73 624 114T568 197L828 509L558
828Q567 856 590 883T645 932T704 961Z" />
<glyph unicode="&#xbc;" horiz-adv-x="2059" d="M567 600H355V925Q355 947 357 986T362 1069T364 1148L363 1362Q390 1367 416 1369T466 1372Q491 1372 513 1370T567 1362V600ZM257 681Q276 681 307 681T355 680H567Q584 680 619 680T672 681H728Q734 660 736
637T739 591Q739 571 737 548T728 502H156Q151 525 149 547T146 591Q146 611 148 635T156 681H257ZM94 1080Q203 1145 262 1209T363 1362L435 1227Q407 1120 350 1057T191 946Q154 963 128 1003T94 1080ZM1344 1366Q1378 1375 1429 1377T1528 1376T1597 1366L842
0Q808 -8 757 -10T658 -10T589 0L1344 1366ZM1346 149Q1328 180 1314 216T1299 279Q1299 299 1309 328T1327 373L1553 875Q1602 880 1662 867T1756 828L1633 559Q1620 532 1599 488T1554 400T1508 325L1511 321Q1538 325 1571 326T1632 327T1673 328H1859Q1874
328 1891 329T1926 330H1970Q1973 313 1975 292T1977 249Q1977 222 1974 195T1964 149H1920Q1907 149 1889 150T1858 151H1660Q1643 151 1616 150T1566 149H1346ZM1658 66Q1658 90 1659 110T1660 151V295Q1660 307 1659 327T1658 360V413Q1658 481 1696 524T1799
568H1852L1860 561V433Q1860 407 1859 380T1858 328V151Q1858 131 1859 111T1860 66V2Q1837 -3 1811 -6T1759 -9Q1734 -9 1708 -6T1658 2V66Z" />
<glyph unicode="&#xbd;" horiz-adv-x="2098" d="M567 600H355V925Q355 947 357 986T362 1069T364 1148L363 1362Q390 1367 416 1369T466 1372Q491 1372 513 1370T567 1362V600ZM257 681Q276 681 307 681T355 680H567Q584 680 619 680T672 681H728Q734 660 736
637T739 591Q739 571 737 548T728 502H156Q151 525 149 547T146 591Q146 611 148 635T156 681H257ZM94 1080Q203 1145 262 1209T363 1362L435 1227Q407 1120 350 1057T191 946Q154 963 128 1003T94 1080ZM1344 1366Q1378 1375 1429 1377T1528 1376T1597 1366L842
0Q808 -8 757 -10T658 -10T589 0L1344 1366ZM1364 656Q1387 750 1465 814T1662 878Q1793 878 1872 801T1952 608Q1952 534 1923 480T1853 389T1782 329L1696 267Q1639 227 1603 194T1566 130V0H1423Q1383 48 1368 76T1353 133Q1353 193 1398 252T1504 359L1631
456Q1667 484 1698 518T1730 602Q1730 642 1706 667T1642 691Q1601 690 1572 659T1530 585Q1503 586 1469 596T1406 622T1364 656ZM1976 192Q1976 109 1961 68T1916 13T1846 0H1455L1431 129Q1480 151 1538 165T1666 185T1814 192H1976Z" />
<glyph unicode="&#xbe;" horiz-adv-x="2020" d="M492 781Q492 836 457 865T373 895Q354 895 337 892T303 881Q274 894 249 928T216 996Q279 1013 340 1023T456 1033Q523 1033 582 1003T677 915T713 779Q713 684 665 620T539 523T375 491Q287 491 215 517T94 583Q102
622 126 661T180 727Q218 701 262 683T361 665Q420 665 456 696T492 781ZM547 1067Q515 1040 456 1007T333 954L216 996L355 1126Q373 1142 395 1160T435 1191L431 1197Q404 1193 356 1190T279 1187H135Q130 1209 128 1228T125 1264Q125 1286 129 1312T144 1366H634Q649
1339 663 1304T678 1238Q678 1206 665 1185T625 1141L547 1067ZM1301 1366Q1335 1375 1386 1377T1485 1376T1554 1366L799 0Q765 -8 714 -10T615 -10T546 0L1301 1366ZM1307 149Q1289 180 1275 216T1260 279Q1260 299 1270 328T1288 373L1514 875Q1563 880 1623
867T1717 828L1594 559Q1581 532 1560 488T1515 400T1469 325L1472 321Q1499 325 1532 326T1593 327T1634 328H1820Q1835 328 1852 329T1887 330H1931Q1934 313 1936 292T1938 249Q1938 222 1935 195T1925 149H1881Q1868 149 1850 150T1819 151H1621Q1604 151 1577
150T1527 149H1307ZM1619 66Q1619 90 1620 110T1621 151V295Q1621 307 1620 327T1619 360V413Q1619 481 1657 524T1760 568H1813L1821 561V433Q1821 407 1820 380T1819 328V151Q1819 131 1820 111T1821 66V2Q1798 -3 1772 -6T1720 -9Q1695 -9 1669 -6T1619 2V66Z"
/>
<glyph unicode="&#xbf;" horiz-adv-x="817" d="M814 -297Q732 -345 631 -376T417 -407Q229 -407 126 -309T23 -54Q23 91 98 185T284 339L407 405L425 583Q448 590 472 593T521 596Q545 596 572 593T624 583L638 285L617 258L513 209Q419 163 359 107T299 -25Q299
-95 344 -137T475 -180Q539 -180 601 -159T719 -108Q755 -136 783 -191T814 -297ZM522 742Q486 742 451 749T391 772Q381 788 376 820T371 878Q371 902 376 934T391 983Q415 997 450 1005T522 1013Q602 1013 654 983Q663 967 668 935T673 878Q673 853 668 821T654
772Q629 757 594 750T522 742Z" />
<glyph unicode="&#xc0;" horiz-adv-x="1250" d="M475 1366Q506 1371 551 1373T630 1375Q661 1375 707 1373T783 1365L1222 17Q1194 1 1151 -7T1068 -15Q1004 -15 969 14T908 128L727 726Q702 812 673 918T620 1114H608Q598 1064 583 1003T551 883T521 777L282
-2Q257 -8 228 -9T167 -11Q135 -11 98 -7T37 5L28 20L475 1366ZM474 307Q462 307 439 307T392 308T357 309H222L304 521H423Q435 521 456 521T499 522T532 523H704Q717 523 738 523T781 522T815 521H937L1007 309H873Q861 309 837 309T790 308T754 307H474ZM451
1843Q428 1826 405 1793T364 1720T343 1639L802 1455Q835 1475 853 1512T878 1585L451 1843Z" />
<glyph unicode="&#xc1;" horiz-adv-x="1250" d="M475 1366Q506 1371 551 1373T630 1375Q661 1375 707 1373T783 1365L1222 17Q1194 1 1151 -7T1068 -15Q1004 -15 969 14T908 128L727 726Q702 812 673 918T620 1114H608Q598 1064 583 1003T551 883T521 777L282
-2Q257 -8 228 -9T167 -11Q135 -11 98 -7T37 5L28 20L475 1366ZM474 307Q462 307 439 307T392 308T357 309H222L304 521H423Q435 521 456 521T499 522T532 523H704Q717 523 738 523T781 522T815 521H937L1007 309H873Q861 309 837 309T790 308T754 307H474ZM830
1843Q852 1826 875 1793T916 1720T937 1639L478 1455Q449 1472 428 1511T403 1585L830 1843Z" />
<glyph unicode="&#xc2;" horiz-adv-x="1250" d="M475 1366Q506 1371 551 1373T630 1375Q661 1375 707 1373T783 1365L1222 17Q1194 1 1151 -7T1068 -15Q1004 -15 969 14T908 128L727 726Q702 812 673 918T620 1114H608Q598 1064 583 1003T551 883T521 777L282
-2Q257 -8 228 -9T167 -11Q135 -11 98 -7T37 5L28 20L475 1366ZM474 307Q462 307 439 307T392 308T357 309H222L304 521H423Q435 521 456 521T499 522T532 523H704Q717 523 738 523T781 522T815 521H937L1007 309H873Q861 309 837 309T790 308T754 307H474ZM739
1799L964 1582Q952 1542 919 1512T857 1473L627 1621L398 1473Q370 1482 337 1512T289 1582L516 1799Q539 1803 568 1806T627 1809Q657 1809 686 1806T739 1799Z" />
<glyph unicode="&#xc3;" horiz-adv-x="1250" d="M475 1366Q506 1371 551 1373T630 1375Q661 1375 707 1373T783 1365L1222 17Q1194 1 1151 -7T1068 -15Q1004 -15 969 14T908 128L727 726Q702 812 673 918T620 1114H608Q598 1064 583 1003T551 883T521 777L282
-2Q257 -8 228 -9T167 -11Q135 -11 98 -7T37 5L28 20L475 1366ZM474 307Q462 307 439 307T392 308T357 309H222L304 521H423Q435 521 456 521T499 522T532 523H704Q717 523 738 523T781 522T815 521H937L1007 309H873Q861 309 837 309T790 308T754 307H474ZM538
1565Q523 1572 508 1577T474 1583Q456 1583 436 1570T398 1533L378 1507Q341 1507 302 1529T248 1585L263 1621Q297 1695 355 1740T492 1785Q527 1785 559 1775T618 1752L717 1704Q732 1697 750 1692T783 1686Q802 1686 822 1697T859 1734L879 1760Q917 1760 956
1738T1010 1682L994 1647Q961 1573 903 1528T766 1482Q731 1482 698 1492T640 1515L538 1565Z" />
<glyph unicode="&#xc4;" horiz-adv-x="1250" d="M475 1366Q506 1371 551 1373T630 1375Q661 1375 707 1373T783 1365L1222 17Q1194 1 1151 -7T1068 -15Q1004 -15 969 14T908 128L727 726Q702 812 673 918T620 1114H608Q598 1064 583 1003T551 883T521 777L282
-2Q257 -8 228 -9T167 -11Q135 -11 98 -7T37 5L28 20L475 1366ZM474 307Q462 307 439 307T392 308T357 309H222L304 521H423Q435 521 456 521T499 522T532 523H704Q717 523 738 523T781 522T815 521H937L1007 309H873Q861 309 837 309T790 308T754 307H474ZM849
1485Q819 1485 788 1492T733 1514Q724 1536 721 1562T717 1606Q717 1625 720 1650T733 1699Q756 1713 787 1720T849 1727Q879 1727 910 1720T964 1699Q974 1676 977 1651T981 1606Q981 1588 978 1562T964 1514Q942 1500 911 1493T849 1485ZM409 1485Q379 1485 347
1492T293 1514Q284 1536 281 1562T277 1606Q277 1625 280 1650T293 1699Q315 1713 347 1720T409 1727Q439 1727 470 1720T525 1699Q535 1676 538 1651T541 1606Q541 1588 538 1562T525 1514Q502 1500 471 1493T409 1485Z" />
<glyph unicode="&#xc5;" horiz-adv-x="1250" d="M477 1377H780L1222 17Q1194 1 1151 -7T1068 -15Q1004 -15 969 14T908 128L727 726Q702 812 673 918T620 1114H608Q598 1064 583 1003T551 883T521 777L282 -2Q257 -8 228 -9T167 -11Q135 -11 98 -7T37 5L28 20L477
1377ZM474 307Q462 307 439 307T392 308T357 309H222L304 521H423Q435 521 456 521T499 522T532 523H704Q717 523 738 523T781 522T815 521H937L1007 309H873Q861 309 837 309T790 308T754 307H474ZM366 1569Q366 1670 438 1740T629 1811Q747 1811 819 1741T892
1569Q892 1469 820 1398T629 1327Q511 1327 439 1398T366 1569ZM529 1569Q529 1524 557 1494T629 1464Q674 1464 701 1494T729 1569Q729 1614 702 1644T629 1674Q585 1674 557 1644T529 1569Z" />
<glyph unicode="&#xc6;" horiz-adv-x="1763" d="M642 1342Q672 1356 719 1361T803 1366H975L792 1114H781Q751 1034 714 943T643 775L291 -1Q261 -7 229 -9T164 -11Q129 -11 92 -7T28 7L19 21L642 1342ZM524 307Q509 307 487 307T442 308T406 309H298L394 519H493Q515
519 545 520T598 521H701Q716 521 737 521T780 520T816 519H913V309H816Q803 309 782 309T739 308T702 307H524ZM790 1353L803 1366H1047V1146Q1047 1104 1048 1074T1049 1003V344Q1049 312 1048 283T1047 219V-3H942Q871 -3 831 39T790 156V1353ZM1522 798Q1531
773 1534 742T1537 689Q1537 665 1534 635T1522 578H1179Q1156 578 1116 578T1034 579T960 581V795Q992 796 1034 796T1116 797T1179 798H1522ZM1636 1366Q1643 1336 1644 1310T1645 1260Q1645 1237 1640 1204T1624 1140H1179Q1156 1140 1116 1140T1034 1142T960
1144V1366H1636ZM1681 222Q1681 94 1641 46T1505 -3H960V212Q1017 215 1068 218T1188 222H1681Z" />
<glyph unicode="&#xc7;" horiz-adv-x="1213" d="M892 857Q894 936 873 1010T797 1132T643 1180Q501 1180 434 1051T367 676Q367 445 446 326T669 206Q768 206 853 248T1017 352Q1058 325 1096 276T1144 179Q1088 123 1006 76T826 1T621 -27Q470 -27 367 33T202
194T113 421T85 677Q85 928 163 1086T369 1320T652 1395Q804 1395 916 1340T1089 1193T1150 991Q1150 916 1112 879T997 842Q968 842 944 846T892 857ZM510 -152Q521 -119 544 -69T586 12H731Q720 -2 707 -27T687 -68Q765 -75 817 -123T870 -245Q870 -338 797 -397T610
-456Q562 -456 517 -443T445 -412Q447 -380 459 -348T492 -292Q510 -303 535 -311T588 -319Q629 -319 648 -300T668 -252Q668 -223 649 -204T594 -184Q582 -184 571 -186T550 -192Q538 -187 527 -176T510 -152Z" />
<glyph unicode="&#xc8;" horiz-adv-x="1139" d="M165 1353L178 1366H428V1146Q428 1104 429 1074T430 1003V342Q430 309 429 282T428 219V-3H319Q247 -3 206 39T165 156V1353ZM899 798Q907 773 910 742T914 689Q914 665 911 635T899 578H560Q536 578 495 578T411
579T337 581V795Q368 796 411 796T495 797T560 798H899ZM1013 1366Q1019 1336 1020 1310T1021 1260Q1021 1237 1016 1204T1000 1140H560Q536 1140 495 1140T411 1142T337 1144V1366H1013ZM1057 222Q1057 107 1022 52T881 -3H337V212Q394 215 447 218T568 222H1057ZM420
1843Q397 1826 374 1793T333 1720T312 1639L771 1455Q804 1475 822 1512T847 1585L420 1843Z" />
<glyph unicode="&#xc9;" horiz-adv-x="1139" d="M165 1353L178 1366H428V1146Q428 1104 429 1074T430 1003V342Q430 309 429 282T428 219V-3H319Q247 -3 206 39T165 156V1353ZM899 798Q907 773 910 742T914 689Q914 665 911 635T899 578H560Q536 578 495 578T411
579T337 581V795Q368 796 411 796T495 797T560 798H899ZM1013 1366Q1019 1336 1020 1310T1021 1260Q1021 1237 1016 1204T1000 1140H560Q536 1140 495 1140T411 1142T337 1144V1366H1013ZM1057 222Q1057 107 1022 52T881 -3H337V212Q394 215 447 218T568 222H1057ZM799
1843Q821 1826 844 1793T885 1720T906 1639L447 1455Q418 1472 397 1511T372 1585L799 1843Z" />
<glyph unicode="&#xca;" horiz-adv-x="1139" d="M165 1353L178 1366H428V1146Q428 1104 429 1074T430 1003V342Q430 309 429 282T428 219V-3H319Q247 -3 206 39T165 156V1353ZM899 798Q907 773 910 742T914 689Q914 665 911 635T899 578H560Q536 578 495 578T411
579T337 581V795Q368 796 411 796T495 797T560 798H899ZM1013 1366Q1019 1336 1020 1310T1021 1260Q1021 1237 1016 1204T1000 1140H560Q536 1140 495 1140T411 1142T337 1144V1366H1013ZM1057 222Q1057 107 1022 52T881 -3H337V212Q394 215 447 218T568 222H1057ZM707
1799L932 1582Q920 1542 887 1512T825 1473L595 1621L366 1473Q338 1482 305 1512T257 1582L484 1799Q507 1803 536 1806T595 1809Q625 1809 654 1806T707 1799Z" />
<glyph unicode="&#xcb;" horiz-adv-x="1139" d="M165 1353L178 1366H428V1146Q428 1104 429 1074T430 1003V342Q430 309 429 282T428 219V-3H319Q247 -3 206 39T165 156V1353ZM899 798Q907 773 910 742T914 689Q914 665 911 635T899 578H560Q536 578 495 578T411
579T337 581V795Q368 796 411 796T495 797T560 798H899ZM1013 1366Q1019 1336 1020 1310T1021 1260Q1021 1237 1016 1204T1000 1140H560Q536 1140 495 1140T411 1142T337 1144V1366H1013ZM1057 222Q1057 107 1022 52T881 -3H337V212Q394 215 447 218T568 222H1057ZM818
1485Q788 1485 757 1492T702 1514Q693 1536 690 1562T686 1606Q686 1625 689 1650T702 1699Q725 1713 756 1720T818 1727Q848 1727 879 1720T933 1699Q943 1676 946 1651T950 1606Q950 1588 947 1562T933 1514Q911 1500 880 1493T818 1485ZM378 1485Q348 1485 316
1492T262 1514Q253 1536 250 1562T246 1606Q246 1625 249 1650T262 1699Q284 1713 316 1720T378 1727Q408 1727 439 1720T494 1699Q504 1676 507 1651T510 1606Q510 1588 507 1562T494 1514Q471 1500 440 1493T378 1485Z" />
<glyph unicode="&#xcc;" horiz-adv-x="609" d="M171 1366Q201 1372 239 1373T304 1375Q333 1375 369 1374T439 1366V0Q406 -6 370 -7T304 -9Q278 -9 240 -8T171 0V1366ZM126 1844Q103 1827 80 1794T39 1721T18 1640L477 1456Q510 1476 528 1513T553 1586L126 1844Z" />
<glyph unicode="&#xcd;" horiz-adv-x="609" d="M171 1366Q201 1372 239 1373T304 1375Q333 1375 369 1374T439 1366V0Q406 -6 370 -7T304 -9Q278 -9 240 -8T171 0V1366ZM506 1844Q528 1827 551 1794T592 1721T613 1640L154 1456Q125 1473 104 1512T79 1586L506 1844Z" />
<glyph unicode="&#xce;" horiz-adv-x="609" d="M171 1366Q201 1372 239 1373T304 1375Q333 1375 369 1374T439 1366V0Q406 -6 370 -7T304 -9Q278 -9 240 -8T171 0V1366ZM414 1800L639 1583Q627 1543 594 1513T532 1474L302 1622L73 1474Q45 1483 12 1513T-36 1583L191
1800Q214 1804 243 1807T302 1810Q332 1810 361 1807T414 1800Z" />
<glyph unicode="&#xcf;" horiz-adv-x="609" d="M171 1366Q201 1372 239 1373T304 1375Q333 1375 369 1374T439 1366V0Q406 -6 370 -7T304 -9Q278 -9 240 -8T171 0V1366ZM525 1486Q495 1486 464 1493T409 1515Q400 1537 397 1563T393 1607Q393 1626 396 1651T409
1700Q432 1714 463 1721T525 1728Q555 1728 586 1721T640 1700Q650 1677 653 1652T657 1607Q657 1589 654 1563T640 1515Q618 1501 587 1494T525 1486ZM85 1486Q55 1486 23 1493T-31 1515Q-40 1537 -43 1563T-47 1607Q-47 1626 -44 1651T-31 1700Q-9 1714 23 1721T85
1728Q115 1728 146 1721T201 1700Q211 1677 214 1652T217 1607Q217 1589 214 1563T201 1515Q178 1501 147 1494T85 1486Z" />
<glyph unicode="&#xd0;" horiz-adv-x="1347" d="M1260 684Q1260 567 1244 460T1181 259T1041 91Q997 55 934 33T804 0T684 -11Q601 -11 526 -10T374 -7T210 -3L197 11V1355L210 1369Q297 1372 373 1373T525 1375T684 1375Q738 1375 804 1365T933 1333T1041 1275Q1133
1201 1180 1108T1243 907T1260 684ZM983 684Q983 767 973 851T931 1007T841 1121T684 1164Q626 1164 573 1165T459 1166V201Q520 202 573 202T684 201Q782 201 841 244T931 360T972 517T983 684ZM53 583Q46 609 44 635T42 690Q42 717 44 746T53 802H740Q746 776
748 749T751 693Q751 663 749 636T740 583H53Z" />
<glyph unicode="&#xd1;" horiz-adv-x="1376" d="M166 1363Q198 1369 247 1372T325 1375Q353 1375 397 1374T482 1366L414 1059L395 1053Q401 975 405 879T413 685T416 508V0Q383 -6 351 -7T293 -9Q269 -9 234 -8T166 0V1363ZM522 775Q487 851 457 923T402 1056L277
1202L482 1366L846 592Q884 509 917 432T975 295L1110 151L891 0L522 775ZM1210 1365V3Q1189 -1 1159 -4T1099 -8T1049 -9Q1018 -9 976 -8T891 0L962 293L983 298Q976 385 971 486T964 682T962 846V1213Q962 1302 996 1339T1110 1377H1196L1210 1365ZM604 1565Q589
1572 574 1577T540 1583Q522 1583 502 1570T464 1533L444 1507Q407 1507 368 1529T314 1585L329 1621Q363 1695 421 1740T558 1785Q593 1785 625 1775T684 1752L783 1704Q798 1697 816 1692T849 1686Q868 1686 888 1697T925 1734L945 1760Q983 1760 1022 1738T1076
1682L1060 1647Q1027 1573 969 1528T832 1482Q797 1482 764 1492T706 1515L604 1565Z" />
<glyph unicode="&#xd2;" horiz-adv-x="1325" d="M366 684Q366 599 377 511T419 348T508 227T662 181Q758 181 816 227T905 348T947 511T958 684Q958 769 947 856T905 1018T816 1139T662 1185Q567 1185 509 1139T419 1019T377 857T366 684ZM85 684Q85 892 147 1052T338
1302T662 1393Q810 1393 918 1341T1098 1194T1205 969T1240 684Q1240 475 1177 315T986 64T662 -27Q514 -27 406 25T226 172T120 398T85 684ZM484 1843Q461 1826 438 1793T397 1720T376 1639L835 1455Q868 1475 886 1512T911 1585L484 1843Z" />
<glyph unicode="&#xd3;" horiz-adv-x="1325" d="M366 684Q366 599 377 511T419 348T508 227T662 181Q758 181 816 227T905 348T947 511T958 684Q958 769 947 856T905 1018T816 1139T662 1185Q567 1185 509 1139T419 1019T377 857T366 684ZM85 684Q85 892 147 1052T338
1302T662 1393Q810 1393 918 1341T1098 1194T1205 969T1240 684Q1240 475 1177 315T986 64T662 -27Q514 -27 406 25T226 172T120 398T85 684ZM863 1843Q885 1826 908 1793T949 1720T970 1639L511 1455Q482 1472 461 1511T436 1585L863 1843Z" />
<glyph unicode="&#xd4;" horiz-adv-x="1325" d="M366 684Q366 599 377 511T419 348T508 227T662 181Q758 181 816 227T905 348T947 511T958 684Q958 769 947 856T905 1018T816 1139T662 1185Q567 1185 509 1139T419 1019T377 857T366 684ZM85 684Q85 892 147 1052T338
1302T662 1393Q810 1393 918 1341T1098 1194T1205 969T1240 684Q1240 475 1177 315T986 64T662 -27Q514 -27 406 25T226 172T120 398T85 684ZM771 1799L996 1582Q984 1542 951 1512T889 1473L659 1621L430 1473Q402 1482 369 1512T321 1582L548 1799Q571 1803 600
1806T659 1809Q689 1809 718 1806T771 1799Z" />
<glyph unicode="&#xd5;" horiz-adv-x="1325" d="M366 684Q366 599 377 511T419 348T508 227T662 181Q758 181 816 227T905 348T947 511T958 684Q958 769 947 856T905 1018T816 1139T662 1185Q567 1185 509 1139T419 1019T377 857T366 684ZM85 684Q85 892 147 1052T338
1302T662 1393Q810 1393 918 1341T1098 1194T1205 969T1240 684Q1240 475 1177 315T986 64T662 -27Q514 -27 406 25T226 172T120 398T85 684ZM571 1565Q556 1572 541 1577T507 1583Q489 1583 469 1570T431 1533L411 1507Q374 1507 335 1529T281 1585L296 1621Q330
1695 388 1740T525 1785Q560 1785 592 1775T651 1752L750 1704Q765 1697 783 1692T816 1686Q835 1686 855 1697T892 1734L912 1760Q950 1760 989 1738T1043 1682L1027 1647Q994 1573 936 1528T799 1482Q764 1482 731 1492T673 1515L571 1565Z" />
<glyph unicode="&#xd6;" horiz-adv-x="1325" d="M366 684Q366 599 377 511T419 348T508 227T662 181Q758 181 816 227T905 348T947 511T958 684Q958 769 947 856T905 1018T816 1139T662 1185Q567 1185 509 1139T419 1019T377 857T366 684ZM85 684Q85 892 147 1052T338
1302T662 1393Q810 1393 918 1341T1098 1194T1205 969T1240 684Q1240 475 1177 315T986 64T662 -27Q514 -27 406 25T226 172T120 398T85 684ZM882 1485Q852 1485 821 1492T766 1514Q757 1536 754 1562T750 1606Q750 1625 753 1650T766 1699Q789 1713 820 1720T882
1727Q912 1727 943 1720T997 1699Q1007 1676 1010 1651T1014 1606Q1014 1588 1011 1562T997 1514Q975 1500 944 1493T882 1485ZM442 1485Q412 1485 380 1492T326 1514Q317 1536 314 1562T310 1606Q310 1625 313 1650T326 1699Q348 1713 380 1720T442 1727Q472 1727
503 1720T558 1699Q568 1676 571 1651T574 1606Q574 1588 571 1562T558 1514Q535 1500 504 1493T442 1485Z" />
<glyph unicode="&#xd7;" horiz-adv-x="1080" d="M312 707Q334 685 357 662T402 618L524 495Q546 474 568 451T613 405L784 232Q809 244 833 260T877 297Q916 336 941 388L768 561Q746 583 723 605T677 650L556 770Q533 793 511 816T467 862L295 1035Q270 1024
247 1008T203 971Q183 950 167 927T139 878L312 707ZM467 405Q489 427 511 450T556 495L677 617Q699 639 722 661T768 706L941 878Q917 928 875 970Q855 990 832 1006T784 1033L613 860Q591 838 569 815T524 770L402 648Q380 627 357 604T312 559L139 388Q150 362
167 339T203 297Q223 278 246 261T295 231L467 405Z" />
<glyph unicode="&#xd8;" horiz-adv-x="1330" d="M874 1294L991 1497Q1036 1490 1084 1465T1160 1404L1022 1159L457 77L340 -127Q295 -120 247 -94T171 -35L310 210L874 1294ZM356 684Q356 599 368 509T414 344T507 222T665 175Q762 175 822 221T916 343T961 509T974
684Q974 769 962 858T916 1023T823 1144T665 1191Q568 1191 508 1145T414 1023T369 859T356 684ZM85 684Q85 890 148 1050T340 1301T665 1393Q862 1393 990 1301T1182 1049T1245 684Q1245 478 1182 318T991 65T665 -27Q516 -27 407 26T227 175T120 401T85 684Z"
/>
<glyph unicode="&#xd9;" horiz-adv-x="1343" d="M1195 492Q1195 325 1133 209T953 33T671 -27Q508 -27 391 33T211 209T147 492V1363L161 1377H261Q339 1377 377 1337T416 1207V491Q416 341 478 264T672 187Q804 187 865 264T927 491V1366Q959 1372 994 1373T1058
1375Q1084 1375 1124 1374T1195 1366V492ZM489 1843Q466 1826 443 1793T402 1720T381 1639L840 1455Q873 1475 891 1512T916 1585L489 1843Z" />
<glyph unicode="&#xda;" horiz-adv-x="1343" d="M1195 492Q1195 325 1133 209T953 33T671 -27Q508 -27 391 33T211 209T147 492V1363L161 1377H261Q339 1377 377 1337T416 1207V491Q416 341 478 264T672 187Q804 187 865 264T927 491V1366Q959 1372 994 1373T1058
1375Q1084 1375 1124 1374T1195 1366V492ZM868 1843Q890 1826 913 1793T954 1720T975 1639L516 1455Q487 1472 466 1511T441 1585L868 1843Z" />
<glyph unicode="&#xdb;" horiz-adv-x="1343" d="M1195 492Q1195 325 1133 209T953 33T671 -27Q508 -27 391 33T211 209T147 492V1363L161 1377H261Q339 1377 377 1337T416 1207V491Q416 341 478 264T672 187Q804 187 865 264T927 491V1366Q959 1372 994 1373T1058
1375Q1084 1375 1124 1374T1195 1366V492ZM777 1799L1002 1582Q990 1542 957 1512T895 1473L665 1621L436 1473Q408 1482 375 1512T327 1582L554 1799Q577 1803 606 1806T665 1809Q695 1809 724 1806T777 1799Z" />
<glyph unicode="&#xdc;" horiz-adv-x="1343" d="M1195 492Q1195 325 1133 209T953 33T671 -27Q508 -27 391 33T211 209T147 492V1363L161 1377H261Q339 1377 377 1337T416 1207V491Q416 341 478 264T672 187Q804 187 865 264T927 491V1366Q959 1372 994 1373T1058
1375Q1084 1375 1124 1374T1195 1366V492ZM887 1485Q857 1485 826 1492T771 1514Q762 1536 759 1562T755 1606Q755 1625 758 1650T771 1699Q794 1713 825 1720T887 1727Q917 1727 948 1720T1002 1699Q1012 1676 1015 1651T1019 1606Q1019 1588 1016 1562T1002 1514Q980
1500 949 1493T887 1485ZM447 1485Q417 1485 385 1492T331 1514Q322 1536 319 1562T315 1606Q315 1625 318 1650T331 1699Q353 1713 385 1720T447 1727Q477 1727 508 1720T563 1699Q573 1676 576 1651T579 1606Q579 1588 576 1562T563 1514Q540 1500 509 1493T447
1485Z" />
<glyph unicode="&#xdd;" horiz-adv-x="1047" d="M390 590H658V0Q626 -6 590 -7T525 -9Q498 -9 459 -8T390 0V590ZM789 1366Q817 1373 845 1375T900 1377Q935 1377 969 1372T1031 1358L1042 1341L642 389H410L6 1335Q44 1356 87 1368T171 1381Q228 1381 259 1355T314
1271L439 962Q463 904 485 834T527 693H538Q551 739 566 788T599 885T632 970L789 1366ZM731 1843Q753 1826 776 1793T817 1720T838 1639L379 1455Q350 1472 329 1511T304 1585L731 1843Z" />
<glyph unicode="&#xde;" horiz-adv-x="1163" d="M297 1165Q379 1168 456 1170T614 1173Q752 1173 860 1127T1030 982T1092 727Q1092 576 1031 477T861 329T614 280H297V482Q320 484 362 485T451 487T539 489T597 490Q687 490 734 527T799 619T816 727Q816 781
799 836T735 927T597 964Q571 964 517 965T403 967T297 968V1165ZM166 1366Q197 1372 235 1373T300 1375Q328 1375 365 1374T435 1366V0Q402 -6 365 -7T300 -9Q274 -9 236 -8T166 0V1366Z" />
<glyph unicode="&#xdf;" horiz-adv-x="1285" d="M326 948L327 754L28 748Q23 771 21 800T18 852Q18 875 20 902T28 952L326 948ZM200 1005Q200 1134 258 1222T419 1354T659 1399Q801 1399 906 1349T1069 1208T1127 994Q1127 955 1120 915T1096 836L817 816Q840
853 851 896T862 987Q862 1043 840 1091T773 1168T659 1198Q558 1198 512 1139T466 978V0Q437 -5 401 -7T332 -9Q301 -9 265 -7T200 0V1005ZM583 42Q585 84 606 138T658 224Q698 196 743 183T822 170Q881 170 916 198T951 271Q951 305 933 334T882 392L801 464Q767
495 738 529T691 602T673 688Q673 762 727 831T876 935L1096 835Q1019 817 985 778T951 704Q951 674 970 651T1008 609L1084 540Q1153 478 1190 410T1228 273Q1228 179 1181 112T1050 9T858 -27Q791 -27 716 -11T583 42Z" />
<glyph unicode="&#xe0;" horiz-adv-x="1020" d="M73 271Q73 389 126 464T268 575T463 611Q513 611 582 608T710 591V422Q662 433 599 435T486 438Q407 438 368 398T329 289Q329 238 358 204T442 170Q508 170 579 217T700 350L738 172Q700 128 649 82T530 4T372
-27Q271 -27 205 17T106 130T73 271ZM945 119Q937 84 912 44T859 -15Q783 -8 735 28T661 115T629 220V659Q629 737 592 773T483 810Q413 810 335 789T178 740Q149 772 132 824T110 926Q173 952 249 972T404 1003T548 1015Q641 1015 718 981T842 873T889 677V269Q889
219 901 182T945 119ZM383 1509Q333 1494 283 1449T216 1351L572 1079Q606 1089 637 1117T682 1181L383 1509Z" />
<glyph unicode="&#xe1;" horiz-adv-x="1020" d="M73 271Q73 389 126 464T268 575T463 611Q513 611 582 608T710 591V422Q662 433 599 435T486 438Q407 438 368 398T329 289Q329 238 358 204T442 170Q508 170 579 217T700 350L738 172Q700 128 649 82T530 4T372
-27Q271 -27 205 17T106 130T73 271ZM945 119Q937 84 912 44T859 -15Q783 -8 735 28T661 115T629 220V659Q629 737 592 773T483 810Q413 810 335 789T178 740Q149 772 132 824T110 926Q173 952 249 972T404 1003T548 1015Q641 1015 718 981T842 873T889 677V269Q889
219 901 182T945 119ZM626 1509Q677 1494 726 1449T793 1351L436 1079Q403 1089 372 1117T327 1181L626 1509Z" />
<glyph unicode="&#xe2;" horiz-adv-x="1020" d="M73 271Q73 389 126 464T268 575T463 611Q513 611 582 608T710 591V422Q662 433 599 435T486 438Q407 438 368 398T329 289Q329 238 358 204T442 170Q508 170 579 217T700 350L738 172Q700 128 649 82T530 4T372
-27Q271 -27 205 17T106 130T73 271ZM945 119Q937 84 912 44T859 -15Q783 -8 735 28T661 115T629 220V659Q629 737 592 773T483 810Q413 810 335 789T178 740Q149 772 132 824T110 926Q173 952 249 972T404 1003T548 1015Q641 1015 718 981T842 873T889 677V269Q889
219 901 182T945 119ZM611 1458L800 1207Q783 1166 747 1137T683 1098L498 1275L314 1098Q286 1107 250 1136T197 1207L385 1458Q409 1464 438 1468T498 1472Q530 1472 559 1468T611 1458Z" />
<glyph unicode="&#xe3;" horiz-adv-x="1020" d="M73 271Q73 389 126 464T268 575T463 611Q513 611 582 608T710 591V422Q662 433 599 435T486 438Q407 438 368 398T329 289Q329 238 358 204T442 170Q508 170 579 217T700 350L738 172Q700 128 649 82T530 4T372
-27Q271 -27 205 17T106 130T73 271ZM945 119Q937 84 912 44T859 -15Q783 -8 735 28T661 115T629 220V659Q629 737 592 773T483 810Q413 810 335 789T178 740Q149 772 132 824T110 926Q173 952 249 972T404 1003T548 1015Q641 1015 718 981T842 873T889 677V269Q889
219 901 182T945 119ZM621 1113Q585 1113 555 1123T500 1146L418 1189Q409 1194 392 1201T356 1208Q327 1208 309 1190T282 1160L262 1133Q226 1134 189 1156T138 1213L155 1251Q187 1323 242 1368T369 1413Q408 1413 440 1402T490 1380L573 1336Q581 1331 598
1324T635 1316Q664 1316 681 1334T709 1365L729 1392Q765 1392 801 1370T852 1312L835 1274Q803 1200 747 1157T621 1113Z" />
<glyph unicode="&#xe4;" horiz-adv-x="1020" d="M73 271Q73 389 126 464T268 575T463 611Q513 611 582 608T710 591V422Q662 433 599 435T486 438Q407 438 368 398T329 289Q329 238 358 204T442 170Q508 170 579 217T700 350L738 172Q700 128 649 82T530 4T372
-27Q271 -27 205 17T106 130T73 271ZM945 119Q937 84 912 44T859 -15Q783 -8 735 28T661 115T629 220V659Q629 737 592 773T483 810Q413 810 335 789T178 740Q149 772 132 824T110 926Q173 952 249 972T404 1003T548 1015Q641 1015 718 981T842 873T889 677V269Q889
219 901 182T945 119ZM171 1241Q171 1260 174 1285T187 1331Q209 1345 240 1352T301 1359Q330 1359 361 1352T415 1331Q423 1311 427 1286T431 1241Q431 1222 427 1197T415 1151Q393 1138 362 1131T301 1123Q272 1123 241 1130T187 1151Q178 1171 175 1196T171
1241ZM559 1241Q559 1260 563 1285T575 1331Q597 1345 628 1352T689 1359Q718 1359 749 1352T803 1331Q812 1311 815 1286T819 1241Q819 1222 816 1197T803 1151Q781 1138 750 1131T689 1123Q660 1123 629 1130T575 1151Q567 1171 563 1196T559 1241Z" />
<glyph unicode="&#xe5;" horiz-adv-x="1020" d="M73 271Q73 389 126 464T268 575T463 611Q513 611 582 608T710 591V422Q662 433 599 435T486 438Q407 438 368 398T329 289Q329 238 358 204T442 170Q508 170 579 217T700 350L738 172Q700 128 649 82T530 4T372
-27Q271 -27 205 17T106 130T73 271ZM945 119Q937 84 912 44T859 -15Q783 -8 735 28T661 115T629 220V659Q629 737 592 773T483 810Q413 810 335 789T178 740Q149 772 132 824T110 926Q173 952 249 972T404 1003T548 1015Q641 1015 718 981T842 873T889 677V269Q889
219 901 182T945 119ZM232 1324Q232 1225 304 1153T495 1081Q613 1081 685 1153T758 1324Q758 1424 686 1495T495 1566Q377 1566 305 1495T232 1324ZM396 1324Q396 1369 423 1399T495 1429Q540 1429 567 1399T594 1324Q594 1279 567 1249T495 1219Q451 1219 424
1249T396 1324Z" />
<glyph unicode="&#xe6;" horiz-adv-x="1536" d="M73 271Q73 389 126 464T268 575T463 611Q517 611 584 607T710 591V420Q661 431 598 434T486 438Q407 438 368 398T329 289Q329 239 358 205T442 170Q488 170 537 191T631 254T708 358L765 173Q726 124 669 79T538
3T372 -27Q271 -27 205 17T106 130T73 271ZM629 491V660Q629 737 592 773T484 810Q415 810 336 789T178 740Q149 772 132 824T110 926Q203 964 319 989T531 1015Q627 1015 701 978T816 865T858 675V491H629ZM791 413V596H1215V619Q1215 677 1200 725T1149 803T1054
832Q966 832 928 760T889 547V471Q889 390 904 323T963 217T1093 177Q1164 177 1230 196T1359 245Q1390 216 1408 171T1433 85Q1359 32 1258 3T1051 -27Q842 -27 736 108T629 491Q629 588 656 682T736 853T870 975T1055 1021Q1186 1021 1276 965T1413 812T1460
596Q1460 538 1455 499T1439 413H791Z" />
<glyph unicode="&#xe7;" horiz-adv-x="946" d="M648 580Q649 651 638 706T596 792T502 824Q420 824 381 744T342 493Q342 323 393 252T540 180Q604 180 663 208T771 272Q804 253 835 208T875 123Q807 55 708 14T499 -27Q391 -27 311 11T179 120T100 286T74 493Q74
635 110 735T209 899T349 991T507 1021Q595 1021 665 996T784 926T858 824T884 704Q884 638 850 604T754 570Q693 570 648 580ZM362 -152Q373 -119 396 -69T438 12H583Q572 -2 559 -27T539 -68Q617 -75 669 -123T722 -245Q722 -338 649 -397T462 -456Q414 -456
369 -443T297 -412Q299 -380 311 -348T344 -292Q362 -303 387 -311T440 -319Q481 -319 500 -300T520 -252Q520 -223 501 -204T446 -184Q434 -184 423 -186T402 -192Q390 -187 379 -176T362 -152Z" />
<glyph unicode="&#xe8;" horiz-adv-x="997" d="M239 413V596H669V621Q669 678 653 726T601 803T505 832Q418 832 379 760T339 550V471Q339 390 354 323T414 217T544 177Q616 177 683 196T813 245Q843 215 862 170T887 85Q814 32 712 3T503 -27Q377 -27 294 15T163
131T94 298T74 492Q74 642 120 761T262 951T507 1021Q638 1021 728 965T866 812T914 596Q914 538 909 499T893 413H239ZM398 1509Q348 1494 298 1449T231 1351L587 1079Q621 1089 652 1117T697 1181L398 1509Z" />
<glyph unicode="&#xe9;" horiz-adv-x="997" d="M239 413V596H669V621Q669 678 653 726T601 803T505 832Q418 832 379 760T339 550V471Q339 390 354 323T414 217T544 177Q616 177 683 196T813 245Q843 215 862 170T887 85Q814 32 712 3T503 -27Q377 -27 294 15T163
131T94 298T74 492Q74 642 120 761T262 951T507 1021Q638 1021 728 965T866 812T914 596Q914 538 909 499T893 413H239ZM641 1509Q692 1494 741 1449T808 1351L451 1079Q418 1089 387 1117T342 1181L641 1509Z" />
<glyph unicode="&#xea;" horiz-adv-x="997" d="M239 413V596H669V621Q669 678 653 726T601 803T505 832Q418 832 379 760T339 550V471Q339 390 354 323T414 217T544 177Q616 177 683 196T813 245Q843 215 862 170T887 85Q814 32 712 3T503 -27Q377 -27 294 15T163
131T94 298T74 492Q74 642 120 761T262 951T507 1021Q638 1021 728 965T866 812T914 596Q914 538 909 499T893 413H239ZM626 1458L815 1207Q798 1166 762 1137T698 1098L513 1275L329 1098Q301 1107 265 1136T212 1207L400 1458Q424 1464 453 1468T513 1472Q545
1472 574 1468T626 1458Z" />
<glyph unicode="&#xeb;" horiz-adv-x="997" d="M239 413V596H669V621Q669 678 653 726T601 803T505 832Q418 832 379 760T339 550V471Q339 390 354 323T414 217T544 177Q616 177 683 196T813 245Q843 215 862 170T887 85Q814 32 712 3T503 -27Q377 -27 294 15T163
131T94 298T74 492Q74 642 120 761T262 951T507 1021Q638 1021 728 965T866 812T914 596Q914 538 909 499T893 413H239ZM186 1241Q186 1260 189 1285T202 1331Q224 1345 255 1352T316 1359Q345 1359 376 1352T430 1331Q438 1311 442 1286T446 1241Q446 1222 442
1197T430 1151Q408 1138 377 1131T316 1123Q287 1123 256 1130T202 1151Q193 1171 190 1196T186 1241ZM574 1241Q574 1260 578 1285T590 1331Q612 1345 643 1352T704 1359Q733 1359 764 1352T818 1331Q827 1311 830 1286T834 1241Q834 1222 831 1197T818 1151Q796
1138 765 1131T704 1123Q675 1123 644 1130T590 1151Q582 1171 578 1196T574 1241Z" />
<glyph unicode="&#xec;" horiz-adv-x="570" d="M436 0Q409 -5 375 -7T306 -9Q272 -9 238 -7T174 0V696Q174 748 155 777T84 806H57Q46 850 46 896Q46 919 49 943T57 991Q100 996 141 998T210 1000H245Q334 1000 385 944T436 791V0ZM153 1509Q103 1494 53 1449T-14
1351L342 1079Q376 1089 407 1117T452 1181L153 1509Z" />
<glyph unicode="&#xed;" horiz-adv-x="570" d="M436 0Q409 -5 375 -7T306 -9Q272 -9 238 -7T174 0V696Q174 748 155 777T84 806H57Q46 850 46 896Q46 919 49 943T57 991Q100 996 141 998T210 1000H245Q334 1000 385 944T436 791V0ZM396 1509Q447 1494 496 1449T563
1351L206 1079Q173 1089 142 1117T97 1181L396 1509Z" />
<glyph unicode="&#xee;" horiz-adv-x="570" d="M436 0Q409 -5 375 -7T306 -9Q272 -9 238 -7T174 0V696Q174 748 155 777T84 806H57Q46 850 46 896Q46 919 49 943T57 991Q100 996 141 998T210 1000H245Q334 1000 385 944T436 791V0ZM381 1458L570 1207Q553 1166
517 1137T453 1098L268 1275L84 1098Q56 1107 20 1136T-33 1207L155 1458Q179 1464 208 1468T268 1472Q300 1472 329 1468T381 1458Z" />
<glyph unicode="&#xef;" horiz-adv-x="570" d="M436 0Q409 -5 375 -7T306 -9Q272 -9 238 -7T174 0V696Q174 748 155 777T84 806H57Q46 850 46 896Q46 919 49 943T57 991Q100 996 141 998T210 1000H245Q334 1000 385 944T436 791V0ZM-59 1241Q-59 1260 -56 1285T-43
1331Q-21 1345 10 1352T71 1359Q100 1359 131 1352T185 1331Q193 1311 197 1286T201 1241Q201 1222 197 1197T185 1151Q163 1138 132 1131T71 1123Q42 1123 11 1130T-43 1151Q-52 1171 -55 1196T-59 1241ZM329 1241Q329 1260 333 1285T345 1331Q367 1345 398 1352T459
1359Q488 1359 519 1352T573 1331Q582 1311 585 1286T589 1241Q589 1222 586 1197T573 1151Q551 1138 520 1131T459 1123Q430 1123 399 1130T345 1151Q337 1171 333 1196T329 1241Z" />
<glyph unicode="&#xf0;" horiz-adv-x="1041" d="M967 495Q967 340 916 223T765 39T519 -27Q373 -27 274 39T124 220T73 483Q73 628 124 738T271 911T501 974Q584 974 657 933T775 841V653Q728 709 662 747T521 785Q453 785 414 746T357 639T340 480Q340 400 354
328T408 211T519 165Q593 165 631 211T684 333T699 495Q699 619 684 698T634 853Q628 951 564 1042T406 1210T212 1340Q219 1387 248 1434T315 1501Q524 1414 669 1269T890 928T967 495ZM709 1495Q737 1475 763 1440T797 1369L285 1016Q255 1037 230 1072T196 1143L709
1495Z" />
<glyph unicode="&#xf1;" horiz-adv-x="1093" d="M249 1004Q326 1004 362 954T398 816V0Q371 -5 337 -7T268 -9Q235 -9 201 -7T137 0V991L150 1004H249ZM962 231Q962 176 971 127T1004 41Q975 18 932 2T840 -15Q762 -15 732 27T701 148V615Q701 698 680 737T597
776Q556 776 507 756T412 695T334 592V830Q403 902 492 956T689 1011Q782 1011 842 967T932 845T962 668V231ZM685 1113Q649 1113 619 1123T564 1146L482 1189Q473 1194 456 1201T420 1208Q391 1208 373 1190T346 1160L326 1133Q290 1134 253 1156T202 1213L219
1251Q251 1323 306 1368T433 1413Q472 1413 504 1402T554 1380L637 1336Q645 1331 662 1324T699 1316Q728 1316 745 1334T773 1365L793 1392Q829 1392 865 1370T916 1312L899 1274Q867 1200 811 1157T685 1113Z" />
<glyph unicode="&#xf2;" horiz-adv-x="1042" d="M968 497Q968 340 917 222T767 38T521 -27Q373 -27 274 39T124 223T74 497Q74 653 124 771T274 955T521 1021Q668 1021 768 955T918 771T968 497ZM342 497Q342 409 356 335T410 215T521 169Q595 169 633 214T685
334T699 497Q699 584 685 659T633 779T521 825Q449 825 410 780T357 659T342 497ZM409 1509Q359 1494 309 1449T242 1351L598 1079Q632 1089 663 1117T708 1181L409 1509Z" />
<glyph unicode="&#xf3;" horiz-adv-x="1042" d="M968 497Q968 340 917 222T767 38T521 -27Q373 -27 274 39T124 223T74 497Q74 653 124 771T274 955T521 1021Q668 1021 768 955T918 771T968 497ZM342 497Q342 409 356 335T410 215T521 169Q595 169 633 214T685
334T699 497Q699 584 685 659T633 779T521 825Q449 825 410 780T357 659T342 497ZM652 1509Q703 1494 752 1449T819 1351L462 1079Q429 1089 398 1117T353 1181L652 1509Z" />
<glyph unicode="&#xf4;" horiz-adv-x="1042" d="M968 497Q968 340 917 222T767 38T521 -27Q373 -27 274 39T124 223T74 497Q74 653 124 771T274 955T521 1021Q668 1021 768 955T918 771T968 497ZM342 497Q342 409 356 335T410 215T521 169Q595 169 633 214T685
334T699 497Q699 584 685 659T633 779T521 825Q449 825 410 780T357 659T342 497ZM637 1458L826 1207Q809 1166 773 1137T709 1098L524 1275L340 1098Q312 1107 276 1136T223 1207L411 1458Q435 1464 464 1468T524 1472Q556 1472 585 1468T637 1458Z" />
<glyph unicode="&#xf5;" horiz-adv-x="1042" d="M968 497Q968 340 917 222T767 38T521 -27Q373 -27 274 39T124 223T74 497Q74 653 124 771T274 955T521 1021Q668 1021 768 955T918 771T968 497ZM342 497Q342 409 356 335T410 215T521 169Q595 169 633 214T685
334T699 497Q699 584 685 659T633 779T521 825Q449 825 410 780T357 659T342 497ZM647 1113Q611 1113 581 1123T526 1146L444 1189Q435 1194 418 1201T382 1208Q353 1208 335 1190T308 1160L288 1133Q252 1134 215 1156T164 1213L181 1251Q213 1323 268 1368T395
1413Q434 1413 466 1402T516 1380L599 1336Q607 1331 624 1324T661 1316Q690 1316 707 1334T735 1365L755 1392Q791 1392 827 1370T878 1312L861 1274Q829 1200 773 1157T647 1113Z" />
<glyph unicode="&#xf6;" horiz-adv-x="1042" d="M968 497Q968 340 917 222T767 38T521 -27Q373 -27 274 39T124 223T74 497Q74 653 124 771T274 955T521 1021Q668 1021 768 955T918 771T968 497ZM342 497Q342 409 356 335T410 215T521 169Q595 169 633 214T685
334T699 497Q699 584 685 659T633 779T521 825Q449 825 410 780T357 659T342 497ZM197 1241Q197 1260 200 1285T213 1331Q235 1345 266 1352T327 1359Q356 1359 387 1352T441 1331Q449 1311 453 1286T457 1241Q457 1222 453 1197T441 1151Q419 1138 388 1131T327
1123Q298 1123 267 1130T213 1151Q204 1171 201 1196T197 1241ZM585 1241Q585 1260 589 1285T601 1331Q623 1345 654 1352T715 1359Q744 1359 775 1352T829 1331Q838 1311 841 1286T845 1241Q845 1222 842 1197T829 1151Q807 1138 776 1131T715 1123Q686 1123 655
1130T601 1151Q593 1171 589 1196T585 1241Z" />
<glyph unicode="&#xf7;" horiz-adv-x="1080" d="M401 989Q401 1043 420 1085Q442 1097 474 1104T540 1111Q572 1111 605 1104T659 1085Q668 1066 673 1040T679 989Q679 966 674 940T659 894Q640 882 606 875T540 868Q507 868 474 875T420 894Q401 936 401 989ZM401
275Q401 329 420 371Q442 382 474 389T540 397Q572 397 605 390T659 371Q668 352 673 326T679 275Q679 251 674 225T659 179Q640 168 606 161T540 153Q507 153 474 160T420 179Q401 221 401 275ZM119 526Q112 553 110 583T108 633Q108 654 110 684T119 741H961Q968
715 970 685T972 633Q972 613 970 583T961 526H119Z" />
<glyph unicode="&#xf8;" horiz-adv-x="1048" d="M971 498Q971 381 941 273T830 85Q771 28 694 1T523 -27Q432 -27 355 0T218 85Q138 165 107 273T76 498Q76 616 107 722T218 907Q277 966 354 993T523 1021Q616 1021 693 994T830 907Q910 829 940 723T971 498ZM321
498Q321 413 337 336T397 209T523 160Q607 160 650 209T710 335T727 498Q727 583 711 660T651 786T523 834Q441 834 398 786T338 661T321 498ZM653 912L767 1111Q803 1103 840 1084T904 1035L769 797L398 88L278 -117Q241 -109 203 -89T141 -40L278 198L653 912Z"
/>
<glyph unicode="&#xf9;" horiz-adv-x="1096" d="M956 283Q956 230 969 185T1012 117Q1004 81 979 43T925 -15Q809 -5 752 77T694 270V993Q721 998 756 1000T825 1003Q859 1003 893 1001T956 993V283ZM131 762Q131 817 122 866T89 951Q118 976 161 991T252 1007Q330
1007 361 966T392 844V378Q392 295 414 256T496 217Q537 217 586 237T681 299T758 400V164Q690 91 601 37T403 -18Q311 -18 251 26T161 148T131 325V762ZM421 1509Q371 1494 321 1449T254 1351L610 1079Q644 1089 675 1117T720 1181L421 1509Z" />
<glyph unicode="&#xfa;" horiz-adv-x="1096" d="M956 283Q956 230 969 185T1012 117Q1004 81 979 43T925 -15Q809 -5 752 77T694 270V993Q721 998 756 1000T825 1003Q859 1003 893 1001T956 993V283ZM131 762Q131 817 122 866T89 951Q118 976 161 991T252 1007Q330
1007 361 966T392 844V378Q392 295 414 256T496 217Q537 217 586 237T681 299T758 400V164Q690 91 601 37T403 -18Q311 -18 251 26T161 148T131 325V762ZM664 1509Q715 1494 764 1449T831 1351L474 1079Q441 1089 410 1117T365 1181L664 1509Z" />
<glyph unicode="&#xfb;" horiz-adv-x="1096" d="M956 283Q956 230 969 185T1012 117Q1004 81 979 43T925 -15Q809 -5 752 77T694 270V993Q721 998 756 1000T825 1003Q859 1003 893 1001T956 993V283ZM131 762Q131 817 122 866T89 951Q118 976 161 991T252 1007Q330
1007 361 966T392 844V378Q392 295 414 256T496 217Q537 217 586 237T681 299T758 400V164Q690 91 601 37T403 -18Q311 -18 251 26T161 148T131 325V762ZM649 1458L838 1207Q821 1166 785 1137T721 1098L536 1275L352 1098Q324 1107 288 1136T235 1207L423 1458Q447
1464 476 1468T536 1472Q568 1472 597 1468T649 1458Z" />
<glyph unicode="&#xfc;" horiz-adv-x="1096" d="M956 283Q956 230 969 185T1012 117Q1004 81 979 43T925 -15Q809 -5 752 77T694 270V993Q721 998 756 1000T825 1003Q859 1003 893 1001T956 993V283ZM131 762Q131 817 122 866T89 951Q118 976 161 991T252 1007Q330
1007 361 966T392 844V378Q392 295 414 256T496 217Q537 217 586 237T681 299T758 400V164Q690 91 601 37T403 -18Q311 -18 251 26T161 148T131 325V762ZM209 1241Q209 1260 212 1285T225 1331Q247 1345 278 1352T339 1359Q368 1359 399 1352T453 1331Q461 1311
465 1286T469 1241Q469 1222 465 1197T453 1151Q431 1138 400 1131T339 1123Q310 1123 279 1130T225 1151Q216 1171 213 1196T209 1241ZM597 1241Q597 1260 601 1285T613 1331Q635 1345 666 1352T727 1359Q756 1359 787 1352T841 1331Q850 1311 853 1286T857 1241Q857
1222 854 1197T841 1151Q819 1138 788 1131T727 1123Q698 1123 667 1130T613 1151Q605 1171 601 1196T597 1241Z" />
<glyph unicode="&#xfd;" horiz-adv-x="966" d="M225 -437Q171 -437 107 -426T7 -401Q3 -356 19 -300T61 -214Q89 -223 135 -232T225 -242Q285 -242 326 -217T395 -147T443 -39L450 -11Q378 -11 333 14T268 105L21 973Q62 992 105 1000T181 1009Q228 1009 260 985T309
896L423 474Q435 435 445 384T466 283T482 197Q485 183 500 183L696 993Q718 998 747 1000T802 1003Q836 1003 871 1000T940 985L949 969L694 29Q654 -115 600 -219T458 -380T225 -437ZM612 1509Q663 1494 712 1449T779 1351L422 1079Q389 1089 358 1117T313 1181L612
1509Z" />
<glyph unicode="&#xfe;" horiz-adv-x="1063" d="M390 -270Q390 -357 359 -394T248 -431H150L137 -418V1458L150 1471H248Q327 1471 358 1435T390 1310V-270ZM988 522Q988 333 931 214T785 38T602 -19Q505 -19 420 20T265 110L303 302Q361 255 428 218T552 180Q604
180 641 217T700 327T721 507Q721 612 701 676T646 770T570 800Q529 800 481 777T389 699T319 544L262 708Q277 783 328 852T459 966T635 1011Q746 1011 825 948T946 774T988 522Z" />
<glyph unicode="&#xff;" horiz-adv-x="966" d="M225 -437Q171 -437 107 -426T7 -401Q3 -356 19 -300T61 -214Q89 -223 135 -232T225 -242Q285 -242 326 -217T395 -147T443 -39L450 -11Q378 -11 333 14T268 105L21 973Q62 992 105 1000T181 1009Q228 1009 260 985T309
896L423 474Q435 435 445 384T466 283T482 197Q485 183 500 183L696 993Q718 998 747 1000T802 1003Q836 1003 871 1000T940 985L949 969L694 29Q654 -115 600 -219T458 -380T225 -437ZM157 1241Q157 1260 160 1285T173 1331Q195 1345 226 1352T287 1359Q316 1359
347 1352T401 1331Q409 1311 413 1286T417 1241Q417 1222 413 1197T401 1151Q379 1138 348 1131T287 1123Q258 1123 227 1130T173 1151Q164 1171 161 1196T157 1241ZM545 1241Q545 1260 549 1285T561 1331Q583 1345 614 1352T675 1359Q704 1359 735 1352T789 1331Q798
1311 801 1286T805 1241Q805 1222 802 1197T789 1151Q767 1138 736 1131T675 1123Q646 1123 615 1130T561 1151Q553 1171 549 1196T545 1241Z" />
<glyph unicode="&#x2013;" horiz-adv-x="1087" d="M128 429Q120 455 118 482T116 529Q116 550 118 578T128 633H960Q967 607 969 579T971 529Q971 510 969 483T960 429H128Z" />
<glyph unicode="&#x2014;" horiz-adv-x="1604" d="M148 429Q141 455 139 482T136 529Q136 550 138 578T148 633H1456Q1464 607 1466 579T1468 529Q1468 510 1466 483T1456 429H148Z" />
<glyph unicode="&#x2018;" horiz-adv-x="497" d="M104 1022Q90 1055 85 1091T79 1167Q79 1298 155 1405T385 1561Q420 1544 435 1509T447 1437Q415 1426 379 1402T318 1345T291 1267Q313 1264 339 1258T378 1241Q388 1225 394 1193T400 1134Q400 1107 394 1073T378
1022Q356 1009 316 1000T240 990Q206 990 166 999T104 1022Z" />
<glyph unicode="&#x2019;" horiz-adv-x="497" d="M397 1528Q410 1494 415 1458T421 1382Q421 1251 346 1145T116 988Q82 1005 66 1040T53 1112Q86 1125 121 1148T182 1205T210 1282Q188 1286 162 1291T122 1308Q113 1325 107 1356T101 1415Q101 1442 107 1476T122
1528Q145 1541 185 1550T260 1560Q295 1560 335 1551T397 1528Z" />
<glyph unicode="&#x201a;" horiz-adv-x="497" d="M394 228Q407 194 412 158T418 82Q418 -49 342 -155T112 -311Q78 -295 62 -260T50 -188Q83 -175 118 -152T179 -95T206 -18Q184 -14 159 -9T119 9Q110 25 104 56T97 115Q97 142 103 176T119 228Q141 241 181 250T257
260Q292 260 332 251T394 228Z" />
<glyph unicode="&#x201c;" horiz-adv-x="929" d="M104 1022Q90 1055 85 1091T79 1167Q79 1298 155 1405T385 1561Q420 1544 435 1509T447 1437Q415 1426 379 1402T318 1345T291 1267Q313 1264 339 1258T378 1241Q388 1225 394 1193T400 1134Q400 1107 394 1073T378
1022Q356 1009 316 1000T240 990Q206 990 166 999T104 1022ZM535 1022Q521 1055 516 1091T510 1167Q510 1298 586 1405T816 1561Q851 1544 866 1509T878 1437Q846 1426 810 1402T749 1345T722 1267Q744 1264 770 1258T809 1241Q819 1225 825 1193T831 1134Q831
1107 825 1073T809 1022Q787 1009 747 1000T671 990Q637 990 597 999T535 1022Z" />
<glyph unicode="&#x201d;" horiz-adv-x="929" d="M403 1528Q417 1494 422 1458T428 1382Q428 1251 352 1145T122 988Q88 1005 74 1038T59 1112Q92 1125 128 1148T189 1205T216 1282Q194 1286 168 1291T129 1308Q119 1325 113 1356T107 1415Q107 1442 113 1476T129
1528Q151 1541 191 1550T266 1560Q301 1560 341 1551T403 1528ZM835 1528Q848 1494 853 1458T859 1382Q859 1251 783 1145T553 988Q519 1005 504 1040T491 1112Q523 1125 559 1148T620 1205T648 1282Q625 1286 599 1291T560 1308Q551 1325 545 1356T538 1415Q538
1442 544 1476T560 1528Q583 1541 623 1550T698 1560Q732 1560 772 1551T835 1528Z" />
<glyph unicode="&#x201e;" horiz-adv-x="929" d="M394 228Q407 194 412 158T418 82Q418 -49 342 -155T112 -311Q78 -295 62 -260T50 -188Q83 -175 118 -152T179 -95T206 -18Q184 -14 159 -9T119 9Q110 25 104 56T97 115Q97 142 103 176T119 228Q141 241 181 250T257
260Q292 260 332 251T394 228ZM825 228Q838 194 843 158T849 82Q849 -49 773 -155T543 -311Q509 -295 493 -260T481 -188Q514 -175 549 -152T610 -95T637 -18Q615 -14 590 -9T550 9Q541 25 535 56T528 115Q528 142 534 176T550 228Q572 241 612 250T688 260Q723
260 763 251T825 228Z" />
<glyph unicode="&#x2022;" horiz-adv-x="909" d="M204 538Q204 568 211 627T237 723Q276 747 337 761T455 776Q509 776 572 762T674 723Q691 686 698 627T706 538Q706 508 699 450T674 354Q649 338 611 327T532 309T455 302Q399 302 338 316T237 354Q219 391 212
449T204 538Z" />
<glyph unicode="&#x2039;" horiz-adv-x="682" d="M469 62L68 433Q55 464 55 510T68 587L463 961Q506 951 549 910T605 826L344 515L614 196Q606 169 582 141T528 91T469 62Z" />
<glyph unicode="&#x203a;" horiz-adv-x="682" d="M218 62Q175 73 133 114T77 197L337 509L67 828Q76 856 99 883T153 932T213 961L613 591Q627 560 627 514T613 436L218 62Z" />
</font>
</defs>
</svg>
