<?xml version="1.0" standalone="no"?>
<!DOCTYPE svg PUBLIC "-//W3C//DTD SVG 1.1//EN" "http://www.w3.org/Graphics/SVG/1.1/DTD/svg11.dtd">
<svg xmlns="http://www.w3.org/2000/svg">
<defs >
<font id="Signika" horiz-adv-x="1241" ><font-face
    font-family="Signika Light"
    units-per-em="2000"
    panose-1="0 0 0 0 0 0 0 0 0 0"
    ascent="1880"
    descent="-584"
    alphabetic="0" />
<glyph unicode=" " horiz-adv-x="440" />
<glyph unicode="!" horiz-adv-x="616" d="M189 418Q172 611 153 803T134 1191V1364Q177 1377 242 1381T373 1381T482 1364V1187Q482 994 461 803T425 418Q394 409 363 407T308 404Q287 404 253 406T189 418ZM308 278Q349 278 388 270T455 245Q466 226 472 190T478
126Q478 99 472 64T455 10Q427 -6 388 -14T308 -23Q267 -23 228 -15T159 10Q149 29 144 64T138 126Q138 154 143 190T159 245Q188 261 227 269T308 278Z" />
<glyph unicode="&quot;" horiz-adv-x="894" d="M515 1436Q515 1468 519 1498T529 1556Q558 1573 591 1582T663 1591Q701 1591 734 1582T797 1556Q803 1528 807 1498T811 1436Q811 1415 800 1344T773 1176T738 981Q713 965 664 965T588 981Q571 1079 554 1175T526
1343T515 1436ZM83 1436Q83 1468 87 1498T97 1556Q126 1573 159 1582T231 1591Q269 1591 302 1582T365 1556Q371 1528 375 1498T379 1436Q379 1415 368 1344T341 1176T306 981Q281 965 232 965T156 981Q139 1079 122 1175T94 1343T83 1436Z" />
<glyph unicode="#" horiz-adv-x="1435" d="M184 24Q207 13 243 7T318 1Q356 1 393 7T456 24L743 1302Q721 1314 685 1319T608 1325Q570 1325 533 1320T471 1302L184 24ZM692 24Q715 13 751 7T826 1Q865 1 902 7T964 24L1251 1302Q1228 1314 1193 1319T1117 1325Q1079
1325 1042 1320T979 1302L692 24ZM1277 264Q1296 321 1296 387Q1296 455 1277 510H51Q32 459 32 387Q32 317 51 264H1277ZM1383 817Q1403 871 1403 940Q1403 1008 1383 1062H157Q139 1010 139 940Q139 870 157 817H1383Z" />
<glyph unicode="$" horiz-adv-x="1080" d="M538 41Q450 41 364 60T207 109T96 165Q97 204 112 251T154 339T210 398Q281 354 369 323T529 291Q586 290 618 314T651 382Q651 411 632 441T554 493L387 555Q280 596 202 671T124 872Q124 982 178 1062T322 1187T520
1232Q657 1232 759 1206T945 1138Q945 1074 915 1009T838 905Q762 942 689 961T557 981Q504 981 476 960T448 904Q448 867 474 847T550 806L713 744Q830 699 903 612T977 391Q977 285 921 206T766 84T538 41ZM526 -128Q493 -128 464 -125T413 -116V147H636V-116Q615
-122 587 -125T526 -128ZM432 1125V1388Q455 1394 484 1397T544 1400Q573 1400 603 1397T656 1388V1125H432Z" />
<glyph unicode="%" horiz-adv-x="1980" d="M1547 -26Q1420 -26 1345 29T1236 182T1203 409Q1203 603 1281 722T1547 841Q1672 841 1747 787T1857 635T1891 409Q1891 213 1813 94T1547 -26ZM433 428Q306 428 231 483T122 636T89 863Q89 993 122 1090T232 1241T433
1295Q557 1295 632 1241T742 1089T777 863Q777 667 699 548T433 428ZM433 618Q475 618 495 651T520 739T526 863Q526 931 521 985T495 1072T433 1105Q391 1105 372 1073T346 986T340 863Q340 795 346 740T371 651T433 618ZM1548 165Q1590 165 1609 198T1634 286T1640
409Q1640 477 1635 531T1610 618T1548 651Q1506 651 1486 619T1460 532T1454 409Q1454 342 1460 287T1486 198T1548 165ZM1204 1294Q1246 1304 1307 1306T1424 1305T1504 1294L789 0Q747 -9 686 -11T569 -11T488 0L1204 1294Z" />
<glyph unicode="&amp;" horiz-adv-x="1312" d="M1052 849Q1110 849 1165 859T1264 888Q1284 865 1294 825T1305 742Q1305 663 1256 624T1116 585H641Q565 585 513 563T433 497T406 388Q406 295 451 254T560 212Q631 212 683 237T766 289V463Q766 516 768 589T776
732H1064Q1070 662 1072 589T1074 463V320Q1074 253 1077 162T1087 0Q1060 -10 1023 -14T944 -19Q905 -19 867 -15T802 -4L781 83Q725 33 644 2T470 -29Q343 -29 256 24T124 165T79 358Q79 475 130 561T262 696T427 744V713Q345 715 280 757T177 871T139 1031Q139
1140 192 1221T344 1349T574 1395Q692 1395 804 1376T998 1329Q1001 1270 980 1204T918 1095Q851 1117 777 1133T629 1150Q547 1150 507 1108T466 1004Q466 925 514 887T664 849H1052Z" />
<glyph unicode="&apos;" horiz-adv-x="462" d="M83 1436Q83 1468 87 1498T97 1556Q126 1573 159 1582T231 1591Q269 1591 302 1582T365 1556Q371 1528 375 1498T379 1436Q379 1415 368 1344T341 1176T306 981Q281 965 232 965T156 981Q139 1079 122 1175T94 1343T83
1436Z" />
<glyph unicode="(" horiz-adv-x="750" d="M442 545Q442 401 471 247T560 -57T711 -334Q682 -396 633 -437T531 -497Q393 -366 301 -191T163 176T117 545Q117 723 163 914T301 1280T531 1586Q584 1567 633 1526T711 1423Q620 1295 561 1147T472 844T442 545Z" />
<glyph unicode=")" horiz-adv-x="750" d="M219 -497Q166 -478 117 -437T39 -334Q130 -206 189 -57T278 246T307 545Q307 690 278 844T190 1146T39 1423Q68 1485 117 1526T219 1586Q357 1456 449 1281T587 914T633 545Q633 367 587 176T449 -190T219 -497Z" />
<glyph unicode="*" horiz-adv-x="1041" d="M395 1460Q423 1472 471 1475T567 1476T645 1460L638 1331Q634 1264 611 1192T567 1052Q548 1030 520 1030Q491 1030 473 1052Q453 1120 430 1192T402 1331L395 1460ZM72 1043Q70 1074 81 1121T110 1213T149 1282L269
1235Q333 1212 394 1167T513 1081Q529 1055 520 1030Q516 1017 507 1007T484 993Q414 993 339 993T198 1011L72 1043ZM368 609Q338 616 297 640T220 696T166 755L247 856Q289 909 351 953T469 1039Q498 1045 520 1030Q542 1013 545 984Q523 917 499 846T437 718L368
609ZM872 755Q857 729 821 698T744 641T672 607L601 717Q564 773 541 845T495 984Q498 1014 520 1030Q531 1038 544 1040T571 1039Q628 997 687 952T790 854L872 755ZM890 1280Q910 1257 928 1213T959 1122T969 1043L842 1009Q778 993 702 993T556 993Q543 998
534 1007T520 1030Q512 1053 526 1080Q584 1123 645 1165T770 1232L890 1280Z" />
<glyph unicode="+" horiz-adv-x="1080" d="M115 763Q102 705 102 638Q102 569 115 514H273Q313 514 346 515T417 516H663Q701 516 734 515T807 514H965Q978 572 978 638Q978 672 975 700T965 763H807Q767 763 734 762T663 761H417Q379 761 346 762T273 763H115ZM407
900Q407 860 408 827T409 755V524Q409 485 408 453T407 381V210Q442 203 476 201T544 199Q577 199 608 201T673 210V381Q673 421 672 453T671 524V755Q671 793 672 826T673 900V1069Q639 1076 606 1078T540 1080Q506 1080 474 1078T407 1069V900Z" />
<glyph unicode="," horiz-adv-x="590" d="M450 255Q464 215 469 178T475 97Q475 3 435 -88T316 -252T118 -361Q78 -341 59 -300T43 -216Q114 -191 167 -139T230 -16Q205 -11 182 -4T143 15Q133 34 127 68T120 132Q120 162 126 199T143 255Q170 271 213 281T297
292Q336 292 380 282T450 255Z" />
<glyph unicode="-" horiz-adv-x="752" d="M95 414Q87 446 85 482T82 539Q82 560 84 596T95 664H656Q665 633 667 597T670 539Q670 518 668 482T656 414H95Z" />
<glyph unicode="." horiz-adv-x="573" d="M106 136Q106 154 111 192T130 257Q160 274 203 284T287 294Q326 294 370 284T444 257Q457 230 462 192T467 136Q467 118 462 80T444 15Q414 -3 370 -12T287 -21Q247 -21 204 -12T130 15Q117 42 112 80T106 136Z" />
<glyph unicode="/" horiz-adv-x="902" d="M630 1436Q699 1428 769 1404T896 1335L267 -339Q199 -331 129 -307T2 -238L630 1436Z" />
<glyph unicode="0" horiz-adv-x="1080" d="M70 633Q70 793 94 929T211 1169Q269 1224 344 1259T540 1295Q663 1295 737 1260T869 1169Q961 1066 985 930T1010 633Q1010 474 986 338T869 97Q811 42 737 7T540 -29Q419 -29 344 6T211 97Q119 201 95 337T70 633ZM390
633Q390 500 398 412T426 281Q442 242 473 225T540 208Q578 208 609 224T654 281Q671 324 680 412T690 633Q690 769 681 855T654 985Q638 1024 608 1041T540 1058Q504 1058 473 1041T426 985Q409 942 400 856T390 633Z" />
<glyph unicode="1" horiz-adv-x="1080" d="M752 402Q752 362 751 320T750 236V124H451V236Q451 278 450 320T449 402V634Q449 674 453 734T462 858T466 968L458 1266Q499 1274 535 1276T605 1278Q638 1278 674 1276T752 1266V402ZM323 256Q345 256 389 255T455
254H746Q769 254 816 255T886 256H994Q1009 193 1009 128Q1009 65 994 0H160Q153 30 149 63T144 128Q144 195 160 256H323ZM67 861Q216 955 309 1053T458 1266L564 1028Q533 946 473 879T340 762T197 681Q151 702 114 752T67 861Z" />
<glyph unicode="2" horiz-adv-x="1080" d="M99 958Q125 1051 183 1127T329 1249T529 1295Q657 1295 752 1246T899 1107T952 896Q952 812 919 744T832 618T713 505L570 393Q535 364 495 330T426 264T396 209L385 -2H191Q150 46 118 94T85 198Q85 253 116 309T200
421T314 533L531 720Q575 758 605 803T635 905Q635 962 599 1001T497 1041Q425 1041 381 986T320 865Q265 866 197 890T99 958ZM986 264Q986 113 941 56T789 -2H211L128 183Q205 211 311 228T524 255T711 264H986Z" />
<glyph unicode="3" horiz-adv-x="1080" d="M674 404Q674 483 623 525T497 568Q469 568 442 562T389 545Q348 568 315 616T274 711Q337 733 405 748T590 764Q705 764 796 722T940 597T993 393Q993 292 955 214T849 81T695 -1T511 -29Q373 -29 263 12T83 116Q94
171 130 226T214 318Q264 278 329 250T471 221Q533 221 578 243T649 307T674 404ZM726 809Q685 767 632 734T527 679T439 643L274 711L459 892Q478 911 503 935T554 981T595 1016L587 1029Q563 1022 532 1017T465 1008T392 1004H150Q136 1041 133 1072T129 1122Q129
1151 134 1190T156 1266H878Q914 1200 927 1158T940 1083Q940 1017 880 954L726 809Z" />
<glyph unicode="4" horiz-adv-x="1080" d="M118 225Q90 271 71 323T51 418Q51 451 64 487T88 549L415 1281Q460 1290 517 1285T625 1262T700 1217L566 915Q542 860 504 778T423 614T342 480L348 470Q389 475 445 478T549 483T613 485H853Q891 485 909 486T967
487H1021Q1026 459 1027 431T1028 375Q1028 344 1024 304T1009 229H967Q927 229 909 229T853 229H555Q516 229 482 227T407 225H118ZM553 84Q553 124 554 157T555 229V435Q555 446 554 478T553 523V588Q553 702 609 769T769 837H841L855 823V629Q855 589 854 556T853
485V229Q853 191 854 158T855 84V0Q814 -7 776 -9T703 -11Q670 -11 632 -9T553 0V84Z" />
<glyph unicode="5" horiz-adv-x="1080" d="M450 870Q446 826 437 786T411 703Q350 681 276 670T135 657L170 1250L443 1201Q450 1171 454 1123T459 1028T458 955L450 870ZM83 109Q92 153 128 216T210 312Q269 270 328 247T456 223Q513 223 559 245T633 311T661
419Q661 485 634 527T561 589T461 610Q415 610 373 594T291 548Q249 556 204 588T135 657Q177 693 237 737T377 814T552 847Q756 847 868 733T980 433Q980 275 908 173T722 21T484 -29Q368 -29 263 6T83 109ZM912 1266Q926 1228 930 1195T934 1138Q934 1008 801
1008H475Q427 1008 366 1010T254 1015T181 1021L170 1250L186 1266H912Z" />
<glyph unicode="6" horiz-adv-x="1080" d="M552 -29Q448 -29 378 -2T266 61T205 121Q191 139 169 171T125 259T88 402T73 617Q73 829 137 981T325 1214T621 1295Q722 1295 804 1277T947 1226Q943 1166 918 1108T847 1012Q807 1029 757 1040T647 1052Q557 1052
503 1011T423 897T398 726V519Q398 454 404 403T423 314T454 253Q470 232 494 217T556 201Q632 201 665 259T698 405Q698 476 682 519T636 582T562 602Q516 602 473 585T390 534T316 453L265 609Q296 670 348 725T475 815T644 851Q806 851 906 751T1006 424Q1006
278 944 177T778 24T552 -29Z" />
<glyph unicode="7" horiz-adv-x="1080" d="M949 1266Q968 1224 986 1170T1004 1077Q1004 1053 993 1021T961 960Q867 835 802 731T696 529T631 326T597 93L589 0Q559 -6 519 -9T434 -12Q393 -12 352 -9T274 0L282 96Q296 270 351 440T499 759T715 1019L706 1031Q681
1024 643 1019T564 1011T487 1006T429 1004H114Q107 1027 103 1055T98 1111Q98 1152 106 1193T127 1266H949Z" />
<glyph unicode="8" horiz-adv-x="1080" d="M61 322Q61 415 109 490T231 618T386 700L585 616Q467 561 421 488T375 342Q375 298 395 262T452 206T540 185Q593 185 628 206T682 262T701 339Q701 379 682 415T626 480T532 532L481 553Q359 602 272 655T140 779T94
950Q94 1047 151 1125T309 1249T540 1295Q676 1295 775 1251T928 1131T983 955Q983 874 940 812T831 707T694 643L503 731Q594 768 639 822T684 943Q684 999 645 1037T538 1075Q477 1075 438 1040T398 950Q398 894 442 856T565 789L615 771Q730 728 821 671T966
534T1019 337Q1019 222 953 140T775 15T527 -29Q315 -29 188 64T61 322Z" />
<glyph unicode="9" horiz-adv-x="1080" d="M528 1295Q633 1295 703 1268T815 1205T875 1145Q889 1127 911 1095T955 1007T992 864T1007 649Q1007 437 943 285T756 52T459 -29Q358 -29 277 -10T133 40Q137 100 162 158T233 254Q274 238 324 226T433 214Q523 214
578 255T657 369T682 540V747Q682 812 676 863T657 952T626 1013Q610 1034 586 1049T524 1065Q448 1065 415 1007T382 861Q382 790 398 747T444 684T518 664Q565 664 608 681T690 732T764 813L815 657Q784 597 732 542T605 451T436 415Q274 415 174 515T74 842Q74
988 136 1089T302 1242T528 1295Z" />
<glyph unicode=":" horiz-adv-x="589" d="M114 136Q114 154 119 192T138 257Q168 274 211 284T295 294Q334 294 378 284T452 257Q465 230 470 192T475 136Q475 118 470 80T452 15Q422 -3 378 -12T295 -21Q255 -21 212 -12T138 15Q125 42 120 80T114 136ZM114 754Q114
772 119 810T138 875Q168 892 211 902T295 912Q334 912 378 902T452 875Q465 848 470 810T475 754Q475 736 470 698T452 633Q422 615 378 606T295 597Q255 597 212 606T138 633Q125 660 120 698T114 754Z" />
<glyph unicode=";" horiz-adv-x="597" d="M450 255Q464 215 469 178T475 97Q475 3 435 -88T316 -252T118 -361Q78 -341 59 -300T43 -216Q114 -191 167 -139T230 -16Q205 -11 182 -4T143 15Q133 34 127 68T120 132Q120 162 126 199T143 255Q170 271 213 281T297
292Q336 292 380 282T450 255ZM118 754Q118 772 123 810T142 875Q172 892 215 902T299 912Q338 912 382 902T456 875Q469 848 474 810T479 754Q479 736 474 698T456 633Q426 615 382 606T299 597Q259 597 216 606T142 633Q129 660 124 698T118 754Z" />
<glyph unicode="&lt;" horiz-adv-x="1080" d="M823 1147Q882 1116 921 1048T964 906L597 718Q566 702 512 680T426 646V630Q458 620 512 598T597 559L964 370Q958 297 918 227T821 126L113 519Q100 570 99 636T113 755L823 1147Z" />
<glyph unicode="=" horiz-adv-x="1080" d="M115 287Q107 319 105 355T102 412Q102 433 104 469T115 537H965Q973 506 975 470T978 412Q978 391 976 355T965 287H115ZM115 744Q107 776 105 812T102 869Q102 890 104 926T115 994H965Q973 963 975 927T978 869Q978
848 976 812T965 744H115Z" />
<glyph unicode="&gt;" horiz-adv-x="1080" d="M257 130Q199 162 159 229T116 370L483 559Q515 576 568 598T653 631V646Q621 657 568 679T483 718L116 906Q122 980 163 1050T259 1151L967 757Q980 707 980 641T967 521L257 130Z" />
<glyph unicode="?" horiz-adv-x="841" d="M10 1281Q93 1331 198 1364T421 1397Q625 1397 730 1294T835 1033Q835 883 761 789T574 636L453 573L433 420Q406 411 377 408T319 404Q291 404 259 407T198 420L181 718L206 749L316 798Q399 836 453 883T508 998Q508
1057 469 1093T351 1129Q290 1129 233 1109T122 1059Q79 1092 46 1157T10 1281ZM319 272Q360 272 399 264T466 239Q477 220 483 185T489 121Q489 93 483 58T466 4Q438 -12 399 -20T319 -29Q230 -29 170 4Q160 23 154 58T148 121Q148 149 154 184T170 239Q199 256
238 264T319 272Z" />
<glyph unicode="@" horiz-adv-x="1959" d="M1391 328Q1391 274 1405 251T1452 227Q1490 227 1521 261T1570 377T1589 600Q1589 770 1518 891T1316 1077T1012 1142Q871 1142 756 1091T559 947T432 725T388 443Q388 235 456 99T649 -103T946 -169Q1047 -169 1145
-149T1338 -93Q1377 -136 1396 -195T1415 -305Q1352 -333 1268 -356T1094 -392T922 -406Q676 -406 485 -316T186 -38T77 443Q77 647 146 817T342 1111T639 1304T1012 1372Q1200 1372 1361 1321T1642 1169T1829 924T1896 592Q1896 384 1830 254T1661 62T1451 1Q1348
1 1270 44T1147 159T1102 319V722Q1080 740 1058 748T1006 756Q952 756 923 717T884 613T873 469Q873 344 894 285T974 226Q1011 226 1049 249T1118 311T1168 391L1275 254Q1250 197 1193 137T1061 36T902 -6Q794 -6 721 53T612 215T575 454Q575 607 625 724T771
907T1006 973Q1123 973 1228 927T1391 822V328Z" />
<glyph unicode="A" horiz-adv-x="1276" d="M459 1366Q497 1372 550 1374T644 1377Q682 1377 736 1375T829 1364L1259 21Q1226 2 1174 -7T1076 -17Q1000 -17 957 18T885 156L742 663Q719 747 689 860T632 1074H620Q610 1019 593 951T558 816T523 693L319 -2Q289
-9 255 -11T183 -13Q147 -13 102 -8T29 7L17 25L459 1366ZM483 286Q469 286 451 286T414 287T381 288H213L310 537H458Q472 537 490 537T526 538T558 539H704Q719 539 736 539T772 538T805 537H958L1039 288H871Q857 288 838 288T801 287T768 286H483Z" />
<glyph unicode="B" horiz-adv-x="1229" d="M166 1370Q286 1372 403 1374T627 1377Q767 1377 872 1339T1036 1221T1095 1014Q1095 941 1062 877T973 771T851 721V753Q932 748 1002 697T1116 566T1159 393Q1159 253 1098 164T925 32T659 -11Q543 -11 419 -9T166
-4L152 10V1356L166 1370ZM467 211Q516 213 560 213T636 213Q697 213 736 231T798 278T829 341T838 406Q838 450 821 495T759 572T634 603H347V830H611Q679 830 716 854T768 916T783 992Q783 1032 768 1068T716 1127T611 1151Q585 1151 545 1151T467 1153V211Z"
/>
<glyph unicode="C" horiz-adv-x="1218" d="M866 822Q868 905 850 978T783 1097T645 1143Q517 1143 463 1023T408 676Q408 462 479 356T682 249Q786 249 869 293T1022 389Q1069 358 1114 299T1169 183Q1111 126 1026 78T837 1T623 -29Q466 -29 360 32T190 195T100
423T72 678Q72 930 152 1088T364 1322T657 1397Q812 1397 927 1342T1106 1193T1170 981Q1170 887 1122 846T987 805Q953 805 924 810T866 822Z" />
<glyph unicode="D" horiz-adv-x="1335" d="M1261 684Q1261 567 1245 459T1180 257T1036 89Q990 53 925 31T793 -1T669 -12Q583 -12 501 -11T336 -8T166 -4L152 10V1356L166 1370Q252 1373 334 1374T500 1376T669 1377Q725 1377 793 1367T926 1335T1036 1277Q1131
1203 1179 1109T1244 908T1261 684ZM932 684Q932 760 923 838T886 982T807 1088T669 1129Q618 1129 571 1129T471 1131V236Q524 237 571 237T669 237Q755 237 807 277T886 384T922 529T932 684Z" />
<glyph unicode="E" horiz-adv-x="1146" d="M150 1352L164 1366H465V1103Q465 1061 466 1028T467 954V404Q467 365 466 333T465 260V-5H334Q248 -5 199 44T150 181V1352ZM907 817Q918 788 922 751T926 687Q926 659 922 623T907 556H602Q577 556 531 556T437 558T356
560V813Q388 814 436 815T531 816T602 817H907ZM1026 1366Q1034 1330 1035 1299T1037 1240Q1037 1213 1031 1174T1011 1098H602Q577 1098 531 1098T437 1100T356 1102V1366H1026ZM1076 262Q1076 130 1035 63T866 -5H356V252Q421 255 480 258T613 262H1076Z" />
<glyph unicode="F" horiz-adv-x="1070" d="M473 0Q432 -7 391 -9T316 -11Q283 -11 238 -9T152 0V1354L166 1366H471V1271Q471 1188 472 1103T473 938V0ZM1021 1366Q1029 1340 1032 1306T1035 1243Q1035 1165 993 1130T864 1095H614Q539 1095 473 1096T340 1097V1366H1021ZM899
811Q908 783 912 745T916 681Q916 654 912 616T899 549H511Q468 549 424 550T351 553V807Q380 809 424 810T511 811H899Z" />
<glyph unicode="G" horiz-adv-x="1309" d="M1202 1253Q1197 1185 1153 1120T1059 1023Q986 1072 900 1101T729 1131Q628 1131 554 1083T440 934T399 672Q399 438 485 330T733 222Q831 222 909 240T1038 272L1205 53Q1147 34 1066 15T886 -16T678 -29Q524 -29 410
20T221 160T109 382T72 674Q72 856 125 991T269 1216T474 1350T710 1395Q847 1395 973 1356T1202 1253ZM905 371Q905 442 910 521T934 668L1205 578V53L905 49V371ZM994 776Q1113 776 1159 721T1205 578V510H811Q760 510 726 522T675 564T658 644Q658 676 664 712T681
776H994Z" />
<glyph unicode="H" horiz-adv-x="1373" d="M1064 -11Q1030 -11 986 -9T900 0V424Q900 466 901 499T902 572V836Q902 877 901 909T900 984V1366Q940 1373 984 1375T1060 1377Q1089 1377 1135 1375T1221 1366V0Q1180 -7 1139 -9T1064 -11ZM312 -11Q283 -11 237 -9T152
0V1366Q190 1373 236 1375T312 1377Q344 1377 388 1375T473 1366V984Q473 942 472 910T471 836V572Q471 532 472 499T473 424V0Q433 -7 389 -9T312 -11ZM278 570V838Q325 838 374 837T471 836Q486 836 503 836T539 837T571 838H802Q816 838 834 838T870 837T902
836Q949 836 998 837T1094 838V570Q1047 570 998 571T902 572Q888 572 870 572T834 571T802 570H571Q557 570 539 570T504 571T471 572Q424 572 375 571T278 570Z" />
<glyph unicode="I" horiz-adv-x="630" d="M155 1366Q193 1373 239 1375T315 1377Q347 1377 391 1375T475 1366V0Q435 -7 391 -9T315 -11Q286 -11 240 -9T155 0V1366Z" />
<glyph unicode="J" horiz-adv-x="942" d="M130 304Q172 279 217 262T311 244Q419 244 454 310T489 494V1366Q528 1373 574 1375T650 1377Q682 1377 726 1375T810 1366V524Q810 406 790 307T719 134T578 21T346 -20Q267 -20 179 1T20 67Q29 128 58 191T130 304Z" />
<glyph unicode="K" d="M152 1366Q190 1373 236 1375T312 1377Q344 1377 388 1375T473 1366V0Q433 -7 389 -9T312 -11Q283 -11 237 -9T152 0V1366ZM1228 79Q1197 33 1139 8T1016 -17Q929 -17 890 28T822 165L747 399Q717 494 674 534T560 574Q515 574 451 569T310
557V753H708Q821 753 886 721T986 635T1042 514L1124 267Q1144 209 1158 176T1189 121T1228 79ZM803 1267Q832 1323 865 1350T968 1377Q1007 1377 1060 1375T1160 1368L1177 1346L935 887Q878 779 790 718T553 656H310V836Q363 837 417 838T523 840Q561 840 577
854T614 908L803 1267Z" />
<glyph unicode="L" horiz-adv-x="1045" d="M471 -5H336Q250 -5 200 44T150 181V1365L164 1379H281Q373 1379 422 1332T471 1177V-5ZM1005 270Q1005 118 956 57T787 -5H336L164 226Q295 249 423 259T658 270H1005Z" />
<glyph unicode="M" horiz-adv-x="1667" d="M216 1364Q267 1373 328 1376T432 1379Q476 1379 530 1376T635 1364L753 875Q757 857 766 813T788 714T810 604T827 511H840Q846 549 857 603T880 713T901 813T915 875L1033 1364Q1084 1373 1138 1376T1235 1379Q1279
1379 1340 1376T1451 1364L1557 4Q1523 -5 1479 -8T1395 -12Q1359 -12 1325 -10T1255 -2L1225 555Q1221 626 1218 708T1212 870T1209 1015H1195L998 201Q962 195 914 193T833 190Q803 190 754 192T669 201L472 1015H459Q459 950 457 870T451 708T443 555L412 -2Q378
-8 343 -10T272 -12Q234 -12 190 -9T110 4L216 1364Z" />
<glyph unicode="N" horiz-adv-x="1391" d="M152 1361Q190 1369 250 1373T341 1377Q372 1377 423 1375T527 1366L446 1003L425 995Q433 910 438 803T447 588T450 398V0Q411 -7 373 -9T305 -11Q276 -11 233 -9T152 0V1361ZM545 716Q512 793 483 867T433 999L285
1170L527 1366L835 652Q873 564 905 484T960 348L1122 173L861 0L545 716ZM1239 1366V5Q1214 0 1177 -4T1104 -9T1047 -11Q1016 -11 965 -9T861 0L945 345L968 352Q960 445 954 556T946 770T943 942V1186Q943 1293 986 1336T1122 1379H1225L1239 1366Z" />
<glyph unicode="O" horiz-adv-x="1333" d="M406 684Q406 605 414 523T449 372T528 259T666 216Q753 216 804 259T882 371T917 523T926 684Q926 763 918 844T883 995T805 1107T666 1150Q580 1150 528 1108T450 996T415 845T406 684ZM72 684Q72 898 136 1058T332
1306T666 1395Q818 1395 930 1344T1115 1199T1225 974T1261 684Q1261 469 1196 309T1000 60T666 -29Q514 -29 402 22T217 167T108 393T72 684Z" />
<glyph unicode="P" horiz-adv-x="1178" d="M1120 902Q1120 746 1057 641T883 482T630 428H337V662Q364 664 420 666T529 669T603 671Q683 671 724 709T779 800T793 902Q793 949 779 1002T724 1094T603 1132Q573 1132 544 1132T473 1134V0Q433 -7 389 -9T312 -11Q283
-11 237 -9T152 0V1356L166 1370Q294 1372 405 1374T630 1377Q772 1377 882 1326T1056 1170T1120 902Z" />
<glyph unicode="Q" horiz-adv-x="1339" d="M400 684Q400 605 410 523T447 371T528 259T669 216Q756 216 809 258T890 370T926 522T936 684Q936 764 927 846T890 997T810 1108T669 1150Q582 1150 529 1108T448 997T410 846T400 684ZM72 684Q72 895 136 1055T333
1305T669 1395Q874 1395 1006 1304T1203 1053T1267 682Q1267 557 1243 442T1167 237T1035 94T841 41Q805 13 762 -8T669 -29Q464 -29 332 62T136 314T72 684ZM557 68L846 166L1034 33Q1087 -4 1128 -24T1207 -53T1286 -62Q1285 -167 1225 -228T1084 -289Q1014 -289
963 -267T871 -209L557 68Z" />
<glyph unicode="R" horiz-adv-x="1230" d="M1132 943Q1132 847 1095 773T1002 649T889 577Q945 557 982 508T1043 393L1103 224Q1120 177 1145 140T1201 76Q1171 36 1113 10T989 -17Q903 -17 864 29T793 167L721 376Q704 428 669 464T553 501H339V740Q378 742
435 744T544 748T617 750Q694 750 734 777T790 849T805 943Q805 995 790 1039T735 1109T617 1136Q597 1136 574 1136T525 1136T469 1138V0Q429 -7 386 -9T310 -11Q282 -11 236 -9T152 0V1356L166 1370Q294 1372 412 1374T645 1377Q784 1377 894 1332T1068 1191T1132
943Z" />
<glyph unicode="S" horiz-adv-x="1114" d="M30 119Q36 187 71 252T153 358Q238 308 345 268T559 227Q646 227 684 269T722 359Q722 391 701 432T596 509L355 609Q231 661 150 748T69 978Q69 1103 134 1196T309 1342T556 1395Q698 1395 822 1359T1025 1281Q1021
1212 993 1149T917 1042Q841 1078 739 1108T556 1139Q470 1139 434 1101T397 1021Q397 983 422 953T514 895L760 794Q857 754 924 695T1027 561T1062 399Q1062 278 1004 181T829 28T537 -29Q415 -29 278 9T30 119Z" />
<glyph unicode="T" horiz-adv-x="1019" d="M18 1100Q11 1136 9 1170T7 1232Q7 1260 9 1295T18 1366H1008Q1016 1341 1020 1308T1024 1243Q1024 1165 984 1133T857 1100H798Q776 1100 736 1101T672 1102H351Q329 1102 288 1101T225 1100H18ZM351 954Q351 995 352
1027T353 1102V1234H670V1102Q670 1060 671 1028T672 954V0Q631 -7 588 -9T512 -11Q478 -11 435 -9T351 0V954Z" />
<glyph unicode="U" horiz-adv-x="1347" d="M1215 504Q1215 335 1152 216T969 34T674 -29Q501 -29 380 34T196 216T132 504V1365L146 1379H263Q355 1379 404 1332T453 1177V501Q453 364 503 295T674 225Q795 225 845 294T895 501V1366Q935 1373 977 1375T1051 1377Q1080
1377 1128 1375T1215 1366V504Z" />
<glyph unicode="V" horiz-adv-x="1213" d="M897 1366Q932 1374 968 1375T1036 1377Q1065 1377 1107 1373T1183 1357L1196 1339L821 0Q766 -6 697 -9T566 -12Q476 -12 425 17T350 132L17 1337Q61 1357 109 1370T210 1383Q281 1383 321 1346T382 1225L536 656Q552
597 565 536T591 413T612 292Q615 276 620 272T633 267L897 1366Z" />
<glyph unicode="W" horiz-adv-x="1807" d="M30 1347Q65 1362 110 1372T199 1383Q283 1383 321 1347T376 1208L460 691Q471 626 481 552T501 410T515 294Q517 275 521 271T535 267L700 1340Q747 1348 802 1351T905 1355Q954 1355 1009 1352T1109 1340L1262 294Q1265
274 1270 271T1284 267Q1290 322 1299 396T1320 548T1343 695L1457 1366Q1492 1373 1529 1375T1600 1377Q1638 1377 1679 1372T1751 1357L1767 1337L1502 2Q1447 -4 1370 -8T1229 -12Q1158 -12 1104 12T1034 133L966 565Q948 683 933 809T909 1029H893Q883 935
866 810T828 565L737 2Q680 -4 608 -8T470 -12Q393 -12 339 12T266 133L30 1347Z" />
<glyph unicode="X" horiz-adv-x="1232" d="M49 1316Q96 1348 152 1366T257 1385Q325 1385 370 1359T460 1261L1215 50Q1168 18 1113 0T1007 -19Q939 -19 893 8T801 107L49 1316ZM866 1366Q891 1372 924 1375T999 1378Q1045 1378 1090 1370T1167 1351L1175 1335L749
633L619 487L330 0Q305 -6 271 -9T196 -12Q150 -12 105 -4T25 15L17 33L484 794L614 939L866 1366Z" />
<glyph unicode="Y" horiz-adv-x="1085" d="M382 612H703V0Q663 -7 620 -9T544 -11Q515 -11 468 -9T382 0V612ZM790 1366Q823 1374 856 1376T920 1378Q961 1378 1003 1372T1077 1355L1090 1337L687 382H402L-5 1328Q36 1351 87 1366T190 1382Q258 1382 294 1353T359
1255L454 1016Q479 953 501 882T545 729H557Q570 780 585 831T619 932T655 1027L790 1366Z" />
<glyph unicode="Z" horiz-adv-x="1159" d="M558 921Q587 961 634 1019T719 1117L713 1123Q678 1119 637 1116T555 1110T474 1107T405 1106H118Q111 1135 109 1161T106 1213Q106 1254 112 1290T128 1366H1013Q1034 1291 1043 1254T1054 1199T1057 1170Q1057 1143
1050 1115T1022 1058L576 446Q547 406 503 353T420 258L426 252Q491 257 576 261T726 266H837Q911 266 967 280T1063 313Q1072 284 1078 246T1084 169Q1084 83 1026 42T875 0H110Q95 71 88 107T78 161T75 192Q75 221 84 252T113 310L558 921Z" />
<glyph unicode="[" horiz-adv-x="789" d="M196 1541L500 1435V-335L196 -412V1541ZM214 -428L196 -412L221 -184L701 -197Q709 -215 716 -250T724 -324Q724 -341 721 -368T713 -410L214 -428ZM713 1539Q718 1524 721 1497T724 1452Q724 1415 717 1379T701 1326L221
1312L196 1541L214 1556L713 1539Z" />
<glyph unicode="\" horiz-adv-x="902" d="M634 -339Q703 -331 773 -307T900 -238L272 1436Q203 1428 133 1404T6 1335L634 -339Z" />
<glyph unicode="]" horiz-adv-x="789" d="M593 1541L289 1435V-335L593 -412V1541ZM576 -428L593 -412L568 -184L89 -197Q82 -215 74 -250T65 -324Q65 -341 68 -368T77 -410L576 -428ZM77 1539Q71 1524 68 1497T65 1452Q65 1415 73 1379T89 1326L568 1312L593
1541L576 1556L77 1539Z" />
<glyph unicode="^" horiz-adv-x="1060" d="M1004 612Q975 605 934 602T851 599Q811 599 773 602T707 612L611 850Q603 872 588 914T559 999T538 1064H522Q515 1042 501 1000T473 915T449 850L353 612Q325 605 288 602T209 599Q167 599 126 602T56 612L364 1296Q390
1303 436 1306T534 1309Q582 1309 626 1307T696 1296L1004 612Z" />
<glyph unicode="_" horiz-adv-x="1130" d="M-2 -354Q-15 -296 -15 -237Q-15 -178 -2 -120H1132Q1145 -178 1145 -237Q1145 -296 1132 -354H-2Z" />
<glyph unicode="`" horiz-adv-x="796" d="M337 1539Q282 1522 225 1471T149 1359L519 1081Q558 1093 594 1126T647 1202L337 1539Z" />
<glyph unicode="a" horiz-adv-x="1026" d="M60 273Q60 394 116 470T262 584T456 621Q501 621 569 619T693 606V408Q650 418 590 419T489 421Q422 421 393 386T364 294Q364 254 388 228T456 201Q516 201 578 244T683 362L727 164Q688 118 638 74T521 0T364 -29Q261
-29 194 16T93 131T60 273ZM967 145Q959 103 930 55T872 -16Q784 -14 727 24T639 117T599 226V654Q599 716 568 748T468 781Q404 781 328 761T173 717Q140 755 122 815T98 934Q166 962 248 981T411 1011T556 1022Q644 1022 725 990T858 883T911 681V274Q911 231
925 198T967 145Z" />
<glyph unicode="b" horiz-adv-x="1070" d="M425 50H119V1458L133 1472H251Q343 1472 384 1430T425 1284V50ZM1010 513Q1011 351 950 232T777 47T511 -18Q402 -18 301 0T119 50L267 280Q323 244 385 225T517 206Q578 206 616 242T672 346T690 507Q690 644 659 705T562
767Q519 769 468 739T379 641L335 877Q376 917 423 949T527 999T655 1018Q774 1018 852 953T970 773T1010 513Z" />
<glyph unicode="c" horiz-adv-x="949" d="M619 555Q619 633 612 686T579 768T502 796Q432 796 406 725T379 497Q379 338 423 276T552 214Q611 214 668 239T772 298Q810 276 845 223T890 124Q823 54 718 13T501 -29Q393 -29 311 8T173 114T89 280T60 497Q60 642
98 743T202 907T346 999T508 1028Q592 1028 663 1004T787 936T869 831T898 696Q898 617 855 581T745 544Q671 544 619 555Z" />
<glyph unicode="d" horiz-adv-x="1077" d="M954 289Q954 241 969 202T1010 145Q1002 103 973 55T915 -16Q783 -14 716 73T649 285V1458L663 1472H785Q877 1472 915 1430T954 1284V289ZM64 487Q64 659 118 777T264 957T465 1018Q569 1018 649 975T796 892L746 670Q688
717 628 751T519 786Q471 786 442 750T398 646T384 485Q384 393 399 335T442 249T504 221Q536 221 578 240T661 314T728 474L799 297Q790 216 738 142T604 19T423 -29Q302 -29 222 37T103 219T64 487Z" />
<glyph unicode="e" horiz-adv-x="993" d="M260 398V613H637V636Q637 682 624 720T583 782T506 806Q433 806 404 746T374 561V467Q374 399 386 340T437 245T556 209Q624 209 689 226T815 269Q850 235 871 183T899 84Q823 29 718 0T505 -29Q373 -29 287 14T151 132T81
299T60 492Q60 643 105 764T250 956T508 1028Q640 1028 733 972T875 821T925 604Q925 537 919 493T898 398H260Z" />
<glyph unicode="f" horiz-adv-x="724" d="M328 996L721 1000Q733 949 733 891Q733 865 730 835T721 778L324 784L4 778Q-2 804 -5 834T-8 891Q-8 917 -5 946T4 1000L328 996ZM176 868Q170 933 160 998T150 1131Q150 1231 193 1309T316 1434T499 1480Q593 1480
673 1463T805 1425Q807 1372 788 1312T738 1219Q708 1227 666 1236T583 1245Q519 1245 484 1211T449 1109Q449 1053 461 988T481 866V0Q445 -6 405 -8T326 -11Q289 -11 250 -9T176 0V868Z" />
<glyph unicode="g" horiz-adv-x="1072" d="M1012 854Q987 836 972 797T956 709V182Q956 42 944 -49T908 -198T853 -296Q794 -372 696 -407T478 -442Q384 -442 282 -424T102 -376Q102 -321 124 -255T179 -150Q244 -178 313 -194T449 -210Q522 -210 566 -185T631
-114T651 -7V714Q651 839 718 925T917 1014Q946 992 976 944T1012 854ZM64 497Q64 669 119 787T265 967T465 1028Q563 1028 631 996T745 918T815 828L765 573Q707 682 641 738T520 795Q472 795 442 759T398 656T384 495Q384 356 417 294T502 231Q562 231 619 272T716
394L760 177Q727 121 675 76T559 6T424 -20Q302 -20 222 46T103 228T64 497Z" />
<glyph unicode="h" horiz-adv-x="1086" d="M425 0Q392 -6 352 -8T270 -11Q233 -11 194 -9T119 0V1458L133 1472H255Q347 1472 386 1430T425 1284V0ZM972 250Q972 192 983 141T1021 51Q987 23 936 4T826 -16Q732 -16 696 34T659 177V603Q659 671 641 703T573 736Q542
736 502 719T421 665T350 564V837Q420 906 502 961T692 1016Q783 1016 845 971T940 845T972 660V250Z" />
<glyph unicode="i" horiz-adv-x="596" d="M479 0Q446 -6 405 -8T323 -11Q284 -11 243 -9T166 0V662Q166 712 146 745T72 778H42Q29 829 29 884Q29 910 32 939T42 996Q88 1001 136 1003T218 1006H261Q362 1006 420 942T479 767V0ZM106 1279Q106 1307 112 1337T129
1396Q155 1409 196 1418T278 1427Q319 1427 361 1418T427 1396Q438 1368 444 1337T450 1279Q450 1252 444 1221T427 1163Q404 1150 362 1141T278 1132Q238 1132 195 1140T129 1163Q118 1190 112 1221T106 1279Z" />
<glyph unicode="j" horiz-adv-x="608" d="M491 48Q491 -97 461 -195T349 -351T109 -440Q76 -414 51 -359T24 -251Q82 -226 117 -198T168 -125T184 -6V662Q184 712 163 745T89 778H42Q29 829 29 884Q29 910 32 939T42 996Q95 1001 148 1003T234 1006H277Q377 1006
434 942T491 767V48ZM113 1279Q113 1307 119 1337T136 1396Q162 1409 203 1418T285 1427Q326 1427 368 1418T434 1396Q445 1368 451 1337T457 1279Q457 1252 451 1221T434 1163Q411 1150 369 1141T285 1132Q245 1132 202 1140T136 1163Q125 1190 119 1221T113 1279Z"
/>
<glyph unicode="k" horiz-adv-x="1046" d="M425 0Q392 -6 352 -8T270 -11Q231 -11 193 -9T119 0V1458L133 1472H255Q347 1472 386 1430T425 1284V0ZM935 252Q960 175 980 140T1031 82Q994 40 938 12T821 -16Q754 -16 721 16T662 123L603 296Q582 360 555 380T487
400Q444 400 412 397T347 389L266 379V594H580Q689 594 770 548T886 398L935 252ZM824 688Q778 600 693 556T477 511H304V654L456 656Q478 656 489 663T513 691L617 892Q645 948 686 977T791 1006Q841 1006 882 1005T966 1002L978 986L824 688Z" />
<glyph unicode="l" horiz-adv-x="626" d="M564 228Q575 195 582 157T589 80Q589 63 588 44T581 9Q536 2 480 -4T366 -10Q230 -10 174 57T117 268V1458L131 1472H253Q345 1472 384 1430T423 1284V323Q423 277 443 253T509 228H564Z" />
<glyph unicode="m" horiz-adv-x="1617" d="M249 1012Q339 1012 385 951T432 785V0Q399 -6 358 -8T276 -11Q237 -11 196 -9T119 0V998L133 1012H249ZM655 602Q655 682 626 709T565 736Q522 735 474 702T387 622T331 527V797Q378 850 435 900T557 983T694 1016Q781
1016 842 976T936 864T968 701V0Q935 -6 894 -8T812 -11Q773 -11 732 -9T655 0V602ZM1189 604Q1189 684 1159 710T1096 736Q1057 736 1011 703T924 619T859 516V805Q904 859 965 907T1096 986T1236 1016Q1324 1016 1383 975T1472 861T1502 697V250Q1502 192 1513
141T1552 51Q1518 23 1467 4T1357 -16Q1263 -16 1226 34T1189 177V604Z" />
<glyph unicode="n" horiz-adv-x="1094" d="M251 1012Q341 1012 386 951T432 785V0Q399 -6 358 -8T276 -11Q237 -11 196 -9T119 0V998L133 1012H251ZM979 250Q979 192 990 141T1029 51Q995 23 944 4T834 -16Q740 -16 703 34T666 177V603Q666 671 649 703T581 736Q550
736 510 719T429 665T357 564V838Q428 906 510 961T699 1016Q791 1016 853 971T947 845T979 660V250Z" />
<glyph unicode="o" horiz-adv-x="1044" d="M984 499Q984 339 931 220T776 36T522 -29Q370 -29 267 36T112 221T60 499Q60 660 112 778T268 962T522 1028Q674 1028 777 962T932 778T984 499ZM381 499Q381 417 390 350T430 244T522 204Q584 204 614 243T653 350T663
499Q663 582 654 649T614 755T522 795Q461 795 431 756T391 649T381 499Z" />
<glyph unicode="p" horiz-adv-x="1076" d="M216 1012Q311 1012 368 942T426 748V-244Q426 -348 387 -390T255 -432H133L119 -418V998L133 1012H216ZM1012 511Q1012 339 958 221T812 41T611 -20Q507 -20 427 23T280 107L330 329Q389 281 448 247T557 213Q605 213
635 249T678 353T692 513Q692 606 677 664T634 750T571 777Q540 777 498 758T415 685T347 524L277 701Q287 782 339 857T472 980T652 1028Q774 1028 854 962T973 780T1012 511Z" />
<glyph unicode="q" horiz-adv-x="1077" d="M64 497Q64 669 119 787T265 967T465 1028Q563 1028 631 996T745 918T815 828L765 573Q707 682 641 738T520 795Q472 795 442 759T398 656T384 495Q384 403 399 345T442 259T502 231Q562 231 619 272T716 394L760 176Q727
120 675 76T559 6T424 -20Q302 -20 222 46T103 228T64 497ZM649 714Q649 839 716 925T915 1014Q944 992 973 944T1011 854Q986 836 971 797T955 709V-418L941 -432H819Q727 -432 688 -390T649 -244V714Z" />
<glyph unicode="r" horiz-adv-x="794" d="M793 995Q793 940 773 855T715 703Q689 713 664 718T612 724Q572 724 540 710T482 667T433 598T389 504L354 551Q359 634 375 715T424 864T514 971T660 1012Q706 1012 734 1008T793 995ZM60 853Q68 895 97 943T155 1014Q294
1004 364 912T448 669V0Q416 -6 375 -8T292 -11Q253 -11 212 -9T135 0V646Q135 735 110 785T60 853Z" />
<glyph unicode="s" horiz-adv-x="886" d="M39 69Q41 119 66 181T127 279Q192 245 262 221T403 196Q461 196 490 216T520 266Q520 295 499 317T429 357L318 397Q248 423 191 462T101 559T68 697Q68 799 116 873T251 987T455 1028Q550 1028 654 1002T823 944Q825
908 814 864T783 783T737 727Q675 755 602 778T458 802Q418 802 397 783T376 738Q376 712 394 694T452 662L576 618Q690 578 766 501T842 296Q842 147 728 59T410 -29Q303 -29 207 0T39 69Z" />
<glyph unicode="t" horiz-adv-x="749" d="M161 1111Q161 1216 199 1257T330 1299H452L466 1285V322Q466 277 486 253T555 228H667Q678 195 684 156T691 80Q691 63 690 44T684 9Q629 2 557 -4T425 -10Q289 -10 225 57T161 268V1111ZM703 1000Q717 947 717 891Q717
863 714 835T703 778L330 784L4 778Q-9 831 -9 891Q-9 945 4 1000L339 995L703 1000Z" />
<glyph unicode="u" horiz-adv-x="1098" d="M975 285Q975 237 990 198T1031 141Q1023 99 994 53T936 -16Q803 -14 733 75T662 289V998Q694 1004 736 1007T819 1010Q858 1010 899 1007T975 998V285ZM115 748Q115 807 104 858T65 947Q100 976 151 995T260 1014Q354
1014 391 964T428 821V395Q428 328 446 296T513 263Q544 263 585 279T666 334T737 434V161Q667 92 585 37T395 -18Q304 -18 242 27T147 153T115 338V748Z" />
<glyph unicode="v" horiz-adv-x="959" d="M673 997Q701 1003 729 1005T786 1008Q827 1008 869 1003T948 983L957 970Q927 861 891 730T816 463T743 207T681 0Q629 -6 568 -9T447 -12Q358 -12 308 17T230 137L-9 974Q32 991 78 1003T163 1016Q237 1016 281 984T344
870L434 497Q444 459 452 414T466 326T478 254Q480 242 484 240T498 238L673 997Z" />
<glyph unicode="w" horiz-adv-x="1512" d="M9 979Q54 997 98 1006T183 1016Q258 1016 288 982T332 883L394 560Q414 463 427 381T446 247Q449 231 462 231L572 987Q610 996 667 999T752 1003Q783 1003 842 1000T937 987L1050 247Q1054 231 1066 231Q1077 300 1090
384T1121 560L1210 997Q1236 1004 1268 1007T1329 1010Q1361 1010 1411 1005T1495 983L1504 965L1271 0Q1224 -7 1160 -9T1041 -12Q951 -12 905 13T845 130L811 345Q804 395 795 456T777 585T760 722H748Q741 654 732 587T713 460T696 349L640 0Q591 -6 526 -9T404
-12Q316 -12 270 16T203 134L9 979Z" />
<glyph unicode="x" horiz-adv-x="962" d="M26 949Q77 986 133 1002T238 1018Q297 1018 331 994T396 921L966 51Q920 20 864 1T754 -18Q696 -18 658 5T590 76L26 949ZM648 998Q674 1004 706 1007T770 1010Q814 1010 852 1005T925 989L933 968L596 450L523 378L300
0Q276 -7 245 -9T179 -12Q133 -12 91 -7T13 11L4 31L364 590L443 661L648 998Z" />
<glyph unicode="y" horiz-adv-x="994" d="M246 -438Q186 -438 115 -425T3 -397Q-2 -344 16 -277T66 -174Q98 -184 147 -194T246 -205Q297 -205 335 -186T400 -130T442 -43L450 -13Q369 -13 315 14T242 112L9 974Q57 996 110 1006T202 1016Q259 1016 296 988T353
882L447 497Q456 464 464 415T479 317T491 235Q493 221 508 221L682 997Q708 1004 742 1007T805 1010Q846 1010 888 1006T972 987L984 967L737 27Q701 -109 646 -214T497 -378T246 -438Z" />
<glyph unicode="z" horiz-adv-x="899" d="M330 584Q366 631 412 683T492 773L486 782Q449 778 405 775T318 769T237 767H83Q78 790 75 815T72 862Q72 897 77 932T89 998H787Q806 942 816 901T827 827Q827 806 821 781T798 735L553 412Q519 368 480 320T402 232L408
222Q451 228 490 231T566 234H635Q681 234 730 240T822 267Q839 227 846 199T854 138Q854 76 817 38T687 0H84Q65 56 57 90T49 152Q49 178 59 207T93 268L330 584Z" />
<glyph unicode="{" horiz-adv-x="797" d="M715 -461L581 -439Q441 -417 350 -329T259 -83V237Q259 315 211 379T89 456Q75 493 75 555T89 655Q163 668 211 731T259 873V1194Q259 1351 350 1439T581 1550L715 1571Q736 1548 751 1510T773 1433T774 1370L653 1329Q622
1319 597 1284T572 1192V877Q572 775 524 687T395 563V547Q476 513 524 425T572 233V-81Q572 -139 597 -173T653 -218L774 -259Q780 -282 774 -321T752 -399T715 -461Z" />
<glyph unicode="|" horiz-adv-x="540" d="M125 1546Q159 1555 203 1557T273 1560Q301 1560 340 1558T415 1546V-284Q379 -292 340 -294T273 -297Q248 -297 204 -295T125 -284V1546Z" />
<glyph unicode="}" horiz-adv-x="797" d="M82 -461Q61 -438 46 -399T24 -321T23 -259L144 -218Q175 -208 200 -174T225 -81V233Q225 336 273 424T402 547V563Q322 598 274 686T225 877V1192Q225 1249 200 1284T144 1329L23 1370Q18 1394 24 1432T45 1509T82 1571L216
1550Q356 1528 447 1440T539 1194V873Q539 795 586 732T708 655Q722 618 722 556T708 456Q634 443 587 379T539 237V-83Q539 -240 448 -328T216 -439L82 -461Z" />
<glyph unicode="~" horiz-adv-x="1265" d="M770 694Q795 684 817 678T858 672Q889 672 916 686T968 726L1018 778Q1066 774 1123 743T1203 658L1163 591Q1108 498 1027 442T842 385Q800 385 755 395T663 427L495 502Q471 513 449 519T407 525Q376 525 349 511T298
471L247 418Q200 423 143 454T62 539L103 606Q159 699 240 755T424 811Q466 811 511 801T603 770L770 694Z" />
<glyph unicode="&#xa0;" horiz-adv-x="440" />
<glyph unicode="&#xa1;" horiz-adv-x="616" d="M427 594Q444 401 463 209T482 -179V-352Q439 -364 374 -368T243 -369T134 -352V-175Q134 18 155 209T191 594Q223 603 254 605T308 608Q329 608 363 606T427 594ZM308 734Q268 734 229 742T161 767Q150 786 144
822T138 886Q138 913 144 948T161 1002Q189 1018 228 1026T308 1035Q349 1035 389 1027T457 1002Q468 983 473 948T478 886Q478 858 473 822T457 767Q429 751 389 743T308 734Z" />
<glyph unicode="&#xa2;" horiz-adv-x="1080" d="M561 -55Q533 -55 502 -52T449 -44V282H673V-44Q651 -49 621 -52T561 -55ZM455 975V1310Q477 1315 508 1318T567 1321Q596 1321 626 1318T679 1310V975H455ZM574 131Q436 131 345 176T200 294T125 456T102 631Q102
813 171 923T349 1084T577 1135Q664 1135 737 1111T864 1044T948 944T978 820Q978 731 935 691T812 651Q788 651 759 654T706 665Q706 726 694 780T651 869T569 904Q486 904 450 835T413 631Q413 490 472 434T623 378Q679 378 742 405T851 472Q889 446 925 397T974
301Q934 251 867 213T723 153T574 131Z" />
<glyph unicode="&#xa3;" horiz-adv-x="1080" d="M165 0Q141 68 134 103T127 164Q127 205 148 235T195 293L219 319Q251 354 275 398T300 503Q300 586 278 649T234 775T211 919Q211 1027 264 1112T412 1248T634 1298Q734 1298 823 1261T983 1162Q971 1107 931 1050T841
964Q804 995 758 1019T663 1044Q609 1044 563 1012T516 891Q516 839 531 785T562 669T578 529Q578 455 541 381T438 244L443 239Q524 250 618 252T817 254H996Q996 110 947 55T789 0H165ZM138 508Q127 552 127 618Q127 684 138 728L421 726L836 728Q842 707 845
677T848 619Q848 591 845 560T836 508L421 510L138 508Z" />
<glyph unicode="&#xa4;" horiz-adv-x="1080" d="M537 228Q418 228 326 278T183 419T131 632Q131 756 182 847T326 988T537 1038Q658 1038 749 988T893 847T945 632Q945 510 893 419T750 278T537 228ZM537 439Q614 439 645 495T676 632Q676 715 645 771T537 827Q461
827 431 771T400 632Q400 553 430 496T537 439ZM194 125Q149 151 108 194T37 283L262 535L448 348L194 125ZM262 726L37 978Q61 1024 105 1066T194 1135L444 912L262 726ZM820 729L634 916L886 1141Q931 1114 973 1071T1043 983L820 729ZM880 123L628 348L815 531L1038
281Q1012 236 970 194T880 123Z" />
<glyph unicode="&#xa5;" horiz-adv-x="1080" d="M388 441L52 1238Q93 1258 147 1274T251 1291Q304 1291 336 1265T389 1180L453 1004Q472 951 494 881T538 725H549Q572 802 598 876T644 1004L745 1268Q775 1277 802 1279T857 1282Q893 1282 933 1278T1018 1263L1028
1239L679 441H388ZM537 -11Q510 -11 465 -9T381 0V531H686V0Q646 -7 606 -9T537 -11ZM114 277Q109 299 106 324T102 379Q102 407 105 432T114 479H954Q967 432 967 379Q967 326 954 277H114ZM114 599Q109 621 106 647T102 702Q102 731 105 757T114 805H394V599H114ZM674
599V805H954Q959 788 963 762T967 702Q967 674 964 648T954 599H674Z" />
<glyph unicode="&#xa6;" horiz-adv-x="528" d="M121 490Q155 499 198 501T267 504Q295 504 333 502T407 490V-284Q372 -292 334 -294T267 -297Q242 -297 199 -295T121 -284V490ZM121 1546Q155 1555 198 1557T267 1560Q295 1560 333 1558T407 1546V772Q372 764
334 762T267 759Q242 759 199 761T121 772V1546Z" />
<glyph unicode="&#xa7;" horiz-adv-x="1000" d="M512 403Q550 417 582 441T633 497T652 566Q652 603 628 633T561 687T462 734L374 769Q300 799 242 841T151 941T118 1074Q118 1162 166 1234T303 1351T511 1395Q603 1395 692 1374T847 1322Q852 1267 826 1203T761
1111Q700 1136 641 1152T525 1169Q482 1169 454 1151T425 1100Q425 1072 445 1054T506 1020L620 972Q711 935 785 889T904 778T949 622Q949 541 902 470T777 345T605 257L512 403ZM489 761Q452 748 420 723T369 666T349 598Q349 561 371 532T437 479T540 430L628
395Q702 366 760 323T851 221T884 86Q884 -1 835 -74T696 -191T479 -235Q385 -235 289 -213T122 -151Q118 -96 144 -32T208 60Q263 35 334 13T476 -9Q520 -9 548 10T576 60Q576 88 556 108T496 144L382 192Q292 230 217 276T97 386T52 542Q52 623 99 694T224 819T396
907L489 761Z" />
<glyph unicode="&#xa8;" horiz-adv-x="796" d="M49 1252Q49 1272 53 1300T67 1352Q93 1368 128 1376T196 1384Q230 1384 265 1376T326 1352Q335 1328 339 1300T343 1252Q343 1232 339 1204T326 1152Q300 1136 265 1128T196 1120Q163 1120 128 1128T67 1152Q57
1175 53 1203T49 1252ZM453 1252Q453 1272 457 1300T470 1352Q496 1368 531 1376T600 1384Q633 1384 668 1376T729 1352Q739 1328 743 1300T747 1252Q747 1232 743 1204T729 1152Q704 1136 669 1128T600 1120Q566 1120 531 1128T470 1152Q461 1175 457 1203T453
1252Z" />
<glyph unicode="&#xa9;" horiz-adv-x="1578" d="M63 682Q63 836 118 968T271 1199T502 1353T788 1409Q942 1409 1074 1354T1305 1199T1459 968T1515 682Q1515 528 1460 396T1305 166T1074 12T788 -43Q634 -43 502 12T272 165T118 396T63 682ZM296 682Q296 573
332 479T433 313T589 202T788 162Q897 162 987 202T1144 313T1246 478T1282 682Q1282 791 1246 885T1144 1051T988 1163T788 1204Q679 1204 589 1164T434 1052T332 886T296 682ZM876 728Q876 771 869 810T843 874T784 899Q732 899 709 845T685 684Q685 583 723
533T833 482Q869 482 912 501T996 544Q1025 525 1049 485T1078 408Q1033 361 950 329T793 297Q658 297 582 354T476 501T445 684Q445 827 498 911T631 1033T794 1071Q879 1071 946 1041T1051 958T1090 839Q1090 777 1058 747T961 717Q941 717 916 720T876 728Z"
/>
<glyph unicode="&#xaa;" horiz-adv-x="915" d="M78 690Q78 786 122 847T239 938T401 967Q437 967 492 964T596 956V794Q559 798 511 800T425 803Q376 803 352 777T328 705Q328 675 350 653T409 631Q454 631 507 668T595 762L636 606Q603 570 560 532T460 468T332
442Q252 442 195 477T108 568T78 690ZM840 589Q836 551 808 511T745 452Q640 454 577 524T513 719V1010Q513 1059 482 1080T416 1101Q358 1101 304 1088T181 1054Q153 1086 138 1131T119 1222Q201 1256 304 1275T490 1295Q560 1295 628 1269T740 1181T785 1018V701Q785
661 797 633T840 589Z" />
<glyph unicode="&#xab;" horiz-adv-x="1225" d="M995 51L590 421Q574 457 574 510T590 599L992 977Q1042 966 1093 917T1159 818L914 516L1167 208Q1158 176 1130 143T1065 84T995 51ZM717 51L312 421Q296 457 296 510T312 599L714 977Q764 966 815 917T881 818L636
516L889 208Q880 176 852 143T787 84T717 51Z" />
<glyph unicode="&#xac;" horiz-adv-x="1080" d="M105 773Q97 742 95 706T92 649Q92 630 94 593T105 524H567Q607 524 640 525T711 526L968 524V760L954 773H105ZM703 554Q704 516 703 478T701 400V289Q741 282 773 280T839 278Q873 278 905 280T968 289V667H701L703 554Z" />
<glyph unicode="&#xae;" horiz-adv-x="1203" d="M54 939Q54 1093 126 1217T323 1415T601 1488Q755 1488 879 1415T1076 1218T1149 939Q1149 785 1076 662T879 466T601 393Q447 393 323 465T127 661T54 939ZM234 939Q234 834 281 747T412 609T601 557Q707 557 790
608T921 747T969 939Q969 1045 921 1132T790 1271T601 1323Q495 1323 412 1271T282 1132T234 939ZM819 1058Q819 997 788 965T719 923Q744 913 759 892T785 850L806 807Q815 789 826 773T853 747Q836 722 805 707T743 691Q712 691 693 705T656 752L614 838Q604
856 595 864T561 872H476V989Q501 989 540 990T592 991Q627 991 640 1006T654 1041Q654 1060 641 1074T598 1088Q581 1088 573 1088T548 1088V701Q521 692 471 692Q422 692 393 701V1195L399 1199Q455 1201 510 1203T615 1205Q728 1205 773 1160T819 1058Z" />
<glyph unicode="&#xaf;" horiz-adv-x="796" d="M92 1143Q83 1173 80 1198T76 1255Q76 1284 79 1310T92 1367H706Q714 1336 717 1314T720 1258Q720 1225 717 1199T706 1143H92Z" />
<glyph unicode="&#xb0;" horiz-adv-x="800" d="M59 954Q59 1055 103 1131T224 1251T401 1295Q501 1295 577 1252T697 1132T741 954Q741 853 698 776T578 655T401 611Q302 611 225 654T103 775T59 954ZM275 954Q275 885 309 845T401 804Q457 804 491 844T525 954Q525
1022 491 1062T401 1103Q343 1103 309 1063T275 954Z" />
<glyph unicode="&#xb1;" horiz-adv-x="1080" d="M137 842Q130 809 128 787T125 732Q125 699 127 676T137 618H280Q319 618 351 619T421 620H659Q696 620 728 619T800 618H943Q951 653 953 676T955 732Q955 764 953 786T943 842H800Q761 842 729 841T659 840H421Q384
840 352 841T280 842H137ZM410 984Q410 944 411 908T412 834V628Q412 591 411 555T410 480V358Q443 351 476 349T541 347Q573 347 605 349T670 358V480Q670 518 669 554T668 628V834Q668 872 669 908T670 984V1122Q637 1130 605 1132T541 1134Q509 1134 476 1132T410
1122V984ZM137 0Q130 33 128 59T125 118Q125 151 127 175T137 233H943Q951 200 953 176T955 118Q955 86 953 60T943 0H137Z" />
<glyph unicode="&#xb2;" horiz-adv-x="840" d="M89 1286Q110 1388 192 1455T401 1522Q538 1522 622 1443T707 1241Q707 1162 676 1106T603 1013T534 956L457 902Q405 867 366 836T327 779V625H162Q114 683 97 716T80 780Q80 844 124 900T225 1000L353 1097Q388
1124 417 1155T447 1233Q447 1265 428 1285T377 1303Q341 1302 317 1273T285 1205Q255 1205 215 1216T139 1245T89 1286ZM732 850Q732 750 713 702T658 640T575 625H203L176 773Q232 799 296 816T440 841T620 850H732Z" />
<glyph unicode="&#xb3;" horiz-adv-x="840" d="M465 912Q465 955 436 980T362 1005Q346 1005 332 1003T304 996Q270 1011 240 1051T200 1130Q274 1147 337 1155T458 1164Q527 1164 588 1133T687 1045T725 910Q725 815 676 749T546 649T372 615Q283 615 208 642T83
712Q92 755 120 801T185 878Q220 853 261 835T352 817Q404 817 434 843T465 912ZM569 1191Q538 1167 473 1132T335 1079L200 1130L325 1237Q346 1254 368 1272T410 1303L405 1309Q378 1305 328 1302T255 1299H127Q120 1325 118 1346T115 1387Q115 1412 120 1443T138
1508H636Q655 1477 672 1435T690 1354Q690 1314 673 1289T623 1237L569 1191Z" />
<glyph unicode="&#xb4;" horiz-adv-x="796" d="M459 1539Q515 1522 572 1471T647 1359L277 1081Q238 1093 202 1126T149 1202L459 1539Z" />
<glyph unicode="&#xb5;" horiz-adv-x="1104" d="M231 480V351Q231 259 266 175T363 36T508 -18Q602 -18 665 37T756 177L730 420Q696 338 652 291T544 244Q483 244 456 285T429 390V480H231ZM981 998Q947 1004 905 1007T824 1010Q784 1010 743 1007T668 998V290Q668
166 738 76T941 -16Q970 7 999 53T1037 141Q1012 159 997 199T981 287V998ZM429 998Q395 1004 356 1007T277 1010Q237 1010 195 1007T120 998V-172Q120 -207 112 -269T71 -375Q111 -405 157 -421T260 -438Q357 -438 383 -378T409 -226V165H429V998Z" />
<glyph unicode="&#xb6;" horiz-adv-x="1501" d="M551 127Q551 57 535 10T480 -61T371 -85Q322 -85 270 -73T173 -45Q139 -91 123 -159T108 -269Q157 -287 235 -303T402 -319Q573 -319 674 -262T819 -92T864 191V1354L851 1368Q766 1371 694 1374T546 1378Q404
1378 293 1333T117 1189T52 928Q52 773 116 672T288 522T527 472H551V127ZM986 1352L1000 1366H1303V-261Q1263 -269 1222 -271T1148 -274Q1119 -274 1072 -272T986 -261V1352ZM1146 1366H1465Q1475 1337 1478 1285T1478 1180T1465 1098H1411Q1369 1098 1328 1101T1246
1104H1146V1366Z" />
<glyph unicode="&#xb7;" horiz-adv-x="659" d="M160 530Q160 548 165 586T182 651Q210 668 251 678T330 688Q366 688 407 678T477 651Q489 624 494 586T499 530Q499 512 494 474T477 409Q449 391 408 382T330 373Q292 373 251 382T182 409Q170 436 165 474T160 530Z" />
<glyph unicode="&#xb8;" horiz-adv-x="796" d="M239 -155Q250 -123 275 -72T319 11H482Q470 -2 457 -25T436 -63Q518 -70 570 -120T623 -241Q623 -340 546 -402T345 -464Q296 -464 248 -450T173 -417Q175 -382 188 -345T224 -283Q241 -293 265 -301T317 -309Q352
-309 370 -294T389 -252Q389 -226 371 -209T324 -192Q312 -192 302 -194T283 -200Q270 -194 257 -181T239 -155Z" />
<glyph unicode="&#xb9;" horiz-adv-x="840" d="M586 744H337V1008Q337 1030 339 1074T345 1170T347 1260L345 1502Q377 1508 407 1511T466 1514Q496 1514 523 1511T586 1502V744ZM237 834Q257 834 289 834T337 834H586Q604 834 640 834T695 834H745Q752 810 755
783T758 729Q758 705 756 678T745 625H140Q134 651 132 677T129 729Q129 752 131 781T140 834H237ZM70 1213Q183 1282 242 1346T345 1502L427 1355Q397 1237 345 1172T185 1056Q142 1077 110 1124T70 1213Z" />
<glyph unicode="&#xba;" horiz-adv-x="912" d="M829 869Q829 772 803 685T708 531Q662 485 596 463T456 440Q380 440 315 462T204 531Q137 598 110 685T83 869Q83 966 110 1052T204 1205Q251 1251 315 1273T456 1295Q530 1295 596 1273T708 1205Q775 1138 802
1052T829 869ZM340 869Q340 800 351 748T387 666T456 636Q500 636 525 665T561 747T572 869Q572 938 561 990T525 1071T456 1100Q413 1100 388 1071T351 990T340 869Z" />
<glyph unicode="&#xbb;" horiz-adv-x="1225" d="M230 977L635 607Q651 571 651 518T635 429L233 51Q183 62 132 111T66 210L311 512L58 820Q68 853 96 886T160 944T230 977ZM764 977L1169 607Q1185 571 1185 518T1169 429L767 51Q717 62 666 111T600 210L845 512L592
820Q602 853 630 886T694 944T764 977Z" />
<glyph unicode="&#xbc;" horiz-adv-x="2112" d="M586 602H337V866Q337 888 339 932T345 1028T347 1118L345 1360Q377 1366 407 1369T466 1372Q496 1372 523 1369T586 1360V602ZM237 692Q257 692 289 692T337 692H586Q604 692 640 692T695 692H745Q752 668 755
641T758 587Q758 563 756 536T745 483H140Q134 509 132 535T129 587Q129 610 131 639T140 692H237ZM70 1071Q183 1140 242 1204T345 1360L427 1213Q397 1095 345 1030T185 914Q142 935 110 982T70 1071ZM1349 1366Q1391 1376 1452 1378T1569 1377T1649 1366L893
0Q851 -9 790 -11T673 -11T592 0L1349 1366ZM1393 142Q1371 180 1355 222T1338 296Q1338 319 1348 349T1365 393L1586 895Q1644 901 1715 886T1826 842L1727 625Q1713 595 1688 542T1634 435T1578 346L1582 342Q1612 346 1650 347T1721 349T1765 350H1936Q1952
350 1970 351T2007 352H2038Q2042 333 2044 309T2046 259Q2046 225 2042 195T2031 142H1998Q1985 142 1966 143T1935 144H1704Q1685 144 1655 143T1597 142H1393ZM1702 45Q1702 76 1703 98T1704 144V304Q1704 317 1703 335T1702 366V408Q1702 488 1746 540T1871
593H1927L1937 584V471Q1937 439 1936 409T1935 350V144Q1935 120 1936 98T1937 45V3Q1910 -3 1879 -6T1819 -9Q1790 -9 1760 -6T1702 3V45Z" />
<glyph unicode="&#xbd;" horiz-adv-x="2161" d="M586 602H337V866Q337 888 339 932T345 1028T347 1118L345 1360Q377 1366 407 1369T466 1372Q496 1372 523 1369T586 1360V602ZM237 692Q257 692 289 692T337 692H586Q604 692 640 692T695 692H745Q752 668 755
641T758 587Q758 563 756 536T745 483H140Q134 509 132 535T129 587Q129 610 131 639T140 692H237ZM70 1071Q183 1140 242 1204T345 1360L427 1213Q397 1095 345 1030T185 914Q142 935 110 982T70 1071ZM1349 1366Q1391 1376 1452 1378T1569 1377T1649 1366L893
0Q851 -9 790 -11T673 -11T592 0L1349 1366ZM1410 661Q1431 763 1513 830T1722 897Q1859 897 1943 818T2028 616Q2028 537 1997 481T1924 388T1855 331L1778 277Q1726 242 1687 211T1648 154V0H1483Q1435 58 1418 91T1401 155Q1401 219 1445 275T1546 375L1674
472Q1709 499 1738 530T1768 608Q1768 640 1749 660T1698 678Q1662 677 1638 648T1606 580Q1576 580 1536 591T1460 620T1410 661ZM2053 225Q2053 125 2034 77T1979 15T1896 0H1524L1497 148Q1553 174 1617 191T1761 216T1941 225H2053Z" />
<glyph unicode="&#xbe;" horiz-adv-x="2077" d="M465 770Q465 813 436 838T362 863Q346 863 332 861T304 854Q270 869 240 909T200 988Q274 1005 337 1013T458 1022Q527 1022 588 991T687 903T725 768Q725 673 676 607T546 507T372 473Q283 473 208 500T83 570Q92
613 120 659T185 736Q220 711 261 693T352 675Q404 675 434 701T465 770ZM569 1049Q538 1025 473 990T335 937L200 988L325 1095Q346 1112 368 1130T410 1161L405 1167Q378 1163 328 1160T255 1157H127Q120 1183 118 1204T115 1245Q115 1270 120 1301T138 1366H636Q655
1335 672 1293T690 1212Q690 1172 673 1147T623 1095L569 1049ZM1309 1366Q1351 1376 1412 1378T1529 1377T1609 1366L853 0Q811 -9 750 -11T633 -11T552 0L1309 1366ZM1358 142Q1336 180 1320 222T1303 296Q1303 319 1313 349T1330 393L1551 895Q1609 901 1680
886T1791 842L1692 625Q1678 595 1653 542T1599 435T1543 346L1547 342Q1577 346 1615 347T1686 349T1730 350H1901Q1917 350 1935 351T1972 352H2003Q2007 333 2009 309T2011 259Q2011 225 2007 195T1996 142H1963Q1950 142 1931 143T1900 144H1669Q1650 144 1620
143T1562 142H1358ZM1667 45Q1667 76 1668 98T1669 144V304Q1669 317 1668 335T1667 366V408Q1667 488 1711 540T1836 593H1892L1902 584V471Q1902 439 1901 409T1900 350V144Q1900 120 1901 98T1902 45V3Q1875 -3 1844 -6T1784 -9Q1755 -9 1725 -6T1667 3V45Z"
/>
<glyph unicode="&#xbf;" horiz-adv-x="841" d="M846 -290Q763 -340 658 -373T435 -406Q231 -406 126 -303T21 -42Q21 108 95 202T282 355L403 418L423 571Q450 580 479 583T537 587Q565 587 597 584T658 571L675 273L650 242L540 193Q458 155 403 108T348 -7Q348
-66 387 -102T505 -138Q566 -138 624 -117T734 -68Q778 -101 810 -166T846 -290ZM537 719Q497 719 458 727T390 752Q379 771 373 806T367 870Q367 898 373 933T390 987Q418 1003 457 1011T537 1020Q626 1020 686 987Q697 968 702 933T708 870Q708 842 703 807T686
752Q658 736 618 728T537 719Z" />
<glyph unicode="&#xc0;" horiz-adv-x="1276" d="M459 1366Q497 1372 550 1374T644 1377Q682 1377 736 1375T829 1364L1259 21Q1226 2 1174 -7T1076 -17Q1000 -17 957 18T885 156L742 663Q719 747 689 860T632 1074H620Q610 1019 593 951T558 816T523 693L319 -2Q289
-9 255 -11T183 -13Q147 -13 102 -8T29 7L17 25L459 1366ZM483 286Q469 286 451 286T414 287T381 288H213L310 537H458Q472 537 490 537T526 538T558 539H704Q719 539 736 539T772 538T805 537H958L1039 288H871Q857 288 838 288T801 287T768 286H483ZM464 1878Q440
1859 413 1821T366 1736T343 1643L824 1454Q862 1476 883 1518T912 1604L464 1878Z" />
<glyph unicode="&#xc1;" horiz-adv-x="1276" d="M459 1366Q497 1372 550 1374T644 1377Q682 1377 736 1375T829 1364L1259 21Q1226 2 1174 -7T1076 -17Q1000 -17 957 18T885 156L742 663Q719 747 689 860T632 1074H620Q610 1019 593 951T558 816T523 693L319 -2Q289
-9 255 -11T183 -13Q147 -13 102 -8T29 7L17 25L459 1366ZM483 286Q469 286 451 286T414 287T381 288H213L310 537H458Q472 537 490 537T526 538T558 539H704Q719 539 736 539T772 538T805 537H958L1039 288H871Q857 288 838 288T801 287T768 286H483ZM843 1878Q867
1859 894 1821T941 1736T964 1643L483 1454Q450 1472 425 1518T395 1604L843 1878Z" />
<glyph unicode="&#xc2;" horiz-adv-x="1276" d="M459 1366Q497 1372 550 1374T644 1377Q682 1377 736 1375T829 1364L1259 21Q1226 2 1174 -7T1076 -17Q1000 -17 957 18T885 156L742 663Q719 747 689 860T632 1074H620Q610 1019 593 951T558 816T523 693L319 -2Q289
-9 255 -11T183 -13Q147 -13 102 -8T29 7L17 25L459 1366ZM483 286Q469 286 451 286T414 287T381 288H213L310 537H458Q472 537 490 537T526 538T558 539H704Q719 539 736 539T772 538T805 537H958L1039 288H871Q857 288 838 288T801 287T768 286H483ZM771 1820L998
1599Q984 1552 945 1517T875 1471L640 1619L406 1471Q375 1482 336 1517T282 1599L510 1820Q537 1825 571 1828T640 1832Q675 1832 709 1829T771 1820Z" />
<glyph unicode="&#xc3;" horiz-adv-x="1276" d="M459 1366Q497 1372 550 1374T644 1377Q682 1377 736 1375T829 1364L1259 21Q1226 2 1174 -7T1076 -17Q1000 -17 957 18T885 156L742 663Q719 747 689 860T632 1074H620Q610 1019 593 951T558 816T523 693L319 -2Q289
-9 255 -11T183 -13Q147 -13 102 -8T29 7L17 25L459 1366ZM483 286Q469 286 451 286T414 287T381 288H213L310 537H458Q472 537 490 537T526 538T558 539H704Q719 539 736 539T772 538T805 537H958L1039 288H871Q857 288 838 288T801 287T768 286H483ZM552 1563Q539
1570 523 1575T490 1581Q473 1581 454 1570T417 1532L400 1508Q356 1508 309 1534T244 1601L261 1639Q297 1716 360 1765T509 1815Q545 1815 580 1805T643 1780L735 1735Q749 1728 765 1723T798 1717Q815 1717 834 1727T871 1765L888 1789Q932 1789 980 1763T1044
1696L1027 1659Q991 1582 928 1532T779 1482Q743 1482 707 1493T645 1517L552 1563Z" />
<glyph unicode="&#xc4;" horiz-adv-x="1276" d="M459 1366Q497 1372 550 1374T644 1377Q682 1377 736 1375T829 1364L1259 21Q1226 2 1174 -7T1076 -17Q1000 -17 957 18T885 156L742 663Q719 747 689 860T632 1074H620Q610 1019 593 951T558 816T523 693L319 -2Q289
-9 255 -11T183 -13Q147 -13 102 -8T29 7L17 25L459 1366ZM483 286Q469 286 451 286T414 287T381 288H213L310 537H458Q472 537 490 537T526 538T558 539H704Q719 539 736 539T772 538T805 537H958L1039 288H871Q857 288 838 288T801 287T768 286H483ZM874 1484Q841
1484 806 1492T744 1517Q734 1541 730 1570T726 1619Q726 1639 730 1668T744 1721Q770 1738 805 1746T874 1754Q907 1754 942 1746T1004 1721Q1014 1697 1018 1668T1022 1619Q1022 1600 1018 1571T1004 1517Q978 1501 943 1493T874 1484ZM414 1484Q381 1484 345
1492T283 1517Q274 1541 270 1570T266 1619Q266 1639 270 1668T283 1721Q309 1738 345 1746T414 1754Q448 1754 483 1746T545 1721Q555 1697 558 1668T562 1619Q562 1600 559 1571T545 1517Q519 1501 484 1493T414 1484Z" />
<glyph unicode="&#xc5;" horiz-adv-x="1276" d="M463 1381H824L1259 21Q1226 2 1174 -7T1076 -17Q1000 -17 957 18T885 156L742 663Q719 747 689 860T632 1074H620Q610 1019 593 951T558 816T523 693L319 -2Q289 -9 255 -11T183 -13Q147 -13 102 -8T29 7L17 25L463
1381ZM483 286Q469 286 451 286T414 287T381 288H213L310 537H458Q472 537 490 537T526 538T558 539H704Q719 539 736 539T772 538T805 537H958L1039 288H871Q857 288 838 288T801 287T768 286H483ZM361 1576Q361 1683 438 1757T644 1832Q772 1832 849 1758T926
1576Q926 1470 849 1395T644 1320Q515 1320 438 1395T361 1576ZM545 1576Q545 1533 572 1504T644 1475Q689 1475 715 1504T742 1576Q742 1619 716 1648T644 1677Q599 1677 572 1648T545 1576Z" />
<glyph unicode="&#xc6;" horiz-adv-x="1773" d="M600 1339Q635 1355 691 1360T793 1366H985L783 1074H771Q739 985 699 882T621 691L332 0Q296 -8 259 -10T184 -12Q144 -12 97 -7T20 9L9 26L600 1339ZM533 286Q518 286 498 286T458 287T423 288H293L402 534H523Q546
534 573 535T623 536H708Q723 536 741 536T777 535T810 534H928V288H811Q797 288 779 288T743 287T710 286H533ZM779 1352L793 1366H1086V1103Q1086 1061 1087 1028T1088 954V407Q1088 369 1087 335T1086 260V-5H961Q875 -5 827 44T779 181V1352ZM1534 817Q1545
788 1549 751T1553 687Q1553 659 1549 623T1534 556H1223Q1199 556 1154 556T1062 558T983 560V813Q1015 814 1062 815T1154 816T1223 817H1534ZM1653 1366Q1661 1330 1662 1299T1664 1240Q1664 1213 1658 1174T1638 1098H1223Q1199 1098 1154 1098T1062 1100T983
1102V1366H1653ZM1703 262Q1703 111 1655 53T1493 -5H983V252Q1048 255 1104 258T1234 262H1703Z" />
<glyph unicode="&#xc7;" horiz-adv-x="1218" d="M866 822Q868 905 850 978T783 1097T645 1143Q517 1143 463 1023T408 676Q408 462 479 356T682 249Q786 249 869 293T1022 389Q1069 358 1114 299T1169 183Q1111 126 1026 78T837 1T623 -29Q466 -29 360 32T190
195T100 423T72 678Q72 930 152 1088T364 1322T657 1397Q812 1397 927 1342T1106 1193T1170 981Q1170 887 1122 846T987 805Q953 805 924 810T866 822ZM505 -155Q516 -123 541 -72T585 11H748Q736 -2 723 -25T702 -63Q784 -70 836 -120T889 -241Q889 -340 812 -402T611
-464Q562 -464 514 -450T439 -417Q441 -382 454 -345T490 -283Q507 -293 531 -301T583 -309Q618 -309 636 -294T655 -252Q655 -226 637 -209T590 -192Q578 -192 568 -194T549 -200Q536 -194 523 -181T505 -155Z" />
<glyph unicode="&#xc8;" horiz-adv-x="1146" d="M150 1352L164 1366H465V1103Q465 1061 466 1028T467 954V404Q467 365 466 333T465 260V-5H334Q248 -5 199 44T150 181V1352ZM907 817Q918 788 922 751T926 687Q926 659 922 623T907 556H602Q577 556 531 556T437
558T356 560V813Q388 814 436 815T531 816T602 817H907ZM1026 1366Q1034 1330 1035 1299T1037 1240Q1037 1213 1031 1174T1011 1098H602Q577 1098 531 1098T437 1100T356 1102V1366H1026ZM1076 262Q1076 130 1035 63T866 -5H356V252Q421 255 480 258T613 262H1076ZM418
1878Q394 1859 367 1821T320 1736T297 1643L778 1454Q816 1476 837 1518T866 1604L418 1878Z" />
<glyph unicode="&#xc9;" horiz-adv-x="1146" d="M150 1352L164 1366H465V1103Q465 1061 466 1028T467 954V404Q467 365 466 333T465 260V-5H334Q248 -5 199 44T150 181V1352ZM907 817Q918 788 922 751T926 687Q926 659 922 623T907 556H602Q577 556 531 556T437
558T356 560V813Q388 814 436 815T531 816T602 817H907ZM1026 1366Q1034 1330 1035 1299T1037 1240Q1037 1213 1031 1174T1011 1098H602Q577 1098 531 1098T437 1100T356 1102V1366H1026ZM1076 262Q1076 130 1035 63T866 -5H356V252Q421 255 480 258T613 262H1076ZM797
1878Q821 1859 848 1821T895 1736T918 1643L437 1454Q404 1472 379 1518T349 1604L797 1878Z" />
<glyph unicode="&#xca;" horiz-adv-x="1146" d="M150 1352L164 1366H465V1103Q465 1061 466 1028T467 954V404Q467 365 466 333T465 260V-5H334Q248 -5 199 44T150 181V1352ZM907 817Q918 788 922 751T926 687Q926 659 922 623T907 556H602Q577 556 531 556T437
558T356 560V813Q388 814 436 815T531 816T602 817H907ZM1026 1366Q1034 1330 1035 1299T1037 1240Q1037 1213 1031 1174T1011 1098H602Q577 1098 531 1098T437 1100T356 1102V1366H1026ZM1076 262Q1076 130 1035 63T866 -5H356V252Q421 255 480 258T613 262H1076ZM725
1820L952 1599Q938 1552 899 1517T829 1471L594 1619L360 1471Q329 1482 290 1517T236 1599L464 1820Q491 1825 525 1828T594 1832Q629 1832 663 1829T725 1820Z" />
<glyph unicode="&#xcb;" horiz-adv-x="1146" d="M150 1352L164 1366H465V1103Q465 1061 466 1028T467 954V404Q467 365 466 333T465 260V-5H334Q248 -5 199 44T150 181V1352ZM907 817Q918 788 922 751T926 687Q926 659 922 623T907 556H602Q577 556 531 556T437
558T356 560V813Q388 814 436 815T531 816T602 817H907ZM1026 1366Q1034 1330 1035 1299T1037 1240Q1037 1213 1031 1174T1011 1098H602Q577 1098 531 1098T437 1100T356 1102V1366H1026ZM1076 262Q1076 130 1035 63T866 -5H356V252Q421 255 480 258T613 262H1076ZM828
1484Q795 1484 760 1492T698 1517Q688 1541 684 1570T680 1619Q680 1639 684 1668T698 1721Q724 1738 759 1746T828 1754Q861 1754 896 1746T958 1721Q968 1697 972 1668T976 1619Q976 1600 972 1571T958 1517Q932 1501 897 1493T828 1484ZM368 1484Q335 1484 299
1492T237 1517Q228 1541 224 1570T220 1619Q220 1639 224 1668T237 1721Q263 1738 299 1746T368 1754Q402 1754 437 1746T499 1721Q509 1697 512 1668T516 1619Q516 1600 513 1571T499 1517Q473 1501 438 1493T368 1484Z" />
<glyph unicode="&#xcc;" horiz-adv-x="630" d="M155 1366Q193 1373 239 1375T315 1377Q347 1377 391 1375T475 1366V0Q435 -7 391 -9T315 -11Q286 -11 240 -9T155 0V1366ZM135 1880Q111 1861 84 1823T37 1738T14 1645L495 1456Q533 1478 554 1520T583 1606L135 1880Z" />
<glyph unicode="&#xcd;" horiz-adv-x="630" d="M155 1366Q193 1373 239 1375T315 1377Q347 1377 391 1375T475 1366V0Q435 -7 391 -9T315 -11Q286 -11 240 -9T155 0V1366ZM514 1880Q538 1861 565 1823T612 1738T635 1645L154 1456Q121 1474 96 1520T66 1606L514 1880Z" />
<glyph unicode="&#xce;" horiz-adv-x="630" d="M155 1366Q193 1373 239 1375T315 1377Q347 1377 391 1375T475 1366V0Q435 -7 391 -9T315 -11Q286 -11 240 -9T155 0V1366ZM442 1822L669 1601Q655 1554 616 1519T546 1473L311 1621L77 1473Q46 1484 7 1519T-47
1601L181 1822Q208 1827 242 1830T311 1834Q346 1834 380 1831T442 1822Z" />
<glyph unicode="&#xcf;" horiz-adv-x="630" d="M155 1366Q193 1373 239 1375T315 1377Q347 1377 391 1375T475 1366V0Q435 -7 391 -9T315 -11Q286 -11 240 -9T155 0V1366ZM545 1486Q512 1486 477 1494T415 1519Q405 1543 401 1572T397 1621Q397 1641 401 1670T415
1723Q441 1740 476 1748T545 1756Q578 1756 613 1748T675 1723Q685 1699 689 1670T693 1621Q693 1602 689 1573T675 1519Q649 1503 614 1495T545 1486ZM85 1486Q52 1486 16 1494T-46 1519Q-55 1543 -59 1572T-63 1621Q-63 1641 -59 1670T-46 1723Q-20 1740 16 1748T85
1756Q119 1756 154 1748T216 1723Q226 1699 229 1670T233 1621Q233 1602 230 1573T216 1519Q190 1503 155 1495T85 1486Z" />
<glyph unicode="&#xd0;" horiz-adv-x="1365" d="M1291 684Q1291 567 1275 459T1210 257T1067 89Q1021 53 956 31T824 -1T701 -12Q615 -12 532 -11T366 -8T196 -4L182 10V1356L196 1370Q283 1373 366 1374T532 1376T701 1377Q756 1377 823 1367T956 1335T1067 1277Q1161
1203 1209 1109T1274 908T1291 684ZM962 684Q962 760 953 838T917 982T839 1088T701 1129Q649 1129 598 1129T494 1131V236Q547 237 598 237T701 237Q787 237 838 277T917 384T953 529T962 684ZM48 564Q39 594 37 626T34 690Q34 719 36 755T48 822H748Q755 791
758 759T761 694Q761 660 758 627T748 564H48Z" />
<glyph unicode="&#xd1;" horiz-adv-x="1391" d="M152 1361Q190 1369 250 1373T341 1377Q372 1377 423 1375T527 1366L446 1003L425 995Q433 910 438 803T447 588T450 398V0Q411 -7 373 -9T305 -11Q276 -11 233 -9T152 0V1361ZM545 716Q512 793 483 867T433 999L285
1170L527 1366L835 652Q873 564 905 484T960 348L1122 173L861 0L545 716ZM1239 1366V5Q1214 0 1177 -4T1104 -9T1047 -11Q1016 -11 965 -9T861 0L945 345L968 352Q960 445 954 556T946 770T943 942V1186Q943 1293 986 1336T1122 1379H1225L1239 1366ZM611 1563Q598
1570 582 1575T549 1581Q532 1581 513 1570T476 1532L459 1508Q415 1508 368 1534T303 1601L320 1639Q356 1716 419 1765T568 1815Q604 1815 639 1805T702 1780L794 1735Q808 1728 824 1723T857 1717Q874 1717 893 1727T930 1765L947 1789Q991 1789 1039 1763T1103
1696L1086 1659Q1050 1582 987 1532T838 1482Q802 1482 766 1493T704 1517L611 1563Z" />
<glyph unicode="&#xd2;" horiz-adv-x="1333" d="M406 684Q406 605 414 523T449 372T528 259T666 216Q753 216 804 259T882 371T917 523T926 684Q926 763 918 844T883 995T805 1107T666 1150Q580 1150 528 1108T450 996T415 845T406 684ZM72 684Q72 898 136 1058T332
1306T666 1395Q818 1395 930 1344T1115 1199T1225 974T1261 684Q1261 469 1196 309T1000 60T666 -29Q514 -29 402 22T217 167T108 393T72 684ZM486 1878Q462 1859 435 1821T388 1736T365 1643L846 1454Q884 1476 905 1518T934 1604L486 1878Z" />
<glyph unicode="&#xd3;" horiz-adv-x="1333" d="M406 684Q406 605 414 523T449 372T528 259T666 216Q753 216 804 259T882 371T917 523T926 684Q926 763 918 844T883 995T805 1107T666 1150Q580 1150 528 1108T450 996T415 845T406 684ZM72 684Q72 898 136 1058T332
1306T666 1395Q818 1395 930 1344T1115 1199T1225 974T1261 684Q1261 469 1196 309T1000 60T666 -29Q514 -29 402 22T217 167T108 393T72 684ZM865 1878Q889 1859 916 1821T963 1736T986 1643L505 1454Q472 1472 447 1518T417 1604L865 1878Z" />
<glyph unicode="&#xd4;" horiz-adv-x="1333" d="M406 684Q406 605 414 523T449 372T528 259T666 216Q753 216 804 259T882 371T917 523T926 684Q926 763 918 844T883 995T805 1107T666 1150Q580 1150 528 1108T450 996T415 845T406 684ZM72 684Q72 898 136 1058T332
1306T666 1395Q818 1395 930 1344T1115 1199T1225 974T1261 684Q1261 469 1196 309T1000 60T666 -29Q514 -29 402 22T217 167T108 393T72 684ZM793 1820L1020 1599Q1006 1552 967 1517T897 1471L662 1619L428 1471Q397 1482 358 1517T304 1599L532 1820Q559 1825
593 1828T662 1832Q697 1832 731 1829T793 1820Z" />
<glyph unicode="&#xd5;" horiz-adv-x="1333" d="M406 684Q406 605 414 523T449 372T528 259T666 216Q753 216 804 259T882 371T917 523T926 684Q926 763 918 844T883 995T805 1107T666 1150Q580 1150 528 1108T450 996T415 845T406 684ZM72 684Q72 898 136 1058T332
1306T666 1395Q818 1395 930 1344T1115 1199T1225 974T1261 684Q1261 469 1196 309T1000 60T666 -29Q514 -29 402 22T217 167T108 393T72 684ZM574 1563Q561 1570 545 1575T512 1581Q495 1581 476 1570T439 1532L422 1508Q378 1508 331 1534T266 1601L283 1639Q319
1716 382 1765T531 1815Q567 1815 602 1805T665 1780L757 1735Q771 1728 787 1723T820 1717Q837 1717 856 1727T893 1765L910 1789Q954 1789 1002 1763T1066 1696L1049 1659Q1013 1582 950 1532T801 1482Q765 1482 729 1493T667 1517L574 1563Z" />
<glyph unicode="&#xd6;" horiz-adv-x="1333" d="M406 684Q406 605 414 523T449 372T528 259T666 216Q753 216 804 259T882 371T917 523T926 684Q926 763 918 844T883 995T805 1107T666 1150Q580 1150 528 1108T450 996T415 845T406 684ZM72 684Q72 898 136 1058T332
1306T666 1395Q818 1395 930 1344T1115 1199T1225 974T1261 684Q1261 469 1196 309T1000 60T666 -29Q514 -29 402 22T217 167T108 393T72 684ZM896 1484Q863 1484 828 1492T766 1517Q756 1541 752 1570T748 1619Q748 1639 752 1668T766 1721Q792 1738 827 1746T896
1754Q929 1754 964 1746T1026 1721Q1036 1697 1040 1668T1044 1619Q1044 1600 1040 1571T1026 1517Q1000 1501 965 1493T896 1484ZM436 1484Q403 1484 367 1492T305 1517Q296 1541 292 1570T288 1619Q288 1639 292 1668T305 1721Q331 1738 367 1746T436 1754Q470
1754 505 1746T567 1721Q577 1697 580 1668T584 1619Q584 1600 581 1571T567 1517Q541 1501 506 1493T436 1484Z" />
<glyph unicode="&#xd7;" horiz-adv-x="1080" d="M274 725Q301 698 326 673T378 621L522 477Q548 451 573 426T625 373L772 224Q801 238 829 257T880 299Q926 345 955 405L806 554Q779 581 753 605T700 658L558 799Q531 827 507 852T455 905L306 1054Q277 1041
250 1022T200 979Q177 957 158 929T125 872L274 725ZM455 373Q482 400 506 425T558 477L700 619Q727 646 753 671T806 723L955 872Q927 929 878 978Q855 1001 828 1020T772 1052L625 903Q598 876 573 851T522 799L378 656Q352 630 327 605T274 552L125 405Q138
376 157 349T200 299Q223 277 250 257T306 223L455 373Z" />
<glyph unicode="&#xd8;" horiz-adv-x="1341" d="M871 1311L990 1518Q1043 1509 1098 1480T1186 1410L1045 1161L472 61L352 -146Q299 -138 244 -109T156 -39L298 210L871 1311ZM392 684Q392 604 403 520T443 365T527 251T670 207Q759 207 814 250T898 365T938
520T949 684Q949 764 939 847T899 1001T814 1115T670 1159Q582 1159 528 1116T444 1002T403 848T392 684ZM72 684Q72 895 137 1055T335 1305T670 1395Q874 1395 1006 1304T1204 1053T1269 684Q1269 473 1204 313T1007 62T670 -29Q517 -29 405 23T218 171T108 397T72
684Z" />
<glyph unicode="&#xd9;" horiz-adv-x="1347" d="M1215 504Q1215 335 1152 216T969 34T674 -29Q501 -29 380 34T196 216T132 504V1365L146 1379H263Q355 1379 404 1332T453 1177V501Q453 364 503 295T674 225Q795 225 845 294T895 501V1366Q935 1373 977 1375T1051
1377Q1080 1377 1128 1375T1215 1366V504ZM488 1878Q464 1859 437 1821T390 1736T367 1643L848 1454Q886 1476 907 1518T936 1604L488 1878Z" />
<glyph unicode="&#xda;" horiz-adv-x="1347" d="M1215 504Q1215 335 1152 216T969 34T674 -29Q501 -29 380 34T196 216T132 504V1365L146 1379H263Q355 1379 404 1332T453 1177V501Q453 364 503 295T674 225Q795 225 845 294T895 501V1366Q935 1373 977 1375T1051
1377Q1080 1377 1128 1375T1215 1366V504ZM867 1878Q891 1859 918 1821T965 1736T988 1643L507 1454Q474 1472 449 1518T419 1604L867 1878Z" />
<glyph unicode="&#xdb;" horiz-adv-x="1347" d="M1215 504Q1215 335 1152 216T969 34T674 -29Q501 -29 380 34T196 216T132 504V1365L146 1379H263Q355 1379 404 1332T453 1177V501Q453 364 503 295T674 225Q795 225 845 294T895 501V1366Q935 1373 977 1375T1051
1377Q1080 1377 1128 1375T1215 1366V504ZM795 1820L1022 1599Q1008 1552 969 1517T899 1471L664 1619L430 1471Q399 1482 360 1517T306 1599L534 1820Q561 1825 595 1828T664 1832Q699 1832 733 1829T795 1820Z" />
<glyph unicode="&#xdc;" horiz-adv-x="1347" d="M1215 504Q1215 335 1152 216T969 34T674 -29Q501 -29 380 34T196 216T132 504V1365L146 1379H263Q355 1379 404 1332T453 1177V501Q453 364 503 295T674 225Q795 225 845 294T895 501V1366Q935 1373 977 1375T1051
1377Q1080 1377 1128 1375T1215 1366V504ZM898 1484Q865 1484 830 1492T768 1517Q758 1541 754 1570T750 1619Q750 1639 754 1668T768 1721Q794 1738 829 1746T898 1754Q931 1754 966 1746T1028 1721Q1038 1697 1042 1668T1046 1619Q1046 1600 1042 1571T1028 1517Q1002
1501 967 1493T898 1484ZM438 1484Q405 1484 369 1492T307 1517Q298 1541 294 1570T290 1619Q290 1639 294 1668T307 1721Q333 1738 369 1746T438 1754Q472 1754 507 1746T569 1721Q579 1697 582 1668T586 1619Q586 1600 583 1571T569 1517Q543 1501 508 1493T438
1484Z" />
<glyph unicode="&#xdd;" horiz-adv-x="1085" d="M382 612H703V0Q663 -7 620 -9T544 -11Q515 -11 468 -9T382 0V612ZM790 1366Q823 1374 856 1376T920 1378Q961 1378 1003 1372T1077 1355L1090 1337L687 382H402L-5 1328Q36 1351 87 1366T190 1382Q258 1382 294
1353T359 1255L454 1016Q479 953 501 882T545 729H557Q570 780 585 831T619 932T655 1027L790 1366ZM748 1878Q772 1859 799 1821T846 1736T869 1643L388 1454Q355 1472 330 1518T300 1604L748 1878Z" />
<glyph unicode="&#xde;" horiz-adv-x="1182" d="M307 1172Q392 1175 469 1177T626 1180Q769 1180 880 1134T1056 989T1121 726Q1121 570 1057 469T881 320T626 271H307V507Q327 509 369 510T458 514T545 517T599 518Q680 518 722 550T779 630T794 726Q794 773
779 821T722 902T599 935Q579 935 526 936T413 938T307 939V1172ZM152 1366Q190 1373 236 1375T312 1377Q344 1377 388 1375T473 1366V0Q433 -7 389 -9T312 -11Q283 -11 237 -9T152 0V1366Z" />
<glyph unicode="&#xdf;" horiz-adv-x="1314" d="M343 953V725L19 719Q13 745 10 779T7 840Q7 866 10 898T19 957L343 953ZM191 998Q191 1131 251 1220T419 1355T672 1400Q820 1400 931 1349T1104 1205T1166 983Q1166 946 1158 906T1133 828L801 805Q824 840 836
885T848 980Q848 1028 829 1069T770 1135T674 1161Q586 1161 548 1109T509 966V0Q474 -6 431 -8T349 -11Q312 -11 269 -9T191 0V998ZM596 39Q598 89 621 153T680 253Q718 227 759 216T828 204Q876 204 906 226T936 287Q936 315 921 340T877 392L796 467Q758 503
730 538T687 610T672 691Q672 758 722 829T865 937L1133 828Q1067 814 1037 779T1006 712Q1006 691 1017 673T1048 635L1124 560Q1193 493 1229 425T1265 289Q1265 185 1215 114T1076 7T877 -29Q809 -29 733 -13T596 39Z" />
<glyph unicode="&#xe0;" horiz-adv-x="1026" d="M60 273Q60 394 116 470T262 584T456 621Q501 621 569 619T693 606V408Q650 418 590 419T489 421Q422 421 393 386T364 294Q364 254 388 228T456 201Q516 201 578 244T683 362L727 164Q688 118 638 74T521 0T364
-29Q261 -29 194 16T93 131T60 273ZM967 145Q959 103 930 55T872 -16Q784 -14 727 24T639 117T599 226V654Q599 716 568 748T468 781Q404 781 328 761T173 717Q140 755 122 815T98 934Q166 962 248 981T411 1011T556 1022Q644 1022 725 990T858 883T911 681V274Q911
231 925 198T967 145ZM396 1539Q341 1522 284 1471T208 1359L578 1081Q617 1093 653 1126T706 1202L396 1539Z" />
<glyph unicode="&#xe1;" horiz-adv-x="1026" d="M60 273Q60 394 116 470T262 584T456 621Q501 621 569 619T693 606V408Q650 418 590 419T489 421Q422 421 393 386T364 294Q364 254 388 228T456 201Q516 201 578 244T683 362L727 164Q688 118 638 74T521 0T364
-29Q261 -29 194 16T93 131T60 273ZM967 145Q959 103 930 55T872 -16Q784 -14 727 24T639 117T599 226V654Q599 716 568 748T468 781Q404 781 328 761T173 717Q140 755 122 815T98 934Q166 962 248 981T411 1011T556 1022Q644 1022 725 990T858 883T911 681V274Q911
231 925 198T967 145ZM624 1539Q680 1522 737 1471T812 1359L442 1081Q403 1093 367 1126T314 1202L624 1539Z" />
<glyph unicode="&#xe2;" horiz-adv-x="1026" d="M60 273Q60 394 116 470T262 584T456 621Q501 621 569 619T693 606V408Q650 418 590 419T489 421Q422 421 393 386T364 294Q364 254 388 228T456 201Q516 201 578 244T683 362L727 164Q688 118 638 74T521 0T364
-29Q261 -29 194 16T93 131T60 273ZM967 145Q959 103 930 55T872 -16Q784 -14 727 24T639 117T599 226V654Q599 716 568 748T468 781Q404 781 328 761T173 717Q140 755 122 815T98 934Q166 962 248 981T411 1011T556 1022Q644 1022 725 990T858 883T911 681V274Q911
231 925 198T967 145ZM638 1480L822 1229Q803 1182 761 1148T687 1103L505 1276L323 1103Q292 1114 250 1148T188 1229L371 1480Q399 1487 433 1491T505 1496Q542 1496 576 1492T638 1480Z" />
<glyph unicode="&#xe3;" horiz-adv-x="1026" d="M60 273Q60 394 116 470T262 584T456 621Q501 621 569 619T693 606V408Q650 418 590 419T489 421Q422 421 393 386T364 294Q364 254 388 228T456 201Q516 201 578 244T683 362L727 164Q688 118 638 74T521 0T364
-29Q261 -29 194 16T93 131T60 273ZM967 145Q959 103 930 55T872 -16Q784 -14 727 24T639 117T599 226V654Q599 716 568 748T468 781Q404 781 328 761T173 717Q140 755 122 815T98 934Q166 962 248 981T411 1011T556 1022Q644 1022 725 990T858 883T911 681V274Q911
231 925 198T967 145ZM626 1111Q588 1111 556 1122T498 1146L419 1187Q412 1190 396 1197T361 1205Q333 1205 316 1186T291 1157L274 1132Q232 1132 188 1158T128 1226L145 1264Q178 1342 237 1391T374 1440Q416 1440 450 1428T503 1405L582 1364Q588 1360 605
1353T640 1345Q668 1345 685 1364T710 1394L727 1418Q769 1418 812 1392T872 1324L856 1286Q823 1208 763 1160T626 1111Z" />
<glyph unicode="&#xe4;" horiz-adv-x="1026" d="M60 273Q60 394 116 470T262 584T456 621Q501 621 569 619T693 606V408Q650 418 590 419T489 421Q422 421 393 386T364 294Q364 254 388 228T456 201Q516 201 578 244T683 362L727 164Q688 118 638 74T521 0T364
-29Q261 -29 194 16T93 131T60 273ZM967 145Q959 103 930 55T872 -16Q784 -14 727 24T639 117T599 226V654Q599 716 568 748T468 781Q404 781 328 761T173 717Q140 755 122 815T98 934Q166 962 248 981T411 1011T556 1022Q644 1022 725 990T858 883T911 681V274Q911
231 925 198T967 145ZM151 1252Q151 1272 155 1300T169 1352Q195 1368 230 1376T298 1384Q332 1384 367 1376T428 1352Q437 1328 441 1300T445 1252Q445 1232 441 1204T428 1152Q402 1136 367 1128T298 1120Q265 1120 230 1128T169 1152Q159 1175 155 1203T151
1252ZM555 1252Q555 1272 559 1300T572 1352Q598 1368 633 1376T702 1384Q735 1384 770 1376T831 1352Q841 1328 845 1300T849 1252Q849 1232 845 1204T831 1152Q806 1136 771 1128T702 1120Q668 1120 633 1128T572 1152Q563 1175 559 1203T555 1252Z" />
<glyph unicode="&#xe5;" horiz-adv-x="1026" d="M60 273Q60 394 116 470T262 584T456 621Q501 621 569 619T693 606V408Q650 418 590 419T489 421Q422 421 393 386T364 294Q364 254 388 228T456 201Q516 201 578 244T683 362L727 164Q688 118 638 74T521 0T364
-29Q261 -29 194 16T93 131T60 273ZM967 145Q959 103 930 55T872 -16Q784 -14 727 24T639 117T599 226V654Q599 716 568 748T468 781Q404 781 328 761T173 717Q140 755 122 815T98 934Q166 962 248 981T411 1011T556 1022Q644 1022 725 990T858 883T911 681V274Q911
231 925 198T967 145ZM218 1343Q218 1237 294 1161T500 1085Q629 1085 705 1161T782 1343Q782 1449 706 1523T500 1598Q371 1598 295 1524T218 1343ZM402 1343Q402 1385 428 1414T500 1444Q545 1444 571 1415T598 1343Q598 1300 572 1271T500 1241Q455 1241 429
1270T402 1343Z" />
<glyph unicode="&#xe6;" horiz-adv-x="1511" d="M60 273Q60 394 116 470T262 584T456 621Q502 621 570 619T693 606V408Q650 417 590 419T489 421Q422 421 393 386T364 293Q364 254 388 228T456 201Q497 201 539 220T619 275T685 363L753 161Q714 114 658 71T528
-1T364 -29Q261 -29 194 16T93 131T60 273ZM599 489V655Q599 717 568 749T470 781Q406 781 329 762T173 717Q140 755 122 815T98 934Q199 975 320 998T532 1022Q625 1022 701 985T822 873T867 680V489H599ZM795 398V613H1165V635Q1165 682 1153 720T1113 782T1037
806Q964 806 936 746T908 560V467Q908 399 919 340T968 245T1088 209Q1155 209 1218 226T1343 269Q1378 235 1398 183T1426 84Q1350 29 1247 0T1036 -29Q814 -29 707 112T599 489Q599 594 629 690T716 863T854 984T1039 1028Q1171 1028 1263 972T1403 821T1452
604Q1452 537 1446 493T1426 398H795Z" />
<glyph unicode="&#xe7;" horiz-adv-x="949" d="M619 555Q619 633 612 686T579 768T502 796Q432 796 406 725T379 497Q379 338 423 276T552 214Q611 214 668 239T772 298Q810 276 845 223T890 124Q823 54 718 13T501 -29Q393 -29 311 8T173 114T89 280T60 497Q60
642 98 743T202 907T346 999T508 1028Q592 1028 663 1004T787 936T869 831T898 696Q898 617 855 581T745 544Q671 544 619 555ZM352 -155Q363 -123 388 -72T432 11H595Q583 -2 570 -25T549 -63Q631 -70 683 -120T736 -241Q736 -340 659 -402T458 -464Q409 -464
361 -450T286 -417Q288 -382 301 -345T337 -283Q354 -293 378 -301T430 -309Q465 -309 483 -294T502 -252Q502 -226 484 -209T437 -192Q425 -192 415 -194T396 -200Q383 -194 370 -181T352 -155Z" />
<glyph unicode="&#xe8;" horiz-adv-x="993" d="M260 398V613H637V636Q637 682 624 720T583 782T506 806Q433 806 404 746T374 561V467Q374 399 386 340T437 245T556 209Q624 209 689 226T815 269Q850 235 871 183T899 84Q823 29 718 0T505 -29Q373 -29 287 14T151
132T81 299T60 492Q60 643 105 764T250 956T508 1028Q640 1028 733 972T875 821T925 604Q925 537 919 493T898 398H260ZM406 1539Q351 1522 294 1471T218 1359L588 1081Q627 1093 663 1126T716 1202L406 1539Z" />
<glyph unicode="&#xe9;" horiz-adv-x="993" d="M260 398V613H637V636Q637 682 624 720T583 782T506 806Q433 806 404 746T374 561V467Q374 399 386 340T437 245T556 209Q624 209 689 226T815 269Q850 235 871 183T899 84Q823 29 718 0T505 -29Q373 -29 287 14T151
132T81 299T60 492Q60 643 105 764T250 956T508 1028Q640 1028 733 972T875 821T925 604Q925 537 919 493T898 398H260ZM634 1539Q690 1522 747 1471T822 1359L452 1081Q413 1093 377 1126T324 1202L634 1539Z" />
<glyph unicode="&#xea;" horiz-adv-x="993" d="M260 398V613H637V636Q637 682 624 720T583 782T506 806Q433 806 404 746T374 561V467Q374 399 386 340T437 245T556 209Q624 209 689 226T815 269Q850 235 871 183T899 84Q823 29 718 0T505 -29Q373 -29 287 14T151
132T81 299T60 492Q60 643 105 764T250 956T508 1028Q640 1028 733 972T875 821T925 604Q925 537 919 493T898 398H260ZM648 1480L832 1229Q813 1182 771 1148T697 1103L515 1276L333 1103Q302 1114 260 1148T198 1229L381 1480Q409 1487 443 1491T515 1496Q552
1496 586 1492T648 1480Z" />
<glyph unicode="&#xeb;" horiz-adv-x="993" d="M260 398V613H637V636Q637 682 624 720T583 782T506 806Q433 806 404 746T374 561V467Q374 399 386 340T437 245T556 209Q624 209 689 226T815 269Q850 235 871 183T899 84Q823 29 718 0T505 -29Q373 -29 287 14T151
132T81 299T60 492Q60 643 105 764T250 956T508 1028Q640 1028 733 972T875 821T925 604Q925 537 919 493T898 398H260ZM161 1252Q161 1272 165 1300T179 1352Q205 1368 240 1376T308 1384Q342 1384 377 1376T438 1352Q447 1328 451 1300T455 1252Q455 1232 451
1204T438 1152Q412 1136 377 1128T308 1120Q275 1120 240 1128T179 1152Q169 1175 165 1203T161 1252ZM565 1252Q565 1272 569 1300T582 1352Q608 1368 643 1376T712 1384Q745 1384 780 1376T841 1352Q851 1328 855 1300T859 1252Q859 1232 855 1204T841 1152Q816
1136 781 1128T712 1120Q678 1120 643 1128T582 1152Q573 1175 569 1203T565 1252Z" />
<glyph unicode="&#xec;" horiz-adv-x="596" d="M479 0Q446 -6 405 -8T323 -11Q284 -11 243 -9T166 0V662Q166 712 146 745T72 778H42Q29 829 29 884Q29 910 32 939T42 996Q88 1001 136 1003T218 1006H261Q362 1006 420 942T479 767V0ZM174 1539Q119 1522 62 1471T-14
1359L356 1081Q395 1093 431 1126T484 1202L174 1539Z" />
<glyph unicode="&#xed;" horiz-adv-x="596" d="M479 0Q446 -6 405 -8T323 -11Q284 -11 243 -9T166 0V662Q166 712 146 745T72 778H42Q29 829 29 884Q29 910 32 939T42 996Q88 1001 136 1003T218 1006H261Q362 1006 420 942T479 767V0ZM402 1539Q458 1522 515 1471T590
1359L220 1081Q181 1093 145 1126T92 1202L402 1539Z" />
<glyph unicode="&#xee;" horiz-adv-x="596" d="M479 0Q446 -6 405 -8T323 -11Q284 -11 243 -9T166 0V662Q166 712 146 745T72 778H42Q29 829 29 884Q29 910 32 939T42 996Q88 1001 136 1003T218 1006H261Q362 1006 420 942T479 767V0ZM416 1480L600 1229Q581 1182
539 1148T465 1103L283 1276L101 1103Q70 1114 28 1148T-34 1229L149 1480Q177 1487 211 1491T283 1496Q320 1496 354 1492T416 1480Z" />
<glyph unicode="&#xef;" horiz-adv-x="596" d="M479 0Q446 -6 405 -8T323 -11Q284 -11 243 -9T166 0V662Q166 712 146 745T72 778H42Q29 829 29 884Q29 910 32 939T42 996Q88 1001 136 1003T218 1006H261Q362 1006 420 942T479 767V0ZM-71 1252Q-71 1272 -67 1300T-53
1352Q-27 1368 8 1376T76 1384Q110 1384 145 1376T206 1352Q215 1328 219 1300T223 1252Q223 1232 219 1204T206 1152Q180 1136 145 1128T76 1120Q43 1120 8 1128T-53 1152Q-63 1175 -67 1203T-71 1252ZM333 1252Q333 1272 337 1300T350 1352Q376 1368 411 1376T480
1384Q513 1384 548 1376T609 1352Q619 1328 623 1300T627 1252Q627 1232 623 1204T609 1152Q584 1136 549 1128T480 1120Q446 1120 411 1128T350 1152Q341 1175 337 1203T333 1252Z" />
<glyph unicode="&#xf0;" horiz-adv-x="1045" d="M982 499Q982 341 930 222T774 37T520 -29Q369 -29 267 37T112 219T60 485Q60 630 112 740T262 912T494 974Q577 974 646 931T759 837V626Q710 681 649 717T523 753Q468 753 437 721T392 627T379 480Q379 407 388
343T428 238T520 198Q582 198 612 239T653 348T663 499Q663 620 649 695T597 849Q596 946 533 1032T377 1190T189 1317Q197 1373 232 1428T311 1506Q526 1419 675 1275T903 935T982 499ZM699 1505Q732 1481 760 1443T799 1362L270 999Q236 1024 208 1062T170 1142L699
1505Z" />
<glyph unicode="&#xf1;" horiz-adv-x="1094" d="M251 1012Q341 1012 386 951T432 785V0Q399 -6 358 -8T276 -11Q237 -11 196 -9T119 0V998L133 1012H251ZM979 250Q979 192 990 141T1029 51Q995 23 944 4T834 -16Q740 -16 703 34T666 177V603Q666 671 649 703T581
736Q550 736 510 719T429 665T357 564V838Q428 906 510 961T699 1016Q791 1016 853 971T947 845T979 660V250ZM687 1111Q649 1111 617 1122T559 1146L480 1187Q473 1190 457 1197T422 1205Q394 1205 377 1186T352 1157L335 1132Q293 1132 249 1158T189 1226L206
1264Q239 1342 298 1391T435 1440Q477 1440 511 1428T564 1405L643 1364Q649 1360 666 1353T701 1345Q729 1345 746 1364T771 1394L788 1418Q830 1418 873 1392T933 1324L917 1286Q884 1208 824 1160T687 1111Z" />
<glyph unicode="&#xf2;" horiz-adv-x="1044" d="M984 499Q984 339 931 220T776 36T522 -29Q370 -29 267 36T112 221T60 499Q60 660 112 778T268 962T522 1028Q674 1028 777 962T932 778T984 499ZM381 499Q381 417 390 350T430 244T522 204Q584 204 614 243T653
350T663 499Q663 582 654 649T614 755T522 795Q461 795 431 756T391 649T381 499ZM418 1539Q363 1522 306 1471T230 1359L600 1081Q639 1093 675 1126T728 1202L418 1539Z" />
<glyph unicode="&#xf3;" horiz-adv-x="1044" d="M984 499Q984 339 931 220T776 36T522 -29Q370 -29 267 36T112 221T60 499Q60 660 112 778T268 962T522 1028Q674 1028 777 962T932 778T984 499ZM381 499Q381 417 390 350T430 244T522 204Q584 204 614 243T653
350T663 499Q663 582 654 649T614 755T522 795Q461 795 431 756T391 649T381 499ZM646 1539Q702 1522 759 1471T834 1359L464 1081Q425 1093 389 1126T336 1202L646 1539Z" />
<glyph unicode="&#xf4;" horiz-adv-x="1044" d="M984 499Q984 339 931 220T776 36T522 -29Q370 -29 267 36T112 221T60 499Q60 660 112 778T268 962T522 1028Q674 1028 777 962T932 778T984 499ZM381 499Q381 417 390 350T430 244T522 204Q584 204 614 243T653
350T663 499Q663 582 654 649T614 755T522 795Q461 795 431 756T391 649T381 499ZM660 1480L844 1229Q825 1182 783 1148T709 1103L527 1276L345 1103Q314 1114 272 1148T210 1229L393 1480Q421 1487 455 1491T527 1496Q564 1496 598 1492T660 1480Z" />
<glyph unicode="&#xf5;" horiz-adv-x="1044" d="M984 499Q984 339 931 220T776 36T522 -29Q370 -29 267 36T112 221T60 499Q60 660 112 778T268 962T522 1028Q674 1028 777 962T932 778T984 499ZM381 499Q381 417 390 350T430 244T522 204Q584 204 614 243T653
350T663 499Q663 582 654 649T614 755T522 795Q461 795 431 756T391 649T381 499ZM648 1111Q610 1111 578 1122T520 1146L441 1187Q434 1190 418 1197T383 1205Q355 1205 338 1186T313 1157L296 1132Q254 1132 210 1158T150 1226L167 1264Q200 1342 259 1391T396
1440Q438 1440 472 1428T525 1405L604 1364Q610 1360 627 1353T662 1345Q690 1345 707 1364T732 1394L749 1418Q791 1418 834 1392T894 1324L878 1286Q845 1208 785 1160T648 1111Z" />
<glyph unicode="&#xf6;" horiz-adv-x="1044" d="M984 499Q984 339 931 220T776 36T522 -29Q370 -29 267 36T112 221T60 499Q60 660 112 778T268 962T522 1028Q674 1028 777 962T932 778T984 499ZM381 499Q381 417 390 350T430 244T522 204Q584 204 614 243T653
350T663 499Q663 582 654 649T614 755T522 795Q461 795 431 756T391 649T381 499ZM173 1252Q173 1272 177 1300T191 1352Q217 1368 252 1376T320 1384Q354 1384 389 1376T450 1352Q459 1328 463 1300T467 1252Q467 1232 463 1204T450 1152Q424 1136 389 1128T320
1120Q287 1120 252 1128T191 1152Q181 1175 177 1203T173 1252ZM577 1252Q577 1272 581 1300T594 1352Q620 1368 655 1376T724 1384Q757 1384 792 1376T853 1352Q863 1328 867 1300T871 1252Q871 1232 867 1204T853 1152Q828 1136 793 1128T724 1120Q690 1120 655
1128T594 1152Q585 1175 581 1203T577 1252Z" />
<glyph unicode="&#xf7;" horiz-adv-x="1080" d="M385 996Q385 1054 406 1101Q431 1115 467 1122T540 1130Q578 1130 614 1123T672 1101Q683 1079 689 1050T695 996Q695 970 689 942T672 891Q650 878 614 870T540 862Q503 862 466 869T406 891Q385 938 385 996ZM385
280Q385 339 406 386Q431 399 467 407T540 415Q578 415 614 407T672 386Q683 364 689 335T695 280Q695 254 689 226T672 175Q650 162 614 154T540 146Q503 146 466 153T406 175Q385 222 385 280ZM115 514Q107 546 105 582T102 638Q102 659 104 695T115 763H965Q973
732 975 696T978 638Q978 618 976 582T965 514H115Z" />
<glyph unicode="&#xf8;" horiz-adv-x="1052" d="M988 501Q988 384 958 276T846 87Q784 27 703 -1T525 -29Q431 -29 350 -1T206 87Q125 167 95 275T64 501Q64 618 94 725T206 911Q268 972 349 1000T525 1028Q621 1028 702 1000T846 911Q927 832 957 725T988 501ZM353
501Q353 422 365 351T415 236T525 191Q600 191 637 235T686 351T699 501Q699 581 687 651T637 764T525 808Q452 808 415 765T366 651T353 501ZM646 920L761 1121Q803 1110 843 1090T916 1036L779 795L410 88L287 -121Q244 -111 203 -89T132 -35L272 206L646 920Z"
/>
<glyph unicode="&#xf9;" horiz-adv-x="1098" d="M975 285Q975 237 990 198T1031 141Q1023 99 994 53T936 -16Q803 -14 733 75T662 289V998Q694 1004 736 1007T819 1010Q858 1010 899 1007T975 998V285ZM115 748Q115 807 104 858T65 947Q100 976 151 995T260 1014Q354
1014 391 964T428 821V395Q428 328 446 296T513 263Q544 263 585 279T666 334T737 434V161Q667 92 585 37T395 -18Q304 -18 242 27T147 153T115 338V748ZM427 1539Q372 1522 315 1471T239 1359L609 1081Q648 1093 684 1126T737 1202L427 1539Z" />
<glyph unicode="&#xfa;" horiz-adv-x="1098" d="M975 285Q975 237 990 198T1031 141Q1023 99 994 53T936 -16Q803 -14 733 75T662 289V998Q694 1004 736 1007T819 1010Q858 1010 899 1007T975 998V285ZM115 748Q115 807 104 858T65 947Q100 976 151 995T260 1014Q354
1014 391 964T428 821V395Q428 328 446 296T513 263Q544 263 585 279T666 334T737 434V161Q667 92 585 37T395 -18Q304 -18 242 27T147 153T115 338V748ZM655 1539Q711 1522 768 1471T843 1359L473 1081Q434 1093 398 1126T345 1202L655 1539Z" />
<glyph unicode="&#xfb;" horiz-adv-x="1098" d="M975 285Q975 237 990 198T1031 141Q1023 99 994 53T936 -16Q803 -14 733 75T662 289V998Q694 1004 736 1007T819 1010Q858 1010 899 1007T975 998V285ZM115 748Q115 807 104 858T65 947Q100 976 151 995T260 1014Q354
1014 391 964T428 821V395Q428 328 446 296T513 263Q544 263 585 279T666 334T737 434V161Q667 92 585 37T395 -18Q304 -18 242 27T147 153T115 338V748ZM669 1480L853 1229Q834 1182 792 1148T718 1103L536 1276L354 1103Q323 1114 281 1148T219 1229L402 1480Q430
1487 464 1491T536 1496Q573 1496 607 1492T669 1480Z" />
<glyph unicode="&#xfc;" horiz-adv-x="1098" d="M975 285Q975 237 990 198T1031 141Q1023 99 994 53T936 -16Q803 -14 733 75T662 289V998Q694 1004 736 1007T819 1010Q858 1010 899 1007T975 998V285ZM115 748Q115 807 104 858T65 947Q100 976 151 995T260 1014Q354
1014 391 964T428 821V395Q428 328 446 296T513 263Q544 263 585 279T666 334T737 434V161Q667 92 585 37T395 -18Q304 -18 242 27T147 153T115 338V748ZM182 1252Q182 1272 186 1300T200 1352Q226 1368 261 1376T329 1384Q363 1384 398 1376T459 1352Q468 1328
472 1300T476 1252Q476 1232 472 1204T459 1152Q433 1136 398 1128T329 1120Q296 1120 261 1128T200 1152Q190 1175 186 1203T182 1252ZM586 1252Q586 1272 590 1300T603 1352Q629 1368 664 1376T733 1384Q766 1384 801 1376T862 1352Q872 1328 876 1300T880 1252Q880
1232 876 1204T862 1152Q837 1136 802 1128T733 1120Q699 1120 664 1128T603 1152Q594 1175 590 1203T586 1252Z" />
<glyph unicode="&#xfd;" horiz-adv-x="994" d="M246 -438Q186 -438 115 -425T3 -397Q-2 -344 16 -277T66 -174Q98 -184 147 -194T246 -205Q297 -205 335 -186T400 -130T442 -43L450 -13Q369 -13 315 14T242 112L9 974Q57 996 110 1006T202 1016Q259 1016 296 988T353
882L447 497Q456 464 464 415T479 317T491 235Q493 221 508 221L682 997Q708 1004 742 1007T805 1010Q846 1010 888 1006T972 987L984 967L737 27Q701 -109 646 -214T497 -378T246 -438ZM618 1539Q674 1522 731 1471T806 1359L436 1081Q397 1093 361 1126T308 1202L618
1539Z" />
<glyph unicode="&#xfe;" horiz-adv-x="1070" d="M421 -244Q421 -348 382 -390T251 -432H133L119 -418V1458L133 1472H251Q343 1472 382 1430T421 1284V-244ZM1006 531Q1006 340 949 218T802 38T614 -20Q514 -20 427 20T272 107L322 327Q381 279 444 245T549 211Q597
211 627 247T671 350T686 509Q686 602 670 659T627 742T564 769Q532 769 490 750T407 677T340 516L270 691Q280 772 331 847T465 970T645 1018Q758 1018 838 954T962 780T1006 531Z" />
<glyph unicode="&#xff;" horiz-adv-x="994" d="M246 -438Q186 -438 115 -425T3 -397Q-2 -344 16 -277T66 -174Q98 -184 147 -194T246 -205Q297 -205 335 -186T400 -130T442 -43L450 -13Q369 -13 315 14T242 112L9 974Q57 996 110 1006T202 1016Q259 1016 296 988T353
882L447 497Q456 464 464 415T479 317T491 235Q493 221 508 221L682 997Q708 1004 742 1007T805 1010Q846 1010 888 1006T972 987L984 967L737 27Q701 -109 646 -214T497 -378T246 -438ZM145 1252Q145 1272 149 1300T163 1352Q189 1368 224 1376T292 1384Q326 1384
361 1376T422 1352Q431 1328 435 1300T439 1252Q439 1232 435 1204T422 1152Q396 1136 361 1128T292 1120Q259 1120 224 1128T163 1152Q153 1175 149 1203T145 1252ZM549 1252Q549 1272 553 1300T566 1352Q592 1368 627 1376T696 1384Q729 1384 764 1376T825 1352Q835
1328 839 1300T843 1252Q843 1232 839 1204T825 1152Q800 1136 765 1128T696 1120Q662 1120 627 1128T566 1152Q557 1175 553 1203T549 1252Z" />
<glyph unicode="&#x2013;" horiz-adv-x="1111" d="M125 413Q116 445 114 478T111 531Q111 552 113 586T125 651H987Q995 620 997 586T1000 531Q1000 511 998 478T987 413H125Z" />
<glyph unicode="&#x2014;" horiz-adv-x="1629" d="M146 413Q138 445 136 478T133 531Q133 552 135 586T146 651H1482Q1491 620 1493 586T1496 531Q1496 511 1494 478T1482 413H146Z" />
<glyph unicode="&#x2018;" horiz-adv-x="536" d="M103 1008Q88 1048 83 1086T77 1166Q77 1307 161 1424T420 1591Q461 1571 478 1530T490 1447Q458 1438 419 1416T350 1359T318 1277Q343 1273 369 1267T409 1248Q420 1229 426 1195T433 1131Q433 1102 427 1065T409
1008Q382 992 339 982T256 971Q217 971 173 981T103 1008Z" />
<glyph unicode="&#x2019;" horiz-adv-x="536" d="M438 1554Q453 1514 458 1476T464 1396Q464 1255 380 1138T121 971Q81 991 64 1032T51 1115Q83 1125 122 1147T191 1203T223 1285Q198 1290 172 1296T132 1314Q122 1333 115 1367T108 1431Q108 1460 115 1497T132
1554Q159 1570 202 1580T285 1591Q324 1591 368 1581T438 1554Z" />
<glyph unicode="&#x201a;" horiz-adv-x="536" d="M429 251Q443 211 448 174T454 93Q454 -48 370 -165T111 -332Q71 -312 54 -271T41 -188Q74 -178 113 -156T181 -100T213 -18Q188 -13 163 -7T122 11Q112 30 105 64T98 128Q98 157 105 194T122 251Q149 267 192
277T275 288Q315 288 359 278T429 251Z" />
<glyph unicode="&#x201c;" horiz-adv-x="1007" d="M103 1008Q88 1048 83 1086T77 1166Q77 1307 161 1424T420 1591Q461 1571 478 1530T490 1447Q458 1438 419 1416T350 1359T318 1277Q343 1273 369 1267T409 1248Q420 1229 426 1195T433 1131Q433 1102 427 1065T409
1008Q382 992 339 982T256 971Q217 971 173 981T103 1008ZM574 1008Q559 1048 554 1086T548 1166Q548 1307 632 1424T891 1591Q932 1571 949 1530T961 1447Q929 1438 890 1416T821 1359T789 1277Q814 1273 840 1267T880 1248Q891 1229 897 1195T904 1131Q904 1102
898 1065T880 1008Q853 992 810 982T727 971Q688 971 644 981T574 1008Z" />
<glyph unicode="&#x201d;" horiz-adv-x="1007" d="M447 1554Q462 1514 467 1476T473 1396Q473 1255 389 1138T130 971Q90 991 75 1028T60 1115Q92 1125 131 1147T200 1203T232 1285Q207 1290 181 1296T141 1314Q131 1333 124 1367T117 1431Q117 1460 124 1497T141
1554Q168 1570 211 1580T294 1591Q333 1591 377 1581T447 1554ZM918 1554Q933 1514 938 1476T944 1396Q944 1255 860 1138T601 971Q561 991 544 1032T531 1115Q563 1125 602 1147T671 1203T703 1285Q678 1290 652 1296T612 1314Q602 1333 595 1367T588 1431Q588
1460 595 1497T612 1554Q639 1570 682 1580T765 1591Q804 1591 848 1581T918 1554Z" />
<glyph unicode="&#x201e;" horiz-adv-x="1007" d="M429 251Q443 211 448 174T454 93Q454 -48 370 -165T111 -332Q71 -312 54 -271T41 -188Q74 -178 113 -156T181 -100T213 -18Q188 -13 163 -7T122 11Q112 30 105 64T98 128Q98 157 105 194T122 251Q149 267 192
277T275 288Q315 288 359 278T429 251ZM900 251Q914 211 919 174T925 93Q925 -48 841 -165T582 -332Q542 -312 525 -271T512 -188Q545 -178 584 -156T652 -100T684 -18Q659 -13 634 -7T593 11Q583 30 576 64T569 128Q569 157 576 194T593 251Q620 267 663 277T746
288Q786 288 830 278T900 251Z" />
<glyph unicode="&#x2022;" horiz-adv-x="924" d="M189 536Q189 565 197 627T225 733Q271 761 337 777T463 793Q522 793 589 777T701 733Q720 689 728 627T736 536Q736 507 728 445T701 339Q671 320 631 307T547 288T463 281Q403 281 337 295T225 339Q205 383 197
445T189 536Z" />
<glyph unicode="&#x2039;" horiz-adv-x="699" d="M465 51L60 421Q44 457 44 510T60 599L462 977Q512 966 563 917T629 818L384 516L637 208Q628 176 600 143T535 84T465 51Z" />
<glyph unicode="&#x203a;" horiz-adv-x="699" d="M237 51Q187 62 136 111T70 210L315 512L62 820Q72 853 100 886T164 944T234 977L639 607Q655 571 655 518T639 429L237 51Z" />
</font>
</defs>
</svg>
