<?xml version="1.0" standalone="no"?>
<!DOCTYPE svg PUBLIC "-//W3C//DTD SVG 1.1//EN" "http://www.w3.org/Graphics/SVG/1.1/DTD/svg11.dtd">
<svg xmlns="http://www.w3.org/2000/svg">
<defs >
<font id="Signika" horiz-adv-x="1241" ><font-face
    font-family="Signika Light"
    units-per-em="2000"
    panose-1="0 0 0 0 0 0 0 0 0 0"
    ascent="1880"
    descent="-584"
    alphabetic="0" />
<glyph unicode=" " horiz-adv-x="440" />
<glyph unicode="!" horiz-adv-x="577" d="M208 389Q197 588 185 786T172 1185V1365Q201 1374 245 1376T332 1376T405 1364V1182Q405 984 392 786T368 389Q349 382 328 380T288 378Q271 378 249 380T208 389ZM288 219Q319 219 349 213T401 195Q408 181 413 151T418
100Q418 80 413 51T401 7Q380 -4 350 -10T288 -17Q257 -17 227 -11T175 7Q168 21 164 50T159 100Q159 121 163 151T175 195Q196 206 226 212T288 219Z" />
<glyph unicode="&quot;" horiz-adv-x="769" d="M451 1407Q451 1431 454 1454T463 1502Q483 1514 508 1521T564 1528Q593 1528 619 1521T664 1502Q670 1478 673 1455T676 1407Q676 1390 668 1326T646 1172T616 984Q599 973 565 973T512 984Q496 1082 482 1172T460
1326T451 1407ZM93 1407Q93 1431 96 1454T105 1502Q125 1514 150 1521T206 1528Q235 1528 261 1521T306 1502Q312 1478 315 1455T318 1407Q318 1390 310 1326T288 1172T258 984Q241 973 207 973T154 984Q138 1082 124 1172T102 1326T93 1407Z" />
<glyph unicode="#" horiz-adv-x="1290" d="M193 27Q209 19 234 15T286 11Q312 11 337 15T380 27L660 1277Q644 1285 620 1288T568 1291Q542 1291 517 1288T474 1277L193 27ZM630 27Q646 19 671 15T723 11Q750 11 775 15T817 27L1097 1277Q1081 1285 1057 1288T1004
1291Q979 1291 954 1288T910 1277L630 27ZM1139 309Q1151 346 1151 395Q1151 445 1139 481H57Q44 447 44 395Q44 344 57 309H1139ZM1234 823Q1246 859 1246 910Q1246 959 1234 995H152Q139 961 139 910Q139 858 152 823H1234Z" />
<glyph unicode="$" horiz-adv-x="1080" d="M536 55Q453 55 373 73T228 120T119 179Q120 207 131 239T161 298T201 339Q269 294 358 261T534 226Q619 226 674 262T730 366Q731 421 697 463T588 532L394 601Q286 640 221 711T156 891Q156 985 203 1059T336 1175T533
1218Q647 1218 742 1191T909 1126Q909 1084 889 1039T835 965Q767 1003 693 1024T548 1046Q466 1046 417 1010T367 913Q367 855 405 826T505 774L689 707Q806 665 875 585T945 377Q945 284 895 211T753 96T536 55ZM524 -125Q501 -125 479 -123T441 -117V111H606V-117Q590
-121 569 -123T524 -125ZM461 1154V1389Q478 1393 500 1395T543 1397Q565 1397 587 1395T626 1389V1154H461Z" />
<glyph unicode="%" horiz-adv-x="1813" d="M1401 -25Q1287 -25 1218 28T1117 173T1086 386Q1086 569 1158 682T1401 795Q1515 795 1584 743T1685 599T1717 386Q1717 203 1644 89T1401 -25ZM411 471Q297 471 228 523T127 669T96 882Q96 1003 127 1095T228 1238T411
1290Q525 1290 594 1239T695 1095T727 882Q727 699 655 585T411 471ZM412 607Q469 607 499 645T539 747T550 882Q550 954 540 1016T499 1116T412 1155Q355 1155 325 1117T284 1016T273 882Q273 810 284 747T325 646T412 607ZM1402 112Q1459 112 1488 150T1529 252T1540
386Q1540 458 1529 520T1489 620T1402 659Q1346 659 1316 621T1274 520T1263 386Q1263 315 1274 252T1315 151T1402 112ZM1160 1277Q1186 1285 1226 1287T1305 1287T1362 1277L658 0Q633 -8 593 -10T514 -10T456 0L1160 1277Z" />
<glyph unicode="&amp;" horiz-adv-x="1245" d="M993 813Q1047 813 1098 821T1183 844Q1197 827 1204 799T1211 745Q1211 683 1169 659T1061 635H605Q504 635 441 597T350 498T321 371Q321 262 378 202T532 142Q614 142 683 171T795 236V509Q795 552 796 615T802
729H994Q998 679 999 616T1001 510V303Q1001 234 1004 151T1013 0Q995 -5 970 -8T916 -11Q888 -11 863 -9T819 -1L804 80Q739 32 656 3T484 -26Q359 -26 273 25T144 163T100 359Q100 471 151 557T282 694T447 745V716Q368 719 303 762T198 876T158 1036Q158 1135
207 1216T351 1344T577 1392Q678 1392 776 1375T943 1334Q944 1293 930 1247T888 1170Q821 1191 749 1206T595 1222Q491 1222 435 1166T378 1021Q378 927 437 870T625 813H993Z" />
<glyph unicode="&apos;" horiz-adv-x="411" d="M93 1407Q93 1431 96 1454T105 1502Q125 1514 150 1521T206 1528Q235 1528 261 1521T306 1502Q312 1478 315 1455T318 1407Q318 1390 310 1326T288 1172T258 984Q241 973 207 973T154 984Q138 1082 124 1172T102
1326T93 1407Z" />
<glyph unicode="(" horiz-adv-x="663" d="M347 550Q347 395 377 237T470 -70T632 -348Q612 -393 579 -420T508 -459Q384 -338 299 -169T169 187T125 550Q125 725 169 912T298 1268T508 1558Q546 1546 579 1519T632 1446Q533 1317 470 1169T377 863T347 550Z" />
<glyph unicode=")" horiz-adv-x="663" d="M155 -459Q118 -448 85 -421T31 -348Q131 -219 193 -70T286 237T316 550Q316 705 286 862T194 1168T31 1446Q52 1491 85 1518T155 1558Q279 1437 364 1268T494 912T539 550Q539 374 495 187T365 -169T155 -459Z" />
<glyph unicode="*" horiz-adv-x="1009" d="M414 1461Q435 1471 469 1473T538 1474T595 1461L593 1350Q593 1281 576 1210T544 1077Q525 1055 504 1055Q483 1055 465 1077Q450 1138 433 1209T416 1350L414 1461ZM89 1095Q87 1118 94 1151T116 1216T146 1266L250
1230Q316 1209 378 1170T496 1098Q512 1073 504 1055Q500 1045 493 1037T470 1025Q408 1029 335 1035T195 1062L89 1095ZM338 673Q315 679 286 695T231 735T192 779L257 867Q299 923 355 971T459 1059Q487 1066 504 1055Q524 1041 523 1014Q499 955 471 888T401
763L338 673ZM815 778Q804 758 779 736T725 696T670 672L607 763Q567 819 539 887T486 1013Q487 1042 504 1055Q513 1061 524 1062T549 1059Q598 1019 653 971T751 866L815 778ZM863 1264Q879 1248 892 1217T914 1153T920 1094L814 1061Q748 1041 674 1036T540
1025Q525 1030 517 1037T504 1055Q496 1074 513 1097Q567 1132 630 1170T758 1229L863 1264Z" />
<glyph unicode="+" horiz-adv-x="1080" d="M123 716Q114 675 114 627Q114 577 123 539H351Q376 539 404 540T456 541H624Q649 541 677 540T729 539H957Q966 578 966 627Q966 653 964 673T957 716H729Q705 716 677 715T624 714H456Q432 714 404 715T351 716H123ZM446
812Q446 788 447 760T448 706V549Q448 524 447 497T446 444V196Q469 192 492 191T541 189Q566 189 589 190T634 196V444Q634 469 633 496T632 549V706Q632 731 633 759T634 812V1059Q613 1063 589 1064T540 1066Q514 1066 492 1065T446 1059V812Z" />
<glyph unicode="," horiz-adv-x="538" d="M394 208Q405 181 410 147T416 76Q416 -8 383 -86T285 -226T121 -322Q93 -308 79 -278T67 -219Q136 -188 182 -136T233 -17Q213 -14 189 -7T152 10Q145 24 140 53T134 106Q134 132 139 163T152 208Q170 218 206 226T274
234Q304 234 340 227T394 208Z" />
<glyph unicode="-" horiz-adv-x="700" d="M101 444Q97 465 95 489T93 533Q93 554 95 577T101 623H597Q603 601 605 578T607 533Q607 513 605 489T597 444H101Z" />
<glyph unicode="." horiz-adv-x="526" d="M122 109Q122 127 126 159T140 208Q160 220 195 227T262 235Q292 235 329 228T385 208Q395 191 399 159T404 109Q404 91 400 60T385 10Q367 -2 330 -9T262 -16Q230 -16 195 -9T140 10Q131 28 127 59T122 109Z" />
<glyph unicode="/" horiz-adv-x="844" d="M646 1422Q691 1419 739 1402T825 1355L193 -322Q149 -318 101 -301T14 -254L646 1422Z" />
<glyph unicode="0" horiz-adv-x="1080" d="M102 633Q102 816 129 950T249 1179Q300 1231 369 1261T541 1292Q645 1292 712 1262T831 1179Q923 1084 950 950T978 633Q978 449 951 316T831 87Q779 36 712 5T540 -26Q437 -26 369 5T249 87Q158 183 130 316T102 633ZM319
633Q319 465 336 363T396 207Q420 172 456 155T540 137Q588 137 624 154T684 207Q726 261 743 363T761 633Q761 802 744 903T684 1059Q660 1094 624 1111T540 1129Q493 1129 457 1112T396 1059Q354 1005 337 904T319 633Z" />
<glyph unicode="1" horiz-adv-x="1080" d="M698 306Q698 266 697 230T696 151V83H497V151Q497 193 496 229T495 306V732Q495 766 498 826T504 949T506 1049L502 1266Q528 1272 553 1273T600 1275Q623 1275 647 1274T698 1266V306ZM382 173Q403 173 442 172T501
171H692Q713 171 753 172T814 173H951Q960 130 960 87Q960 46 951 0H199Q194 22 192 43T189 87Q189 132 199 173H382ZM128 882Q274 972 367 1073T502 1266L579 1100Q553 1027 495 961T362 843T216 759Q183 777 160 809T128 882Z" />
<glyph unicode="2" horiz-adv-x="1080" d="M133 1001Q161 1079 217 1145T355 1251T538 1292Q658 1292 745 1245T879 1114T927 921Q927 824 892 753T801 625T678 513L525 387Q468 339 423 294T352 212T325 148L321 -1H200Q169 32 143 65T117 140Q117 198 152 260T245
383T368 501L563 666Q634 726 674 784T714 922Q714 1014 660 1067T520 1121Q437 1121 376 1066T281 930Q243 933 198 950T133 1001ZM959 181Q959 75 928 37T821 -1H214L154 134Q214 152 296 162T459 176T592 181H959Z" />
<glyph unicode="3" horiz-adv-x="1080" d="M744 404Q744 510 683 568T518 626Q486 626 449 617T383 592Q354 607 331 639T299 705Q353 731 422 748T573 765Q678 765 765 725T906 604T959 396Q959 290 921 211T817 79T671 0T506 -26Q378 -26 276 11T107 105Q115
142 140 181T198 245Q257 201 326 172T479 143Q554 143 614 173T709 260T744 404ZM659 828Q626 794 582 762T494 704T419 662L299 705L549 966Q565 981 590 1006T641 1057T685 1097L678 1105Q655 1100 617 1096T533 1090T447 1087H164Q156 1109 154 1129T152 1163Q152
1187 155 1213T170 1266H867Q891 1221 901 1189T912 1135Q912 1088 869 1042L659 828Z" />
<glyph unicode="4" horiz-adv-x="1080" d="M134 275Q114 306 101 339T87 401Q87 424 99 456T127 525L469 1278Q498 1285 536 1282T608 1268T661 1240L429 733Q411 692 387 639T337 535T288 448L293 441Q331 444 376 445T461 448T522 449H800Q824 449 846 450T892
451H998Q1002 430 1002 410T1003 372Q1003 352 1001 326T990 276H892Q868 276 846 277T800 278H602Q578 278 550 277T496 275H134ZM600 171Q600 196 601 225T602 278V430Q602 443 601 471T600 514V671Q600 746 637 787T737 829H792L802 820V555Q802 531 801 502T800
449V278Q800 254 801 225T802 171V0Q777 -4 752 -6T700 -8Q675 -8 650 -6T600 0V171Z" />
<glyph unicode="5" horiz-adv-x="1080" d="M379 858Q377 818 370 776T352 697Q312 682 267 674T167 660L197 1253L380 1224Q384 1196 386 1150T388 1060T387 989L379 858ZM122 101Q128 134 153 175T210 240Q271 198 337 171T484 144Q551 144 609 174T704 266T740
425Q740 522 703 577T609 654T495 677Q436 677 378 655T268 589Q240 595 211 616T167 660Q207 704 265 746T395 815T549 842Q733 842 844 734T955 436Q955 278 889 176T718 24T498 -26Q379 -26 283 10T122 101ZM887 1266Q896 1243 899 1220T902 1181Q902 1089 810
1089H465Q413 1089 362 1090T269 1095T204 1100L197 1253L211 1266H887Z" />
<glyph unicode="6" horiz-adv-x="1080" d="M553 -26Q466 -26 406 -3T307 50T251 102Q238 118 215 150T168 242T128 396T111 634Q111 835 169 982T342 1211T626 1292Q711 1292 787 1276T915 1229Q911 1189 892 1147T841 1082Q802 1099 752 1112T638 1126Q526 1126
458 1070T358 917T327 700V528Q327 477 335 417T361 302T409 207Q433 176 469 155T556 134Q661 134 715 209T769 408Q769 508 742 565T669 647T563 672Q511 672 457 650T354 586T272 489L230 603Q260 667 317 722T451 811T616 846Q779 846 879 743T980 421Q980
288 925 187T774 30T553 -26Z" />
<glyph unicode="7" horiz-adv-x="1080" d="M940 1266Q954 1236 966 1200T978 1136Q978 1117 970 1095T941 1043Q842 911 771 794T652 563T576 329T534 72L528 0Q507 -5 479 -7T420 -9Q393 -9 365 -7T313 0L321 82Q339 265 400 449T559 800T780 1097L773 1105Q753
1100 711 1097T620 1092T529 1088T468 1087H140Q135 1103 133 1122T130 1160Q130 1187 135 1214T148 1266H940Z" />
<glyph unicode="8" horiz-adv-x="1080" d="M99 318Q99 412 145 488T265 617T418 695L575 635Q444 595 377 511T310 334Q310 267 340 220T423 149T538 124Q602 124 653 150T736 223T767 336Q767 402 732 450T641 531T519 583L485 594Q384 627 305 675T180 792T134
956Q134 1054 187 1130T333 1249T539 1292Q660 1292 751 1251T893 1136T945 966Q945 885 905 821T801 712T664 646L514 706Q620 737 680 805T740 957Q740 1042 682 1090T539 1139Q456 1139 399 1090T341 959Q341 878 404 829T572 750L607 739Q711 708 796 654T931
521T981 334Q981 221 920 141T756 17T531 -26Q338 -26 219 64T99 318Z" />
<glyph unicode="9" horiz-adv-x="1080" d="M527 1292Q615 1292 675 1269T774 1216T829 1164Q842 1148 865 1116T912 1024T952 870T969 632Q969 431 911 284T738 55T454 -26Q369 -26 294 -9T165 37Q169 77 188 119T239 184Q278 168 328 155T442 141Q554 141 622
197T722 350T753 566V738Q753 790 746 850T720 965T671 1059Q647 1090 611 1111T524 1132Q419 1132 365 1057T311 858Q311 759 338 702T411 619T517 594Q570 594 624 617T726 680T808 777L850 663Q820 600 763 545T629 455T464 421Q302 421 201 524T100 845Q100
978 155 1079T306 1236T527 1292Z" />
<glyph unicode=":" horiz-adv-x="537" d="M127 109Q127 127 131 159T145 208Q165 220 200 227T267 235Q297 235 334 228T390 208Q400 191 404 159T409 109Q409 91 405 60T390 10Q372 -2 335 -9T267 -16Q235 -16 200 -9T145 10Q136 28 132 59T127 109ZM127 767Q127
785 131 817T145 866Q165 878 200 885T267 893Q297 893 334 886T390 866Q400 849 404 817T409 767Q409 749 405 718T390 668Q372 656 335 649T267 642Q235 642 200 649T145 668Q136 686 132 717T127 767Z" />
<glyph unicode=";" horiz-adv-x="545" d="M647 208Q658 181 663 147T669 76Q669 -8 636 -86T538 -226T374 -322Q346 -308 332 -278T320 -219Q389 -188 435 -136T486 -17Q466 -14 442 -7T405 10Q398 24 393 53T387 106Q387 132 392 163T405 208Q423 218 459 226T527
234Q557 234 593 227T647 208ZM131 767Q131 785 135 817T149 866Q169 878 204 885T271 893Q301 893 338 886T394 866Q404 849 408 817T413 767Q413 749 409 718T394 668Q376 656 339 649T271 642Q239 642 204 649T149 668Q140 686 136 717T131 767Z" />
<glyph unicode="&lt;" horiz-adv-x="1080" d="M857 1112Q894 1090 921 1046T952 950L477 701Q449 686 402 665T330 632V619Q354 609 401 588T477 551L952 301Q947 250 919 205T856 138L118 543Q108 580 107 625T118 708L857 1112Z" />
<glyph unicode="=" horiz-adv-x="1080" d="M123 349Q118 369 116 393T114 437Q114 458 116 481T123 527H957Q962 505 964 482T966 437Q966 417 964 393T957 349H123ZM123 733Q118 753 116 777T114 820Q114 841 116 865T123 911H957Q962 889 964 865T966 820Q966
801 964 777T957 733H123Z" />
<glyph unicode="&gt;" horiz-adv-x="1080" d="M224 141Q187 163 160 207T128 303L604 553Q632 568 679 589T751 621V634Q726 645 679 666T604 702L128 951Q134 1003 161 1048T225 1115L963 710Q973 673 974 628T963 545L224 141Z" />
<glyph unicode="?" horiz-adv-x="791" d="M24 1290Q105 1334 203 1363T405 1392Q576 1392 676 1299T777 1050Q777 911 702 818T516 663L391 593L375 390Q357 383 338 381T298 378Q279 378 257 380T216 390L205 688L222 710L319 759Q426 813 491 878T557 1030Q557
1111 505 1160T360 1209Q293 1209 227 1188T100 1135Q73 1158 50 1203T24 1290ZM298 217Q328 217 359 211T411 192Q419 179 423 149T428 98Q428 77 424 48T411 5Q391 -7 360 -13T298 -20Q227 -20 184 5Q177 19 172 48T167 98Q167 119 172 149T184 192Q205 204 235
210T298 217Z" />
<glyph unicode="@" horiz-adv-x="1898" d="M1324 314Q1324 238 1345 207T1412 175Q1461 175 1506 214T1581 343T1610 586Q1610 773 1533 910T1314 1124T982 1201Q829 1201 705 1145T491 987T355 749T307 451Q307 233 382 85T592 -140T906 -216Q1016 -216 1117
-198T1311 -143Q1336 -168 1351 -209T1366 -288Q1296 -315 1218 -335T1057 -366T893 -377Q664 -377 485 -284T204 -6T101 451Q101 645 165 810T348 1097T627 1287T982 1355Q1164 1355 1316 1301T1580 1146T1753 901T1814 580Q1814 394 1755 269T1602 81T1405 18Q1320
18 1258 53T1163 148T1129 285V752Q1104 778 1064 795T976 812Q905 812 859 764T791 636T768 459Q768 329 805 251T930 172Q975 172 1022 199T1109 270T1167 359L1243 257Q1218 198 1164 142T1037 48T886 10Q786 10 715 65T605 219T567 453Q567 594 614 709T752
894T976 963Q1082 963 1173 923T1324 825V314Z" />
<glyph unicode="A" horiz-adv-x="1223" d="M491 1366Q516 1370 552 1372T615 1374Q639 1374 675 1372T734 1365L1183 13Q1160 -1 1127 -7T1059 -14Q1008 -14 981 9T932 98L712 794Q684 882 656 979T606 1156H595Q585 1111 571 1058T543 955T518 868L241 -2Q222
-6 198 -8T149 -10Q122 -10 95 -6T46 4L40 15L491 1366ZM464 330Q455 330 427 330T369 331T331 332H232L298 505H385Q394 505 419 505T470 506T504 507H704Q714 507 739 507T790 506T826 505H915L972 332H874Q865 332 836 332T777 331T739 330H464Z" />
<glyph unicode="B" horiz-adv-x="1210" d="M194 1367Q304 1369 407 1371T610 1374Q757 1374 854 1331T998 1207T1046 1013Q1046 937 1013 872T921 765T784 715V744Q867 742 942 694T1064 565T1112 383Q1112 272 1062 184T907 44T635 -8Q514 -8 411 -6T194 -1L181
11V1355L194 1367ZM392 152Q455 152 516 153T635 154Q716 154 767 176T845 235T883 314T894 394Q894 444 871 500T789 596T622 635H308V800H602Q696 800 746 831T814 911T833 1007Q833 1056 816 1103T750 1181T606 1212Q564 1212 502 1212T392 1214V152Z" />
<glyph unicode="C" horiz-adv-x="1207" d="M921 894Q922 970 897 1045T811 1169T642 1219Q484 1219 404 1081T323 676Q323 428 411 294T654 159Q748 159 836 199T1011 311Q1046 289 1077 250T1117 174Q1062 119 985 74T815 1T618 -26Q475 -26 376 33T215 192T127
418T99 677Q99 926 174 1084T374 1317T647 1392Q795 1392 903 1337T1070 1193T1129 1002Q1129 948 1101 915T1008 881Q984 881 965 884T921 894Z" />
<glyph unicode="D" horiz-adv-x="1296" d="M1194 683Q1194 566 1179 459T1118 259T982 92Q939 56 878 34T752 2T634 -9Q553 -9 486 -8T350 -5T194 -1L181 11V1355L194 1367Q281 1370 349 1371T485 1373T634 1374Q687 1374 751 1364T877 1331T982 1272Q1072 1198
1117 1105T1178 906T1194 683ZM973 683Q973 772 961 864T914 1032T812 1156T633 1203Q570 1203 516 1203T393 1205V163Q462 163 516 163T633 162Q744 162 811 209T914 333T961 502T973 683Z" />
<glyph unicode="E" horiz-adv-x="1132" d="M180 1353L193 1366H387V1192Q387 1150 388 1124T389 1056V275Q389 249 388 226T387 175V-2H302Q246 -2 213 33T180 129V1353ZM890 778Q895 758 897 733T900 690Q900 672 898 648T890 601H514Q491 601 456 601T384 603T316
604V775Q346 776 383 776T456 777T514 778H890ZM998 1366Q1003 1342 1004 1321T1005 1281Q1005 1263 1001 1237T988 1186H514Q491 1186 456 1186T384 1187T316 1189V1366H998ZM1037 179Q1037 81 1008 40T896 -2H316V170Q364 173 411 176T519 179H1037Z" />
<glyph unicode="F" horiz-adv-x="1043" d="M394 0Q369 -4 342 -6T288 -8Q264 -8 235 -6T181 0V1354L194 1366H392V1261Q392 1183 393 1105T394 950V0ZM986 1366Q992 1348 994 1325T997 1282Q997 1230 968 1207T878 1184H584Q501 1184 434 1185T310 1189V1366H986ZM880
776Q885 755 887 730T890 687Q890 670 888 645T880 599H479Q441 599 397 600T313 602V773Q352 774 396 775T479 776H880Z" />
<glyph unicode="G" horiz-adv-x="1286" d="M1157 1245Q1149 1196 1118 1153T1054 1087Q983 1141 889 1175T699 1210Q592 1210 506 1158T370 987T319 671Q319 405 418 278T715 150Q821 150 912 173T1050 217L1159 59Q1099 37 1020 18T852 -14T677 -26Q516 -26 406
30T228 183T130 407T99 673Q99 864 149 1000T284 1223T476 1351T696 1392Q820 1392 944 1352T1157 1245ZM956 409Q956 478 960 538T975 643L1159 581V59L956 55V409ZM1008 718Q1092 718 1125 682T1159 581V536H789Q763 536 739 542T700 568T684 627Q684 650 689
674T700 718H1008Z" />
<glyph unicode="H" horiz-adv-x="1349" d="M1061 -8Q1036 -8 1008 -6T955 0V468Q955 510 956 543T957 616V795Q957 836 956 868T955 943V1366Q979 1370 1007 1372T1060 1374Q1084 1374 1114 1372T1168 1366V0Q1143 -4 1115 -6T1061 -8ZM286 -8Q264 -8 234 -6T181
0V1366Q204 1370 234 1372T286 1374Q312 1374 341 1372T394 1366V943Q394 901 393 869T392 795V616Q392 576 393 543T394 468V0Q370 -4 341 -6T286 -8ZM266 614V797Q297 797 329 796T392 795Q403 795 426 795T473 796T506 797H843Q853 797 876 797T923 796T957
795Q988 795 1020 796T1083 797V614Q1052 614 1020 615T957 616Q947 616 924 616T877 615T843 614H506Q497 614 473 614T426 615T392 616Q361 616 329 615T266 614Z" />
<glyph unicode="I" horiz-adv-x="587" d="M187 1366Q210 1370 239 1372T292 1374Q318 1374 347 1372T400 1366V0Q376 -4 347 -6T292 -8Q269 -8 240 -6T187 0V1366Z" />
<glyph unicode="J" horiz-adv-x="897" d="M100 223Q144 196 201 178T314 159Q437 159 482 232T528 467V1366Q552 1370 581 1372T635 1374Q659 1374 687 1372T740 1366V497Q740 387 725 293T666 129T542 19T331 -20Q254 -20 170 2T20 64Q28 108 48 149T100 223Z" />
<glyph unicode="K" horiz-adv-x="1192" d="M181 1366Q204 1370 234 1372T286 1374Q312 1374 341 1372T394 1366V0Q370 -4 341 -6T286 -8Q264 -8 234 -6T181 0V1366ZM1159 55Q1138 23 1097 6T1016 -12Q953 -12 926 20T876 116L767 409Q725 524 672 569T530 614Q498
614 437 612T284 604V744H627Q730 744 792 715T892 629T961 489L1070 200Q1086 159 1100 132T1128 88T1159 55ZM839 1286Q863 1329 888 1350T967 1372Q994 1372 1025 1371T1088 1367L1102 1349L799 835Q754 758 688 713T521 668H284V791Q335 793 396 794T506 796Q536
796 550 808T582 852L839 1286Z" />
<glyph unicode="L" horiz-adv-x="1024" d="M393 -2H304Q250 -2 215 32T180 131V1362L193 1374H275Q339 1374 366 1342T393 1239V-2ZM969 183Q969 76 936 37T826 -2H304L194 154Q287 169 388 176T571 183H969Z" />
<glyph unicode="M" horiz-adv-x="1615" d="M254 1365Q290 1372 331 1373T398 1374Q424 1374 460 1373T533 1365L723 739Q730 715 742 671T766 577T789 485T802 421H813Q816 442 826 484T849 577T873 671T892 739L1083 1365Q1121 1372 1156 1373T1218 1374Q1243
1374 1283 1373T1361 1365L1467 3Q1445 -3 1415 -6T1359 -9Q1334 -9 1311 -8T1264 -2L1217 730Q1214 785 1211 857T1206 1003T1201 1137H1190L915 209Q891 205 861 203T806 201Q784 201 754 203T700 209L425 1137H414Q412 1077 410 1003T405 857T398 730L351 -2Q328
-6 304 -7T254 -9Q228 -9 199 -6T148 3L254 1365Z" />
<glyph unicode="N" horiz-adv-x="1359" d="M181 1364Q207 1369 245 1371T307 1374Q333 1374 368 1372T435 1366L379 1119L362 1115Q366 1046 370 961T376 788T379 626V0Q352 -4 327 -6T281 -8Q260 -8 234 -6T181 0V1364ZM496 840Q460 913 429 983T369 1117L269
1237L435 1366L858 527Q896 449 929 375T992 238L1097 128L923 0L496 840ZM1178 1363V2Q1162 -1 1139 -3T1093 -7T1050 -8Q1021 -8 988 -6T923 0L981 237L998 239Q994 320 990 410T984 587T982 743V1242Q982 1312 1006 1343T1096 1374H1166L1178 1363Z" />
<glyph unicode="O" horiz-adv-x="1316" d="M322 684Q322 593 335 498T385 323T487 194T658 144Q763 144 828 193T929 323T978 498T992 684Q992 775 979 869T930 1044T829 1173T658 1222Q553 1222 487 1173T385 1044T336 870T322 684ZM99 684Q99 886 159 1046T344
1299T658 1392Q801 1392 906 1339T1080 1189T1182 964T1216 684Q1216 481 1156 321T972 67T658 -26Q515 -26 410 28T236 178T133 404T99 684Z" />
<glyph unicode="P" horiz-adv-x="1135" d="M1064 929Q1064 783 1005 684T843 534T605 483H305V647Q338 648 396 649T512 651T598 652Q699 652 751 696T823 805T843 929Q843 990 824 1053T752 1160T598 1204Q556 1204 500 1204T394 1206V0Q370 -4 341 -6T286 -8Q264
-8 234 -6T181 0V1355L194 1367Q307 1369 405 1371T605 1374Q738 1374 841 1325T1004 1177T1064 929Z" />
<glyph unicode="Q" horiz-adv-x="1303" d="M319 684Q319 592 332 498T381 324T481 196T652 147Q756 147 821 196T921 324T968 497T981 684Q981 776 969 871T922 1045T822 1173T652 1222Q546 1222 481 1174T381 1046T333 871T319 684ZM99 684Q99 887 157 1047T337
1299T652 1392Q846 1392 968 1299T1147 1045T1204 683Q1204 563 1180 447T1106 235T979 81T795 21Q766 3 737 -11T659 -26Q461 -26 338 66T157 319T99 684ZM591 42L807 112L950 10Q1013 -34 1056 -58T1134 -91T1203 -101Q1200 -179 1156 -217T1059 -255Q1011 -255
975 -241T906 -201L591 42Z" />
<glyph unicode="R" horiz-adv-x="1201" d="M1078 964Q1078 872 1045 799T953 674T822 600Q872 583 907 536T964 431L1053 196Q1075 137 1095 106T1142 51Q1121 20 1080 3T998 -14Q938 -14 910 19T858 117L759 387Q734 456 692 503T556 550H305V715Q350 717 407
719T519 722T614 723Q712 723 765 759T838 850T858 964Q858 1025 838 1080T765 1171T614 1206Q585 1206 547 1206T468 1206T393 1208V0Q368 -4 340 -6T285 -8Q263 -8 234 -6T181 0V1355L194 1367Q307 1369 415 1371T625 1374Q764 1374 865 1327T1022 1189T1078
964Z" />
<glyph unicode="S" horiz-adv-x="1111" d="M60 124Q65 170 91 215T150 287Q237 230 343 191T553 152Q674 152 740 204T807 340Q807 410 760 464T625 556L383 658Q258 711 183 794T108 1005Q108 1114 165 1201T325 1340T561 1392Q686 1392 796 1360T984 1289Q982
1243 961 1198T907 1123Q829 1162 736 1189T564 1217Q453 1217 389 1163T325 1029Q325 963 371 921T492 848L731 749Q816 713 884 660T991 536T1030 375Q1030 261 976 170T814 27T540 -26Q416 -26 289 14T60 124Z" />
<glyph unicode="T" horiz-adv-x="984" d="M35 1187Q30 1210 28 1233T26 1276Q26 1296 28 1319T35 1366H954Q960 1348 963 1326T966 1282Q966 1230 937 1209T847 1187H715Q696 1187 659 1188T600 1189H388Q368 1189 331 1188T273 1187H35ZM388 1041Q388 1082 388
1114T389 1189V1277H600V1189Q600 1147 600 1115T600 1041V0Q575 -4 547 -6T495 -8Q470 -8 442 -6T388 0V1041Z" />
<glyph unicode="U" horiz-adv-x="1338" d="M1174 479Q1174 314 1112 202T936 32T668 -26Q516 -26 403 31T227 201T164 479V1362L176 1374H258Q323 1374 350 1342T377 1239V480Q377 315 451 231T669 146Q814 146 888 230T962 480V1366Q985 1370 1013 1372T1065
1374Q1089 1374 1119 1372T1174 1366V479Z" />
<glyph unicode="V" horiz-adv-x="1149" d="M917 1366Q938 1371 962 1372T1009 1374Q1032 1374 1059 1371T1107 1362L1115 1347L719 -1Q680 -5 638 -7T555 -9Q493 -9 460 12T409 93L41 1347Q71 1362 104 1371T171 1380Q215 1380 243 1357T287 1276L495 554Q509
505 524 445T554 324T582 210Q585 198 589 195T599 191L917 1366Z" />
<glyph unicode="W" horiz-adv-x="1700" d="M60 1355Q90 1368 119 1374T178 1380Q231 1380 256 1355T292 1266L417 586Q426 535 438 462T463 318T481 199Q484 182 487 179T499 176L717 1337Q748 1343 787 1345T855 1347Q887 1347 926 1345T992 1337L1192 199Q1195
183 1199 180T1211 176Q1220 237 1232 313T1258 462T1282 588L1436 1366Q1458 1370 1483 1372T1531 1374Q1557 1374 1584 1371T1633 1362L1644 1347L1358 2Q1319 -4 1264 -6T1168 -9Q1120 -9 1084 8T1037 94L940 630Q923 729 901 862T859 1124H846Q825 996 802
864T758 630L635 1Q597 -4 546 -6T453 -9Q403 -9 364 9T311 95L60 1355Z" />
<glyph unicode="X" horiz-adv-x="1174" d="M84 1333Q117 1357 154 1368T225 1380Q265 1380 296 1362T358 1296L1139 33Q1106 10 1069 -2T998 -14Q958 -14 926 4T863 71L84 1333ZM891 1366Q905 1370 929 1372T979 1375Q1011 1375 1041 1370T1089 1357L1096 1343L682
672L595 578L246 0Q231 -4 206 -6T155 -9Q123 -9 93 -4T42 10L36 24L498 767L585 861L891 1366Z" />
<glyph unicode="Y" horiz-adv-x="1006" d="M398 567H611V0Q586 -4 558 -6T504 -8Q481 -8 451 -6T398 0V567ZM789 1366Q811 1372 834 1373T879 1375Q906 1375 933 1372T982 1361L991 1346L593 396H418L18 1342Q53 1361 86 1371T151 1381Q196 1381 221 1359T265
1289L424 903Q445 851 467 783T507 654H518Q530 694 546 742T579 835T606 908L789 1366Z" />
<glyph unicode="Z" horiz-adv-x="1124" d="M629 984Q660 1031 702 1086T786 1196L780 1202Q756 1198 713 1195T622 1191T533 1188T468 1187H146Q141 1205 140 1223T138 1259Q138 1287 142 1313T154 1366H978Q992 1319 998 1293T1006 1253T1008 1229Q1008 1209
1002 1188T981 1143L478 392Q446 344 403 286T321 177L327 171Q391 177 456 180T568 183H776Q856 183 914 192T1013 221Q1020 198 1024 172T1029 119Q1029 61 992 31T881 0H122Q111 46 105 71T97 110T95 134Q95 156 102 180T123 226L629 984Z" />
<glyph unicode="[" horiz-adv-x="687" d="M199 1517L404 1444V-326L199 -385V1517ZM213 -399L199 -385L216 -224L609 -235Q615 -249 620 -273T625 -323Q625 -336 624 -353T618 -383L213 -399ZM618 1515Q622 1502 623 1485T625 1455Q625 1431 620 1406T609 1366L216
1356L199 1517L213 1530L618 1515Z" />
<glyph unicode="\" horiz-adv-x="844" d="M651 -322Q695 -317 744 -300T830 -254L199 1422Q154 1420 106 1403T20 1355L651 -322Z" />
<glyph unicode="]" horiz-adv-x="687" d="M488 1517L283 1444V-326L488 -385V1517ZM474 -399L488 -385L472 -224L79 -235Q74 -249 68 -273T62 -323Q62 -336 63 -353T69 -383L474 -399ZM69 1515Q65 1502 64 1485T62 1455Q62 1431 68 1406T79 1366L472 1356L488
1517L474 1530L69 1515Z" />
<glyph unicode="^" horiz-adv-x="1060" d="M972 612Q954 607 927 605T869 602Q841 602 815 604T769 612L605 964Q594 988 582 1018T558 1079T537 1133H523Q514 1110 503 1080T479 1019T455 964L292 612Q272 607 246 605T191 602Q161 602 134 604T88 612L419 1296Q439
1301 469 1303T531 1306Q563 1306 592 1304T641 1296L972 612Z" />
<glyph unicode="_" horiz-adv-x="1059" d="M-2 -310Q-10 -272 -10 -229Q-10 -186 -2 -148H1061Q1069 -186 1069 -229Q1069 -272 1061 -310H-2Z" />
<glyph unicode="`" horiz-adv-x="796" d="M327 1478Q282 1463 240 1424T182 1342L524 1076Q552 1084 577 1107T614 1159L327 1478Z" />
<glyph unicode="a" horiz-adv-x="1014" d="M87 268Q87 383 137 456T274 565T470 600Q526 600 596 595T728 576V437Q675 450 608 453T483 457Q392 457 342 411T292 283Q292 222 326 180T427 137Q500 137 581 187T718 337L750 180Q714 138 661 90T539 8T381 -26Q282
-26 217 18T119 129T87 268ZM921 92Q914 64 892 33T844 -15Q781 -2 742 32T685 113T662 214V665Q662 759 619 800T498 842Q423 842 343 819T183 766Q159 790 143 833T124 917Q180 941 251 962T396 995T539 1008Q638 1008 711 972T824 862T865 673V263Q865 207 876
165T921 92Z" />
<glyph unicode="b" horiz-adv-x="1055" d="M358 50H157V1458L169 1471H246Q311 1471 334 1440T358 1339V50ZM969 507Q969 332 908 216T745 43T520 -15Q424 -15 332 2T157 50L258 209Q320 172 382 155T522 137Q590 137 643 178T728 300T759 504Q759 678 706 755T576
832Q502 833 431 785T318 661L288 830Q318 868 366 908T479 976T623 1004Q738 1004 814 941T930 765T969 507Z" />
<glyph unicode="c" horiz-adv-x="943" d="M678 606Q681 671 667 728T614 820T502 855Q407 855 354 764T301 488Q301 308 360 226T527 143Q596 143 657 174T771 244Q798 227 824 191T858 121Q790 55 697 15T496 -26Q389 -26 312 15T185 127T112 292T88 488Q88 626
123 726T218 889T352 983T507 1013Q598 1013 666 986T779 915T846 817T869 712Q869 660 844 629T764 598Q718 598 678 606Z" />
<glyph unicode="d" horiz-adv-x="1060" d="M900 281Q900 223 912 172T956 92Q949 64 927 33T879 -15Q781 5 740 79T699 249V1458L712 1471H790Q854 1471 877 1440T900 1339V281ZM89 482Q89 660 145 776T288 948T471 1004Q567 1004 647 965T797 875L774 711Q716
756 646 798T500 840Q444 840 399 801T326 683T299 480Q299 362 324 288T390 180T479 146Q530 146 585 173T687 258T760 404L802 251Q784 184 732 121T603 16T432 -26Q319 -26 242 38T127 217T89 482Z" />
<glyph unicode="e" horiz-adv-x="1001" d="M217 428V578H704V604Q704 674 684 732T621 826T505 861Q403 861 352 775T301 538V475Q301 381 320 306T390 186T531 142Q607 142 677 164T810 219Q836 194 853 157T875 87Q804 35 705 5T500 -26Q381 -26 302 16T176
132T109 298T88 492Q88 641 134 759T274 945T505 1013Q635 1013 723 956T857 803T902 587Q902 539 899 505T887 428H217Z" />
<glyph unicode="f" horiz-adv-x="670" d="M300 985L671 989Q680 952 680 914Q680 894 678 875T671 837L299 842L30 837Q26 855 24 874T21 914Q21 933 23 951T30 989L300 985ZM202 898Q196 970 188 1038T179 1167Q179 1256 215 1326T321 1437T489 1479Q556 1479
626 1465T744 1431Q744 1395 732 1356T697 1293Q658 1305 612 1314T524 1323Q454 1323 415 1280T375 1155Q375 1096 384 1030T403 895V0Q380 -4 354 -6T301 -8Q277 -8 251 -6T202 0V898Z" />
<glyph unicode="g" horiz-adv-x="1056" d="M958 895Q926 867 914 816T902 706V113Q902 -1 892 -80T860 -214T807 -308Q760 -368 675 -404T477 -441Q385 -441 292 -421T130 -373Q131 -335 146 -290T185 -219Q248 -248 323 -264T457 -281Q559 -281 612 -244T684
-143T703 -2V739Q703 834 743 908T881 1002Q906 987 929 955T958 895ZM89 492Q89 670 145 785T289 956T471 1013Q558 1013 622 987T732 921T812 839L784 663Q732 745 655 796T503 848Q445 848 399 810T326 692T299 490Q299 312 351 234T477 155Q558 155 631 207T746
340L777 182Q750 137 700 91T583 14T436 -17Q321 -17 244 47T128 225T89 492Z" />
<glyph unicode="h" horiz-adv-x="1089" d="M358 0Q338 -4 312 -6T256 -8Q229 -8 204 -6T157 0V1458L169 1471H247Q312 1471 335 1440T358 1339V0ZM941 211Q941 159 948 113T974 31Q951 12 917 0T845 -13Q784 -13 760 20T735 118V626Q735 727 710 772T611 818Q560
818 502 794T391 725T306 622V820Q373 897 470 950T676 1004Q770 1004 828 961T914 843T941 676V211Z" />
<glyph unicode="i" horiz-adv-x="542" d="M389 0Q368 -4 342 -6T287 -8Q259 -8 232 -6T183 0V733Q183 786 165 811T97 837H74Q65 874 65 910Q65 928 67 946T74 985Q112 990 145 992T201 994H227Q303 994 346 947T389 817V0ZM122 1254Q122 1276 126 1300T140 1344Q158
1354 189 1361T250 1368Q278 1368 311 1361T360 1344Q369 1325 373 1300T378 1254Q378 1233 374 1208T360 1165Q346 1155 312 1148T250 1140Q221 1140 189 1147T140 1165Q131 1183 127 1208T122 1254Z" />
<glyph unicode="j" horiz-adv-x="556" d="M402 -39Q402 -158 377 -237T290 -363T114 -439Q92 -419 76 -385T53 -312Q110 -284 141 -255T186 -182T199 -65V733Q199 786 180 811T112 837H71Q63 874 63 910Q63 928 65 946T71 985Q112 990 153 992T218 994H245Q318
994 360 947T402 817V-39ZM133 1254Q133 1276 137 1300T151 1344Q169 1354 200 1361T261 1368Q289 1368 322 1361T371 1344Q380 1325 384 1300T389 1254Q389 1233 385 1208T371 1165Q357 1155 323 1148T261 1140Q232 1140 200 1147T151 1165Q142 1183 138 1208T133
1254Z" />
<glyph unicode="k" horiz-adv-x="1003" d="M358 0Q338 -4 311 -6T256 -8Q228 -8 203 -6T157 0V1458L169 1471H247Q312 1471 335 1440T358 1339V0ZM874 207Q897 146 919 108T970 50Q948 24 910 6T831 -13Q776 -13 750 16T701 103L620 299Q589 377 554 403T449 430Q421
430 391 428T326 423L254 415V565H521Q630 565 696 520T805 372L874 207ZM687 629Q647 561 587 531T441 501H275V595L426 601Q442 601 453 608T474 630L649 907Q674 949 703 971T785 994Q816 994 840 994T894 991L906 975L687 629Z" />
<glyph unicode="l" horiz-adv-x="587" d="M508 155Q516 133 520 106T525 51Q525 40 524 28T520 6Q486 1 439 -4T350 -9Q253 -9 203 42T153 197V1458L166 1471H244Q309 1471 332 1440T355 1339V243Q355 199 374 177T434 155H508Z" />
<glyph unicode="m" horiz-adv-x="1594" d="M246 996Q310 996 336 957T362 849V0Q341 -4 315 -6T260 -8Q232 -8 205 -6T157 0V982L169 996H246ZM698 627Q698 732 668 775T579 819Q530 819 473 788T368 704T292 588V789Q336 851 392 899T513 976T645 1005Q732 1005
790 964T876 852T905 695V0Q883 -4 856 -6T802 -8Q774 -8 747 -6T698 0V627ZM1241 629Q1241 734 1211 776T1121 819Q1073 819 1018 789T912 706T829 583V813Q879 867 937 910T1060 979T1191 1005Q1278 1005 1335 963T1419 851T1447 692V211Q1447 159 1454 113T1480
31Q1457 12 1423 0T1351 -13Q1290 -13 1266 20T1241 118V629Z" />
<glyph unicode="n" horiz-adv-x="1091" d="M246 996Q311 996 336 957T362 849V0Q341 -4 315 -6T260 -8Q232 -8 205 -6T157 0V983L169 996H246ZM943 211Q943 159 950 113T977 31Q954 12 920 0T847 -13Q787 -13 763 20T738 118V627Q738 728 713 773T613 819Q563
819 505 795T394 727T310 623V821Q377 898 474 951T679 1005Q772 1005 830 962T915 844T943 677V211Z" />
<glyph unicode="o" horiz-adv-x="1040" d="M952 494Q952 341 903 224T757 40T519 -26Q377 -26 281 41T137 225T88 494Q88 646 137 763T282 946T519 1013Q662 1013 758 947T903 763T952 494ZM301 494Q301 401 320 318T387 184T521 132Q607 132 654 183T720 318T739
494Q739 587 720 670T654 805T521 857Q435 857 387 805T320 670T301 494Z" />
<glyph unicode="p" horiz-adv-x="1060" d="M232 996Q298 996 328 954T359 835V-299Q359 -367 336 -399T247 -431H169L157 -418V983L169 996H232ZM972 506Q972 327 916 211T772 39T588 -17Q493 -17 413 22T263 113L286 276Q344 231 414 190T560 148Q616 148 662
186T735 305T762 507Q762 626 737 699T670 807T580 841Q530 841 475 814T372 730T300 583L258 736Q277 803 329 867T457 972T627 1013Q742 1013 818 949T933 770T972 506Z" />
<glyph unicode="q" horiz-adv-x="1058" d="M89 492Q89 670 145 785T289 956T471 1013Q558 1013 622 988T732 923T812 842L784 663Q732 745 655 796T503 848Q446 848 400 810T326 692T299 490Q299 372 323 298T389 189T477 155Q558 155 631 207T746 340L777 179Q750
134 700 89T583 13T436 -17Q321 -17 244 47T128 225T89 492ZM700 739Q700 834 741 908T880 1002Q905 987 927 955T958 895Q925 867 914 816T902 706V-418L889 -431H811Q746 -431 723 -399T700 -299V739Z" />
<glyph unicode="r" horiz-adv-x="736" d="M726 990Q726 948 715 893T676 795Q657 800 636 802T595 805Q538 805 496 782T423 720T373 638T339 549L309 587Q310 658 327 730T380 864T475 963T620 1001Q647 1001 672 999T726 990ZM100 892Q107 920 129 952T175 1002Q275
980 323 902T379 704V0Q359 -4 332 -6T277 -8Q249 -8 222 -6T174 0V686Q174 766 150 817T100 892Z" />
<glyph unicode="s" horiz-adv-x="875" d="M62 74Q64 108 84 150T130 218Q193 184 265 157T411 129Q493 129 541 164T590 254Q590 296 558 332T464 391L348 433Q279 459 222 496T130 588T95 718Q95 810 141 876T267 977T448 1013Q529 1013 620 992T774 941Q775
916 768 887T746 832T714 790Q661 814 591 835T446 856Q381 856 342 824T302 739Q302 697 332 669T425 618L549 573Q662 532 732 460T803 271Q803 133 695 54T411 -26Q306 -26 217 4T62 74Z" />
<glyph unicode="t" horiz-adv-x="700" d="M193 1162Q193 1232 216 1263T304 1294H382L395 1280V241Q395 202 414 179T477 155H615Q623 133 627 106T632 51Q632 40 632 28T628 6Q578 -1 521 -5T405 -9Q303 -9 248 42T193 197V1162ZM642 989Q652 952 652 914Q652
893 650 875T642 837L315 842L47 837Q38 874 38 914Q38 950 47 989L318 985L642 989Z" />
<glyph unicode="u" horiz-adv-x="1094" d="M936 280Q936 221 947 171T992 91Q984 62 962 32T914 -15Q816 5 773 79T729 250V987Q750 991 777 993T832 995Q860 995 887 993T936 987V280ZM147 776Q147 828 140 874T115 956Q138 975 172 987T244 1000Q304 1000 329
967T354 870V360Q354 260 379 214T478 168Q529 168 587 192T697 260T782 364V167Q716 89 619 36T412 -18Q320 -18 261 25T175 143T147 310V776Z" />
<glyph unicode="v" horiz-adv-x="910" d="M708 988Q729 993 748 994T786 996Q814 996 840 992T890 980L896 971Q862 856 820 722T735 453T654 200T587 0Q553 -6 514 -8T438 -11Q377 -11 345 10T289 105L11 971Q46 987 75 994T131 1002Q174 1002 201 983T242 914L376
474Q392 425 407 369T434 263T453 183Q456 172 459 170T472 167L708 988Z" />
<glyph unicode="w" horiz-adv-x="1445" d="M45 974Q80 990 109 996T166 1002Q207 1002 230 983T262 918L353 502Q373 409 390 318T418 171Q421 153 434 153L602 982Q627 988 666 990T725 993Q748 993 787 991T848 982L1011 171Q1015 153 1027 153Q1045 241 1062
327T1100 502L1209 988Q1226 992 1250 994T1297 996Q1321 996 1350 993T1400 980L1406 970L1163 -1Q1133 -6 1089 -7T1007 -9Q948 -9 913 9T864 102L806 380Q797 433 784 502T757 648T730 796H720Q707 724 693 649T664 505T638 381L557 0Q523 -5 477 -7T392 -9Q339
-9 305 11T253 104L45 974Z" />
<glyph unicode="x" horiz-adv-x="921" d="M55 957Q86 979 124 991T197 1004Q235 1004 257 988T301 941L894 32Q864 13 826 -1T751 -15Q713 -15 689 1T645 47L55 957ZM662 987Q676 991 700 993T745 996Q776 996 802 992T847 981L854 965L541 477L485 419L228 -1Q214
-6 190 -8T141 -11Q112 -11 85 -7T37 6L30 22L376 561L438 622L662 987Z" />
<glyph unicode="y" horiz-adv-x="935" d="M202 -437Q155 -437 99 -427T11 -405Q8 -369 21 -325T55 -257Q79 -265 121 -273T203 -281Q271 -281 315 -251T390 -165T443 -34L450 -10Q388 -8 351 14T296 97L33 971Q68 988 100 995T158 1002Q195 1002 221 983T262 910L397
450Q411 404 425 350T451 245T472 156Q476 142 491 142L710 988Q729 992 753 994T799 996Q826 996 853 993T905 982L912 970L647 32Q604 -121 552 -225T417 -383T202 -437Z" />
<glyph unicode="z" horiz-adv-x="893" d="M429 639Q463 685 506 736T588 832L582 840Q553 836 506 833T408 829T316 828H106Q102 844 101 862T99 894Q99 913 102 938T110 987H779Q795 943 802 916T810 866Q810 850 804 832T783 796L458 356Q424 309 382 257T303
161L309 153Q358 158 407 160T494 162H589Q657 162 712 167T805 189Q815 165 820 143T825 98Q825 53 797 27T695 0H99Q83 44 77 68T70 113Q70 131 77 151T102 195L429 639Z" />
<glyph unicode="{" horiz-adv-x="692" d="M635 -437L532 -420Q409 -400 329 -319T249 -93V247Q249 336 202 399T84 483Q75 507 75 551T84 619Q154 640 201 702T249 854V1194Q249 1338 329 1419T532 1521L635 1537Q649 1522 659 1496T673 1443T672 1396L573 1364Q519
1347 489 1304T458 1192V858Q458 763 413 679T292 558V542Q368 508 413 424T458 243V-91Q458 -160 488 -203T573 -263L672 -295Q677 -315 673 -342T659 -395T635 -437Z" />
<glyph unicode="|" horiz-adv-x="511" d="M159 1549Q180 1554 208 1555T256 1557Q278 1557 303 1556T352 1549V-281Q329 -287 304 -289T256 -291Q236 -291 208 -289T159 -281V1549Z" />
<glyph unicode="}" horiz-adv-x="692" d="M57 -437Q44 -421 34 -396T19 -343T20 -295L119 -263Q174 -247 204 -204T234 -91V243Q234 339 279 423T401 542V558Q325 594 280 678T234 858V1192Q234 1260 204 1303T119 1364L20 1396Q15 1416 19 1443T33 1496T57 1537L160
1521Q283 1500 363 1419T444 1194V854Q444 765 491 703T608 619Q618 595 618 551T608 483Q538 462 491 399T444 247V-93Q444 -237 364 -318T160 -420L57 -437Z" />
<glyph unicode="~" horiz-adv-x="1171" d="M708 640Q736 629 761 623T811 616Q847 616 877 633T932 681L969 724Q1003 722 1040 701T1092 644L1065 597Q1019 514 950 469T790 423Q749 423 706 433T620 463L463 534Q436 545 410 552T360 559Q324 559 294 542T239
494L201 450Q168 453 131 474T79 530L106 577Q153 661 222 706T381 752Q423 752 466 741T551 711L708 640Z" />
<glyph unicode="&#xa0;" horiz-adv-x="440" />
<glyph unicode="&#xa1;" horiz-adv-x="577" d="M369 607Q380 407 392 210T405 -189V-369Q376 -377 333 -380T245 -380T172 -368V-187Q172 12 185 210T208 607Q229 613 249 615T289 618Q306 618 328 616T369 607ZM289 777Q258 777 227 783T176 801Q168 815 164
845T159 896Q159 916 163 945T176 988Q196 1000 227 1006T289 1013Q320 1013 350 1007T401 988Q409 975 413 946T418 896Q418 875 414 845T401 801Q381 790 351 784T289 777Z" />
<glyph unicode="&#xa2;" horiz-adv-x="1080" d="M564 -50Q544 -50 521 -48T481 -42V241H646V-42Q630 -46 607 -48T564 -50ZM487 1014V1308Q504 1312 526 1314T570 1316Q591 1316 613 1314T652 1308V1014H487ZM566 135Q441 135 356 179T219 295T146 455T124 628Q124
803 188 914T355 1078T574 1131Q671 1131 743 1104T862 1033T932 938T956 837Q956 780 932 748T846 715Q826 715 806 717T769 725Q771 784 754 840T693 934T569 972Q458 972 398 883T337 628Q337 463 406 384T596 305Q669 305 736 336T856 413Q884 396 911 362T949
294Q907 245 845 210T712 155T566 135Z" />
<glyph unicode="&#xa3;" horiz-adv-x="1080" d="M176 0Q158 53 153 79T148 123Q148 156 166 181T203 228L227 255Q271 304 301 357T331 484Q331 564 308 636T262 780T239 931Q239 1025 284 1108T416 1243T628 1295Q738 1295 822 1255T962 1163Q954 1124 926 1084T860
1023Q811 1068 754 1094T640 1120Q565 1120 508 1072T451 919Q451 856 469 790T506 653T525 499Q525 398 475 315T357 170L362 165Q429 170 512 173T687 176H977Q977 70 943 35T840 0H176ZM155 533Q148 564 148 608Q148 650 155 685L403 683L811 685Q815 669 817
650T820 610Q820 590 818 569T811 533L403 535L155 533Z" />
<glyph unicode="&#xa4;" horiz-adv-x="1080" d="M538 245Q426 245 338 295T201 432T151 632Q151 746 200 833T338 971T538 1021Q653 1021 740 971T878 834T928 632Q928 520 878 433T741 295T538 245ZM538 395Q636 395 687 464T738 632Q738 731 687 801T538 871Q442
871 392 801T341 632Q341 535 391 465T538 395ZM167 147Q133 165 104 195T54 260L261 484L392 351L167 147ZM261 780L54 1005Q72 1038 102 1068T167 1117L390 913L261 780ZM820 781L689 914L913 1119Q947 1101 977 1071T1026 1006L820 781ZM910 146L687 351L818
482L1023 259Q1006 226 976 196T910 146Z" />
<glyph unicode="&#xa5;" horiz-adv-x="1080" d="M439 443L86 1249Q120 1266 154 1276T219 1286Q258 1286 281 1267T321 1204L454 886Q477 829 498 769T539 640H550Q570 702 594 767T640 886L798 1270Q819 1276 840 1278T881 1280Q907 1280 933 1277T986 1267L994
1251L636 443H439ZM538 -8Q517 -8 488 -6T435 0V506H639V0Q615 -4 588 -6T538 -8ZM146 324Q143 340 141 358T138 396Q138 416 140 434T146 469H929Q938 433 938 397Q938 362 929 324H146ZM146 624Q143 639 141 657T138 697Q138 717 140 735T146 770L419 769V624H146ZM656
624V769L929 770Q932 756 935 737T938 697Q938 678 936 660T929 624H656Z" />
<glyph unicode="&#xa6;" horiz-adv-x="499" d="M153 493Q175 498 202 499T250 501Q272 501 297 500T346 493V-281Q323 -287 298 -289T250 -291Q230 -291 203 -289T153 -281V493ZM153 1549Q175 1554 202 1555T250 1557Q272 1557 297 1556T346 1549V775Q323 769
298 767T250 765Q230 765 203 767T153 775V1549Z" />
<glyph unicode="&#xa7;" horiz-adv-x="971" d="M507 365Q558 385 603 414T676 485T704 577Q704 623 675 657T599 716T497 763L393 804Q324 831 266 871T172 967T137 1101Q137 1187 184 1252T312 1355T494 1392Q575 1392 659 1372T807 1322Q809 1283 792 1240T746
1173Q694 1195 629 1214T497 1234Q431 1234 388 1203T344 1116Q344 1071 377 1042T470 988L586 942Q672 908 745 865T863 760T909 608Q909 526 862 458T740 339T578 263L507 365ZM463 812Q413 793 368 763T295 692T267 601Q267 555 295 521T371 462T475 414L578
374Q648 347 706 307T799 209T834 75Q834 -11 787 -76T656 -179T463 -216Q377 -216 286 -193T131 -132Q130 -93 151 -50T198 15Q247 -10 316 -34T467 -59Q540 -59 583 -27T627 60Q627 105 594 135T502 189L385 236Q301 271 228 313T108 418T62 569Q62 652 109 720T232
839T393 915L463 812Z" />
<glyph unicode="&#xa8;" horiz-adv-x="796" d="M100 1229Q100 1248 103 1270T115 1309Q132 1320 160 1326T212 1332Q236 1332 264 1326T309 1309Q317 1292 320 1270T324 1229Q324 1211 321 1189T309 1149Q292 1139 264 1133T212 1126Q188 1126 160 1132T115 1149Q107
1166 104 1188T100 1229ZM472 1229Q472 1248 475 1270T487 1309Q504 1320 532 1326T584 1332Q608 1332 635 1326T680 1309Q689 1292 692 1270T696 1229Q696 1211 693 1189T680 1149Q663 1139 636 1133T584 1126Q560 1126 532 1132T487 1149Q479 1166 476 1188T472
1229Z" />
<glyph unicode="&#xa9;" horiz-adv-x="1605" d="M80 682Q80 835 135 966T288 1195T517 1349T802 1404Q955 1404 1086 1349T1316 1196T1469 966T1525 682Q1525 529 1470 398T1316 169T1087 17T802 -38Q649 -38 518 16T288 169T135 398T80 682ZM253 682Q253 563
293 459T408 276T582 153T802 108Q921 108 1022 152T1197 276T1311 459T1352 682Q1352 801 1312 905T1197 1089T1022 1213T802 1258Q682 1258 582 1213T408 1089T294 906T253 682ZM945 760Q948 805 936 848T891 920T802 949Q724 949 680 881T635 683Q635 557 685
491T826 424Q875 424 928 448T1024 505Q1048 492 1068 463T1096 407Q1047 356 965 322T799 287Q685 287 608 339T493 482T455 683Q455 822 507 910T641 1039T808 1081Q906 1081 972 1044T1072 952T1106 844Q1106 802 1085 776T1013 749Q995 749 977 752T945 760Z"
/>
<glyph unicode="&#xaa;" horiz-adv-x="848" d="M79 717Q79 807 118 863T227 946T384 973Q431 973 487 969T595 959V837Q550 844 496 848T391 853Q327 853 291 820T255 729Q255 685 282 653T357 621Q412 621 479 663T590 779L619 651Q590 617 546 578T445 512T317
485Q238 485 186 518T106 605T79 717ZM757 584Q753 560 732 533T684 492Q610 506 571 560T532 700V1022Q532 1090 498 1120T413 1150Q350 1150 289 1135T162 1094Q142 1115 127 1149T111 1219Q178 1248 269 1270T445 1292Q524 1292 583 1264T675 1178T709 1029V720Q709
675 717 641T757 584Z" />
<glyph unicode="&#xab;" horiz-adv-x="1108" d="M922 74L526 445Q516 471 516 510T526 575L914 945Q949 934 982 902T1028 835L751 513L1039 182Q1031 160 1012 138T969 98T922 74ZM725 74L329 445Q319 471 319 510T329 575L717 945Q752 934 785 902T831 835L554
513L842 182Q834 160 815 138T772 98T725 74Z" />
<glyph unicode="&#xac;" horiz-adv-x="1080" d="M113 727Q108 706 106 683T104 639Q104 620 106 595T113 550H672Q697 550 725 551T776 552L956 550V715L943 727H113ZM768 568Q769 544 768 514T766 459V270Q791 265 814 264T863 262Q888 262 912 263T956 270V633H766L768
568Z" />
<glyph unicode="&#xae;" horiz-adv-x="1186" d="M69 962Q69 1109 138 1228T327 1417T592 1487Q739 1487 857 1417T1046 1228T1117 962Q1117 815 1047 697T858 509T592 439Q446 439 327 508T139 696T69 962ZM206 962Q206 852 256 762T394 617T592 563Q703 563 790
617T928 761T979 962Q979 1072 929 1162T791 1307T592 1362Q482 1362 395 1308T257 1163T206 962ZM796 1073Q796 1016 765 984T695 940Q717 931 729 915T761 862L789 810Q798 794 809 778T833 753Q820 735 798 722T749 708Q722 708 706 724T673 769L625 863Q615
881 602 891T564 901H464V995Q490 997 529 997T589 997Q632 997 651 1017T670 1064Q670 1089 653 1108T597 1128Q578 1128 557 1128T520 1128V718Q494 711 459 711Q423 711 398 718V1212L404 1218Q452 1220 506 1221T605 1222Q704 1222 750 1181T796 1073Z" />
<glyph unicode="&#xaf;" horiz-adv-x="796" d="M118 1151Q112 1171 110 1189T108 1232Q108 1257 110 1276T118 1317H679Q684 1295 686 1278T688 1233Q688 1209 686 1190T679 1151H118Z" />
<glyph unicode="&#xb0;" horiz-adv-x="741" d="M60 979Q60 1069 100 1139T212 1251T371 1292Q460 1292 530 1251T641 1140T682 979Q682 889 641 818T530 705T371 664Q283 664 212 705T101 817T60 979ZM217 979Q217 903 258 854T372 805Q441 805 482 854T524 979Q524
1053 483 1102T372 1152Q300 1152 259 1103T217 979Z" />
<glyph unicode="&#xb1;" horiz-adv-x="1080" d="M143 773Q139 751 137 734T135 691Q135 666 137 647T143 606H354Q378 606 406 607T457 608H623Q647 608 675 607T727 606H937Q941 628 943 647T945 691Q945 716 943 733T937 773H727Q703 773 675 772T623 771H457Q434
771 406 772T354 773H143ZM447 871Q447 847 448 818T449 764V616Q449 592 448 563T447 509V303Q469 299 492 297T540 295Q565 295 588 297T633 303V509Q633 534 632 563T631 616V764Q631 789 632 818T633 871V1083Q612 1088 589 1089T540 1091Q515 1091 492 1090T447
1083V871ZM143 0Q139 23 137 42T135 86Q135 112 137 130T143 172H937Q941 148 943 130T945 86Q945 62 943 43T937 0H143Z" />
<glyph unicode="&#xb2;" horiz-adv-x="840" d="M124 1293Q149 1378 222 1438T407 1499Q531 1499 605 1424T680 1240Q680 1172 653 1120T587 1031T513 968L418 899Q355 853 322 816T288 747V642H169Q137 678 125 702T112 751Q112 807 158 870T268 983L394 1080Q433
1110 466 1148T499 1238Q499 1286 470 1316T393 1346Q346 1346 311 1313T257 1232Q235 1233 208 1242T157 1264T124 1293ZM704 799Q704 733 692 699T658 654T602 642H191L170 750Q211 769 263 779T373 794T487 799H704Z" />
<glyph unicode="&#xb3;" horiz-adv-x="840" d="M521 912Q521 979 480 1013T384 1048Q363 1048 342 1044T301 1029Q278 1039 259 1066T233 1124Q284 1141 344 1152T453 1164Q519 1164 575 1134T666 1046T700 910Q700 815 653 753T532 660T378 629Q292 629 222 654T106
716Q112 751 131 783T175 837Q215 810 264 791T370 772Q436 772 478 808T521 912ZM523 1207Q490 1175 436 1143T330 1092L233 1124L388 1279Q403 1293 423 1311T462 1342L458 1348Q433 1344 386 1341T305 1338H144Q140 1357 138 1374T136 1404Q136 1422 139 1443T150
1485H631Q643 1463 653 1436T664 1384Q664 1363 655 1346T626 1311L523 1207Z" />
<glyph unicode="&#xb4;" horiz-adv-x="796" d="M469 1478Q514 1463 555 1424T614 1342L272 1076Q244 1084 219 1107T182 1159L469 1478Z" />
<glyph unicode="&#xb5;" horiz-adv-x="1108" d="M230 455V319Q230 225 264 148T363 26T514 -19Q614 -19 687 35T801 171L791 362Q749 272 685 216T538 160Q457 160 409 212T360 360V455H230ZM949 987Q928 991 901 993T845 995Q818 995 791 993T743 987V251Q743
155 786 80T927 -15Q953 1 975 31T1005 91Q973 120 961 171T949 281V987ZM360 987Q339 991 313 993T258 995Q231 995 205 993T157 987V-213Q157 -256 151 -307T124 -395Q149 -415 181 -426T250 -437Q312 -437 331 -400T350 -298V159H360V987Z" />
<glyph unicode="&#xb6;" horiz-adv-x="1341" d="M573 121Q573 33 559 -27T503 -117T381 -148Q334 -148 282 -135T190 -106Q167 -135 153 -182T139 -263Q182 -281 255 -296T400 -311Q548 -311 631 -257T748 -98T783 155V1355L770 1368Q705 1371 656 1373T543 1375Q410
1375 306 1329T143 1187T83 942Q83 796 142 698T303 551T535 502H573V121ZM913 1353L926 1366H1125V-266Q1100 -270 1072 -272T1019 -274Q996 -274 966 -272T913 -266V1353ZM1021 1366H1285Q1292 1345 1294 1310T1294 1240T1285 1183H1205Q1176 1183 1147 1185T1091
1187H1021V1366Z" />
<glyph unicode="&#xb7;" horiz-adv-x="609" d="M172 526Q172 544 176 576T189 626Q208 637 241 644T304 652Q332 652 367 645T419 626Q429 608 433 576T438 526Q438 508 434 477T419 427Q402 416 367 409T304 401Q274 401 241 408T189 427Q180 445 176 476T172 526Z" />
<glyph unicode="&#xb8;" horiz-adv-x="796" d="M263 -149Q275 -115 296 -67T334 12H461Q451 -2 438 -29T418 -73Q492 -80 544 -127T597 -249Q597 -336 529 -391T357 -447Q311 -447 268 -435T200 -407Q202 -377 213 -350T241 -302Q260 -313 287 -321T341 -329Q388
-329 409 -306T430 -252Q430 -220 409 -198T345 -175Q333 -175 321 -177T299 -184Q287 -178 277 -169T263 -149Z" />
<glyph unicode="&#xb9;" horiz-adv-x="840" d="M547 716H375V1107Q375 1130 377 1163T382 1233T383 1299L382 1483Q404 1488 425 1490T466 1492Q486 1492 504 1490T547 1483V716ZM279 787Q297 787 327 787T375 786H547Q563 786 596 786T646 787H710Q714 771 716
752T719 715Q719 698 717 679T710 642H173Q169 662 167 679T165 715Q165 732 167 751T173 787H279ZM120 1210Q224 1270 283 1334T382 1483L444 1361Q418 1267 354 1204T197 1099Q167 1113 146 1145T120 1210Z" />
<glyph unicode="&#xba;" horiz-adv-x="825" d="M754 889Q754 796 729 712T641 567Q599 526 540 505T412 484Q344 484 285 504T185 567Q123 630 97 713T71 889Q71 981 96 1064T185 1210Q228 1250 286 1271T412 1292Q480 1292 540 1272T641 1210Q702 1146 728 1064T754
889ZM251 889Q251 818 266 758T317 661T413 624Q474 624 509 660T559 757T575 889Q575 960 560 1020T509 1117T413 1154Q353 1154 317 1118T266 1021T251 889Z" />
<glyph unicode="&#xbb;" horiz-adv-x="1108" d="M186 945L581 573Q592 548 592 509T581 443L194 74Q159 85 126 117T80 183L357 505L69 836Q77 859 95 881T138 920T186 945ZM639 945L1034 573Q1045 548 1045 509T1034 443L647 74Q612 85 579 117T533 183L810 505L522
836Q530 859 548 881T591 920T639 945Z" />
<glyph unicode="&#xbc;" horiz-adv-x="2002" d="M547 853H375V1244Q375 1267 377 1300T382 1370T383 1436L382 1620Q404 1625 425 1627T466 1629Q486 1629 504 1627T547 1620V853ZM279 924Q297 924 327 924T375 923H547Q563 923 596 923T646 924H710Q714 908 716
889T719 852Q719 835 717 816T710 779H173Q169 799 167 816T165 852Q165 869 167 888T173 924H279ZM120 1347Q224 1407 283 1471T382 1620L444 1498Q418 1404 354 1341T197 1236Q167 1250 146 1282T120 1347ZM1338 1366Q1364 1374 1404 1376T1483 1376T1540 1366L787
0Q762 -8 721 -10T642 -10T584 0L1338 1366ZM1296 156Q1281 180 1269 209T1257 260Q1257 277 1267 305T1286 351L1517 852Q1557 857 1606 847T1682 813L1531 488Q1520 464 1503 429T1468 360T1432 302L1434 298Q1459 301 1486 302T1537 303T1574 304H1776Q1790
304 1807 304T1839 305H1896Q1900 291 1901 273T1903 238Q1903 218 1900 195T1891 156H1836Q1824 156 1806 156T1775 157H1613Q1598 157 1575 157T1534 156H1296ZM1611 87Q1611 105 1612 123T1613 157V286Q1613 296 1612 318T1611 352V418Q1611 474 1641 508T1722
542H1771L1777 536V393Q1777 373 1776 348T1775 304V157Q1775 142 1776 124T1777 87V1Q1759 -4 1737 -6T1695 -9Q1674 -9 1652 -7T1611 1V87Z" />
<glyph unicode="&#xbd;" horiz-adv-x="2030" d="M547 853H375V1244Q375 1267 377 1300T382 1370T383 1436L382 1620Q404 1625 425 1627T466 1629Q486 1629 504 1627T547 1620V853ZM279 924Q297 924 327 924T375 923H547Q563 923 596 923T646 924H710Q714 908 716
889T719 852Q719 835 717 816T710 779H173Q169 799 167 816T165 852Q165 869 167 888T173 924H279ZM120 1347Q224 1407 283 1471T382 1620L444 1498Q418 1404 354 1341T197 1236Q167 1250 146 1282T120 1347ZM1338 1366Q1364 1374 1404 1376T1483 1376T1540 1366L787
0Q762 -8 721 -10T642 -10T584 0L1338 1366ZM1314 651Q1339 736 1412 796T1597 857Q1721 857 1795 782T1870 598Q1870 530 1843 478T1777 389T1703 326L1608 257Q1545 211 1512 174T1478 105V0H1359Q1327 36 1315 60T1302 109Q1302 165 1348 228T1458 341L1584
438Q1623 468 1656 506T1689 596Q1689 644 1660 674T1583 704Q1536 704 1501 671T1447 590Q1425 591 1398 600T1347 622T1314 651ZM1894 157Q1894 91 1882 57T1848 12T1792 0H1381L1360 108Q1401 127 1453 137T1563 152T1677 157H1894Z" />
<glyph unicode="&#xbe;" horiz-adv-x="1958" d="M521 1049Q521 1116 480 1150T384 1185Q363 1185 342 1181T301 1166Q278 1176 259 1203T233 1261Q284 1278 344 1289T453 1301Q519 1301 575 1271T666 1183T700 1047Q700 952 653 890T532 797T378 766Q292 766 222
791T106 853Q112 888 131 920T175 974Q215 947 264 928T370 909Q436 909 478 945T521 1049ZM523 1344Q490 1312 436 1280T330 1229L233 1261L388 1416Q403 1430 423 1448T462 1479L458 1485Q433 1481 386 1478T305 1475H144Q140 1494 138 1511T136 1541Q136 1559
139 1580T150 1622H631Q643 1600 653 1573T664 1521Q664 1500 655 1483T626 1448L523 1344ZM1292 1366Q1318 1374 1358 1376T1437 1376T1494 1366L741 0Q716 -8 675 -10T596 -10T538 0L1292 1366ZM1252 156Q1237 180 1225 209T1213 260Q1213 277 1223 305T1242
351L1473 852Q1513 857 1562 847T1638 813L1487 488Q1476 464 1459 429T1424 360T1388 302L1390 298Q1415 301 1442 302T1493 303T1530 304H1732Q1746 304 1763 304T1795 305H1852Q1856 291 1857 273T1859 238Q1859 218 1856 195T1847 156H1792Q1780 156 1762 156T1731
157H1569Q1554 157 1531 157T1490 156H1252ZM1567 87Q1567 105 1568 123T1569 157V286Q1569 296 1568 318T1567 352V418Q1567 474 1597 508T1678 542H1727L1733 536V393Q1733 373 1732 348T1731 304V157Q1731 142 1732 124T1733 87V1Q1715 -4 1693 -6T1651 -9Q1630
-9 1608 -7T1567 1V87Z" />
<glyph unicode="&#xbf;" horiz-adv-x="791" d="M779 -306Q698 -350 601 -378T397 -407Q226 -407 126 -314T26 -66Q26 73 101 167T287 321L412 391L428 595Q446 601 465 603T505 606Q524 606 546 604T587 595L598 297L581 274L484 225Q378 171 312 107T246 -45Q246
-126 298 -175T443 -225Q510 -225 576 -203T703 -151Q730 -173 753 -218T779 -306ZM505 768Q475 768 444 774T392 793Q384 807 380 836T375 886Q375 907 379 936T392 979Q412 991 443 997T505 1004Q576 1004 619 979Q627 965 631 936T636 886Q636 865 632 836T619
793Q599 781 568 775T505 768Z" />
<glyph unicode="&#xc0;" horiz-adv-x="1223" d="M491 1366Q516 1370 552 1372T615 1374Q639 1374 675 1372T734 1365L1183 13Q1160 -1 1127 -7T1059 -14Q1008 -14 981 9T932 98L712 794Q684 882 656 979T606 1156H595Q585 1111 571 1058T543 955T518 868L241 -2Q222
-6 198 -8T149 -10Q122 -10 95 -6T46 4L40 15L491 1366ZM464 330Q455 330 427 330T369 331T331 332H232L298 505H385Q394 505 419 505T470 506T504 507H704Q714 507 739 507T790 506T826 505H915L972 332H874Q865 332 836 332T777 331T739 330H464ZM436 1805Q416
1791 396 1764T362 1703T344 1635L779 1457Q806 1473 821 1504T842 1564L436 1805Z" />
<glyph unicode="&#xc1;" horiz-adv-x="1223" d="M491 1366Q516 1370 552 1372T615 1374Q639 1374 675 1372T734 1365L1183 13Q1160 -1 1127 -7T1059 -14Q1008 -14 981 9T932 98L712 794Q684 882 656 979T606 1156H595Q585 1111 571 1058T543 955T518 868L241 -2Q222
-6 198 -8T149 -10Q122 -10 95 -6T46 4L40 15L491 1366ZM464 330Q455 330 427 330T369 331T331 332H232L298 505H385Q394 505 419 505T470 506T504 507H704Q714 507 739 507T790 506T826 505H915L972 332H874Q865 332 836 332T777 331T739 330H464ZM818 1805Q838
1791 857 1764T891 1703T909 1635L474 1457Q450 1472 433 1504T412 1564L818 1805Z" />
<glyph unicode="&#xc2;" horiz-adv-x="1223" d="M491 1366Q516 1370 552 1372T615 1374Q639 1374 675 1372T734 1365L1183 13Q1160 -1 1127 -7T1059 -14Q1008 -14 981 9T932 98L712 794Q684 882 656 979T606 1156H595Q585 1111 571 1058T543 955T518 868L241 -2Q222
-6 198 -8T149 -10Q122 -10 95 -6T46 4L40 15L491 1366ZM464 330Q455 330 427 330T369 331T331 332H232L298 505H385Q394 505 419 505T470 506T504 507H704Q714 507 739 507T790 506T826 505H915L972 332H874Q865 332 836 332T777 331T739 330H464ZM703 1776L927
1564Q916 1531 888 1507T837 1474L612 1624L388 1474Q364 1482 336 1506T297 1564L521 1776Q539 1779 563 1781T612 1783Q637 1783 660 1781T703 1776Z" />
<glyph unicode="&#xc3;" horiz-adv-x="1223" d="M491 1366Q516 1370 552 1372T615 1374Q639 1374 675 1372T734 1365L1183 13Q1160 -1 1127 -7T1059 -14Q1008 -14 981 9T932 98L712 794Q684 882 656 979T606 1156H595Q585 1111 571 1058T543 955T518 868L241 -2Q222
-6 198 -8T149 -10Q122 -10 95 -6T46 4L40 15L491 1366ZM464 330Q455 330 427 330T369 331T331 332H232L298 505H385Q394 505 419 505T470 506T504 507H704Q714 507 739 507T790 506T826 505H915L972 332H874Q865 332 836 332T777 331T739 330H464ZM525 1566Q508
1575 492 1579T459 1584Q438 1584 417 1571T379 1535L356 1505Q326 1507 296 1524T253 1569L267 1601Q299 1673 351 1713T474 1754Q508 1754 538 1744T592 1722L698 1672Q716 1663 734 1658T769 1652Q790 1652 810 1664T848 1701L871 1730Q901 1729 932 1712T975
1667L960 1634Q929 1563 877 1523T754 1482Q719 1482 689 1491T636 1512L525 1566Z" />
<glyph unicode="&#xc4;" horiz-adv-x="1223" d="M491 1366Q516 1370 552 1372T615 1374Q639 1374 675 1372T734 1365L1183 13Q1160 -1 1127 -7T1059 -14Q1008 -14 981 9T932 98L712 794Q684 882 656 979T606 1156H595Q585 1111 571 1058T543 955T518 868L241 -2Q222
-6 198 -8T149 -10Q122 -10 95 -6T46 4L40 15L491 1366ZM464 330Q455 330 427 330T369 331T331 332H232L298 505H385Q394 505 419 505T470 506T504 507H704Q714 507 739 507T790 506T826 505H915L972 332H874Q865 332 836 332T777 331T739 330H464ZM823 1487Q797
1487 770 1492T723 1510Q715 1531 712 1553T708 1592Q708 1610 711 1632T723 1674Q743 1686 770 1692T823 1698Q849 1698 876 1692T923 1674Q932 1654 935 1632T938 1592Q938 1575 935 1553T923 1510Q904 1498 877 1493T823 1487ZM405 1487Q379 1487 352 1492T304
1510Q296 1531 293 1553T290 1592Q290 1610 293 1632T304 1674Q324 1686 351 1692T405 1698Q431 1698 458 1692T505 1674Q514 1654 517 1632T520 1592Q520 1575 517 1553T505 1510Q486 1498 459 1493T405 1487Z" />
<glyph unicode="&#xc5;" horiz-adv-x="1223" d="M493 1372H732L1183 13Q1160 -1 1127 -7T1059 -14Q1008 -14 981 9T932 98L712 794Q684 882 656 979T606 1156H595Q585 1111 571 1058T543 955T518 868L241 -2Q222 -6 198 -8T149 -10Q122 -10 95 -6T46 4L40 15L493
1372ZM464 330Q455 330 427 330T369 331T331 332H232L298 505H385Q394 505 419 505T470 506T504 507H704Q714 507 739 507T790 506T826 505H915L972 332H874Q865 332 836 332T777 331T739 330H464ZM371 1561Q371 1655 439 1721T614 1788Q720 1788 787 1722T855
1561Q855 1468 788 1402T614 1335Q507 1335 439 1401T371 1561ZM513 1561Q513 1514 541 1483T614 1452Q658 1452 686 1483T714 1561Q714 1609 686 1640T614 1671Q570 1671 542 1640T513 1561Z" />
<glyph unicode="&#xc6;" horiz-adv-x="1752" d="M687 1345Q712 1358 749 1362T814 1366H965L802 1156H791Q764 1087 731 1009T667 866L247 -1Q224 -6 196 -7T143 -9Q113 -9 86 -6T37 4L30 15L687 1345ZM514 330Q499 330 474 330T425 331T387 332H303L385 504H462Q481
504 514 505T571 506H693Q709 506 734 506T784 505T822 504H898V332H821Q809 332 784 332T734 331T693 330H514ZM802 1353L814 1366H1005V1192Q1005 1150 1006 1124T1007 1056V277Q1007 250 1006 227T1005 175V-2H922Q866 -2 834 33T802 129V1353ZM1509 778Q1516
758 1518 733T1521 690Q1521 672 1519 648T1509 601H1132Q1109 601 1075 601T1003 603T936 604V775Q966 776 1003 776T1074 777T1132 778H1509ZM1618 1366Q1623 1342 1624 1321T1625 1281Q1625 1263 1621 1237T1609 1186H1132Q1109 1186 1075 1186T1003 1187T936
1189V1366H1618ZM1657 179Q1657 75 1625 37T1517 -2H936V170Q984 173 1030 176T1138 179H1657Z" />
<glyph unicode="&#xc7;" horiz-adv-x="1207" d="M921 894Q922 970 897 1045T811 1169T642 1219Q484 1219 404 1081T323 676Q323 428 411 294T654 159Q748 159 836 199T1011 311Q1046 289 1077 250T1117 174Q1062 119 985 74T815 1T618 -26Q475 -26 376 33T215
192T127 418T99 677Q99 926 174 1084T374 1317T647 1392Q795 1392 903 1337T1070 1193T1129 1002Q1129 948 1101 915T1008 881Q984 881 965 884T921 894ZM516 -149Q528 -115 549 -67T587 12H714Q704 -2 691 -29T671 -73Q745 -80 797 -127T850 -249Q850 -336 782
-391T610 -447Q564 -447 521 -435T453 -407Q455 -377 466 -350T494 -302Q513 -313 540 -321T594 -329Q641 -329 662 -306T683 -252Q683 -220 662 -198T598 -175Q586 -175 574 -177T552 -184Q540 -178 530 -169T516 -149Z" />
<glyph unicode="&#xc8;" horiz-adv-x="1132" d="M180 1353L193 1366H387V1192Q387 1150 388 1124T389 1056V275Q389 249 388 226T387 175V-2H302Q246 -2 213 33T180 129V1353ZM890 778Q895 758 897 733T900 690Q900 672 898 648T890 601H514Q491 601 456 601T384
603T316 604V775Q346 776 383 776T456 777T514 778H890ZM998 1366Q1003 1342 1004 1321T1005 1281Q1005 1263 1001 1237T988 1186H514Q491 1186 456 1186T384 1187T316 1189V1366H998ZM1037 179Q1037 81 1008 40T896 -2H316V170Q364 173 411 176T519 179H1037ZM420
1805Q400 1791 380 1764T346 1703T328 1635L763 1457Q790 1473 805 1504T826 1564L420 1805Z" />
<glyph unicode="&#xc9;" horiz-adv-x="1132" d="M180 1353L193 1366H387V1192Q387 1150 388 1124T389 1056V275Q389 249 388 226T387 175V-2H302Q246 -2 213 33T180 129V1353ZM890 778Q895 758 897 733T900 690Q900 672 898 648T890 601H514Q491 601 456 601T384
603T316 604V775Q346 776 383 776T456 777T514 778H890ZM998 1366Q1003 1342 1004 1321T1005 1281Q1005 1263 1001 1237T988 1186H514Q491 1186 456 1186T384 1187T316 1189V1366H998ZM1037 179Q1037 81 1008 40T896 -2H316V170Q364 173 411 176T519 179H1037ZM802
1805Q822 1791 841 1764T875 1703T893 1635L458 1457Q434 1472 417 1504T396 1564L802 1805Z" />
<glyph unicode="&#xca;" horiz-adv-x="1132" d="M180 1353L193 1366H387V1192Q387 1150 388 1124T389 1056V275Q389 249 388 226T387 175V-2H302Q246 -2 213 33T180 129V1353ZM890 778Q895 758 897 733T900 690Q900 672 898 648T890 601H514Q491 601 456 601T384
603T316 604V775Q346 776 383 776T456 777T514 778H890ZM998 1366Q1003 1342 1004 1321T1005 1281Q1005 1263 1001 1237T988 1186H514Q491 1186 456 1186T384 1187T316 1189V1366H998ZM1037 179Q1037 81 1008 40T896 -2H316V170Q364 173 411 176T519 179H1037ZM688
1776L912 1564Q901 1531 873 1507T822 1474L597 1624L373 1474Q349 1482 321 1506T282 1564L506 1776Q524 1779 548 1781T597 1783Q622 1783 645 1781T688 1776Z" />
<glyph unicode="&#xcb;" horiz-adv-x="1132" d="M180 1353L193 1366H387V1192Q387 1150 388 1124T389 1056V275Q389 249 388 226T387 175V-2H302Q246 -2 213 33T180 129V1353ZM890 778Q895 758 897 733T900 690Q900 672 898 648T890 601H514Q491 601 456 601T384
603T316 604V775Q346 776 383 776T456 777T514 778H890ZM998 1366Q1003 1342 1004 1321T1005 1281Q1005 1263 1001 1237T988 1186H514Q491 1186 456 1186T384 1187T316 1189V1366H998ZM1037 179Q1037 81 1008 40T896 -2H316V170Q364 173 411 176T519 179H1037ZM807
1487Q781 1487 754 1492T707 1510Q699 1531 696 1553T692 1592Q692 1610 695 1632T707 1674Q727 1686 754 1692T807 1698Q833 1698 860 1692T907 1674Q916 1654 919 1632T922 1592Q922 1575 919 1553T907 1510Q888 1498 861 1493T807 1487ZM389 1487Q363 1487 336
1492T288 1510Q280 1531 277 1553T274 1592Q274 1610 277 1632T288 1674Q308 1686 335 1692T389 1698Q415 1698 442 1692T489 1674Q498 1654 501 1632T504 1592Q504 1575 501 1553T489 1510Q470 1498 443 1493T389 1487Z" />
<glyph unicode="&#xcc;" horiz-adv-x="587" d="M187 1366Q210 1370 239 1372T292 1374Q318 1374 347 1372T400 1366V0Q376 -4 347 -6T292 -8Q269 -8 240 -6T187 0V1366ZM116 1806Q96 1792 76 1765T42 1704T24 1636L459 1458Q486 1474 501 1505T522 1565L116 1806Z" />
<glyph unicode="&#xcd;" horiz-adv-x="587" d="M187 1366Q210 1370 239 1372T292 1374Q318 1374 347 1372T400 1366V0Q376 -4 347 -6T292 -8Q269 -8 240 -6T187 0V1366ZM498 1806Q518 1792 537 1765T571 1704T589 1636L154 1458Q130 1473 113 1505T92 1565L498 1806Z" />
<glyph unicode="&#xce;" horiz-adv-x="587" d="M187 1366Q210 1370 239 1372T292 1374Q318 1374 347 1372T400 1366V0Q376 -4 347 -6T292 -8Q269 -8 240 -6T187 0V1366ZM383 1777L607 1565Q596 1532 568 1508T517 1475L292 1625L68 1475Q44 1483 16 1507T-23 1565L201
1777Q219 1780 243 1782T292 1784Q317 1784 340 1782T383 1777Z" />
<glyph unicode="&#xcf;" horiz-adv-x="587" d="M187 1366Q210 1370 239 1372T292 1374Q318 1374 347 1372T400 1366V0Q376 -4 347 -6T292 -8Q269 -8 240 -6T187 0V1366ZM503 1488Q477 1488 450 1493T403 1511Q395 1532 392 1554T388 1593Q388 1611 391 1633T403
1675Q423 1687 450 1693T503 1699Q529 1699 556 1693T603 1675Q612 1655 615 1633T618 1593Q618 1576 615 1554T603 1511Q584 1499 557 1494T503 1488ZM85 1488Q59 1488 32 1493T-16 1511Q-24 1532 -27 1554T-30 1593Q-30 1611 -27 1633T-16 1675Q4 1687 31 1693T85
1699Q111 1699 138 1693T185 1675Q194 1655 197 1633T200 1593Q200 1576 197 1554T185 1511Q166 1499 139 1494T85 1488Z" />
<glyph unicode="&#xd0;" horiz-adv-x="1327" d="M1226 684Q1226 567 1211 460T1150 259T1014 92Q971 56 910 34T784 2T666 -9Q585 -9 518 -8T381 -5T225 -1L212 11V1355L225 1367Q312 1370 381 1371T517 1373T666 1374Q719 1374 783 1364T909 1331T1014 1272Q1103
1198 1148 1106T1210 907T1226 684ZM1005 684Q1005 774 993 865T946 1032T844 1156T665 1203Q602 1203 546 1203T422 1205V163Q490 163 546 163T665 162Q776 162 843 209T946 334T993 503T1005 684ZM59 604Q54 624 52 645T50 690Q50 714 52 736T59 781H731Q736
759 738 738T740 691Q740 666 738 645T731 604H59Z" />
<glyph unicode="&#xd1;" horiz-adv-x="1359" d="M181 1364Q207 1369 245 1371T307 1374Q333 1374 368 1372T435 1366L379 1119L362 1115Q366 1046 370 961T376 788T379 626V0Q352 -4 327 -6T281 -8Q260 -8 234 -6T181 0V1364ZM496 840Q460 913 429 983T369 1117L269
1237L435 1366L858 527Q896 449 929 375T992 238L1097 128L923 0L496 840ZM1178 1363V2Q1162 -1 1139 -3T1093 -7T1050 -8Q1021 -8 988 -6T923 0L981 237L998 239Q994 320 990 410T984 587T982 743V1242Q982 1312 1006 1343T1096 1374H1166L1178 1363ZM597 1566Q580
1575 564 1579T531 1584Q510 1584 489 1571T451 1535L428 1505Q398 1507 368 1524T325 1569L339 1601Q371 1673 423 1713T546 1754Q580 1754 610 1744T664 1722L770 1672Q788 1663 806 1658T841 1652Q862 1652 882 1664T920 1701L943 1730Q973 1729 1004 1712T1047
1667L1032 1634Q1001 1563 949 1523T826 1482Q791 1482 761 1491T708 1512L597 1566Z" />
<glyph unicode="&#xd2;" horiz-adv-x="1316" d="M322 684Q322 593 335 498T385 323T487 194T658 144Q763 144 828 193T929 323T978 498T992 684Q992 775 979 869T930 1044T829 1173T658 1222Q553 1222 487 1173T385 1044T336 870T322 684ZM99 684Q99 886 159 1046T344
1299T658 1392Q801 1392 906 1339T1080 1189T1182 964T1216 684Q1216 481 1156 321T972 67T658 -26Q515 -26 410 28T236 178T133 404T99 684ZM480 1805Q460 1791 440 1764T406 1703T388 1635L823 1457Q850 1473 865 1504T886 1564L480 1805Z" />
<glyph unicode="&#xd3;" horiz-adv-x="1316" d="M322 684Q322 593 335 498T385 323T487 194T658 144Q763 144 828 193T929 323T978 498T992 684Q992 775 979 869T930 1044T829 1173T658 1222Q553 1222 487 1173T385 1044T336 870T322 684ZM99 684Q99 886 159 1046T344
1299T658 1392Q801 1392 906 1339T1080 1189T1182 964T1216 684Q1216 481 1156 321T972 67T658 -26Q515 -26 410 28T236 178T133 404T99 684ZM862 1805Q882 1791 901 1764T935 1703T953 1635L518 1457Q494 1472 477 1504T456 1564L862 1805Z" />
<glyph unicode="&#xd4;" horiz-adv-x="1316" d="M322 684Q322 593 335 498T385 323T487 194T658 144Q763 144 828 193T929 323T978 498T992 684Q992 775 979 869T930 1044T829 1173T658 1222Q553 1222 487 1173T385 1044T336 870T322 684ZM99 684Q99 886 159 1046T344
1299T658 1392Q801 1392 906 1339T1080 1189T1182 964T1216 684Q1216 481 1156 321T972 67T658 -26Q515 -26 410 28T236 178T133 404T99 684ZM747 1776L971 1564Q960 1531 932 1507T881 1474L656 1624L432 1474Q408 1482 380 1506T341 1564L565 1776Q583 1779 607
1781T656 1783Q681 1783 704 1781T747 1776Z" />
<glyph unicode="&#xd5;" horiz-adv-x="1316" d="M322 684Q322 593 335 498T385 323T487 194T658 144Q763 144 828 193T929 323T978 498T992 684Q992 775 979 869T930 1044T829 1173T658 1222Q553 1222 487 1173T385 1044T336 870T322 684ZM99 684Q99 886 159 1046T344
1299T658 1392Q801 1392 906 1339T1080 1189T1182 964T1216 684Q1216 481 1156 321T972 67T658 -26Q515 -26 410 28T236 178T133 404T99 684ZM569 1566Q552 1575 536 1579T503 1584Q482 1584 461 1571T423 1535L400 1505Q370 1507 340 1524T297 1569L311 1601Q343
1673 395 1713T518 1754Q552 1754 582 1744T636 1722L742 1672Q760 1663 778 1658T813 1652Q834 1652 854 1664T892 1701L915 1730Q945 1729 976 1712T1019 1667L1004 1634Q973 1563 921 1523T798 1482Q763 1482 733 1491T680 1512L569 1566Z" />
<glyph unicode="&#xd6;" horiz-adv-x="1316" d="M322 684Q322 593 335 498T385 323T487 194T658 144Q763 144 828 193T929 323T978 498T992 684Q992 775 979 869T930 1044T829 1173T658 1222Q553 1222 487 1173T385 1044T336 870T322 684ZM99 684Q99 886 159 1046T344
1299T658 1392Q801 1392 906 1339T1080 1189T1182 964T1216 684Q1216 481 1156 321T972 67T658 -26Q515 -26 410 28T236 178T133 404T99 684ZM867 1487Q841 1487 814 1492T767 1510Q759 1531 756 1553T752 1592Q752 1610 755 1632T767 1674Q787 1686 814 1692T867
1698Q893 1698 920 1692T967 1674Q976 1654 979 1632T982 1592Q982 1575 979 1553T967 1510Q948 1498 921 1493T867 1487ZM449 1487Q423 1487 396 1492T348 1510Q340 1531 337 1553T334 1592Q334 1610 337 1632T348 1674Q368 1686 395 1692T449 1698Q475 1698 502
1692T549 1674Q558 1654 561 1632T564 1592Q564 1575 561 1553T549 1510Q530 1498 503 1493T449 1487Z" />
<glyph unicode="&#xd7;" horiz-adv-x="1080" d="M352 687Q369 671 390 651T427 615L527 515Q543 498 563 477T600 440L797 241Q818 250 838 264T874 294Q906 326 927 370L728 568Q711 584 690 604T652 641L553 740Q536 757 517 777T480 815L283 1014Q261 1005
242 992T206 962Q189 943 176 925T153 884L352 687ZM480 440Q497 456 516 477T553 515L652 614Q669 630 690 650T728 687L927 884Q906 928 872 962Q856 978 837 991T797 1013L600 814Q583 798 563 777T527 740L427 640Q411 624 390 604T352 567L153 370Q163 348
177 329T207 294Q222 279 241 265T283 240L480 440Z" />
<glyph unicode="&#xd8;" horiz-adv-x="1318" d="M877 1275L991 1474Q1029 1469 1069 1448T1131 1398L996 1158L442 93L327 -106Q291 -100 251 -79T188 -30L323 210L877 1275ZM316 684Q316 593 330 498T382 321T487 190T659 140Q765 140 832 190T936 321T987 497T1001
684Q1001 775 987 870T936 1045T832 1176T659 1226Q554 1226 487 1176T383 1046T331 870T316 684ZM99 684Q99 885 160 1045T345 1298T659 1392Q850 1392 974 1298T1158 1044T1219 684Q1219 483 1159 323T974 68T659 -26Q516 -26 410 28T236 180T133 405T99 684Z"
/>
<glyph unicode="&#xd9;" horiz-adv-x="1338" d="M1174 479Q1174 314 1112 202T936 32T668 -26Q516 -26 403 31T227 201T164 479V1362L176 1374H258Q323 1374 350 1342T377 1239V480Q377 315 451 231T669 146Q814 146 888 230T962 480V1366Q985 1370 1013 1372T1065
1374Q1089 1374 1119 1372T1174 1366V479ZM489 1805Q469 1791 449 1764T415 1703T397 1635L832 1457Q859 1473 874 1504T895 1564L489 1805Z" />
<glyph unicode="&#xda;" horiz-adv-x="1338" d="M1174 479Q1174 314 1112 202T936 32T668 -26Q516 -26 403 31T227 201T164 479V1362L176 1374H258Q323 1374 350 1342T377 1239V480Q377 315 451 231T669 146Q814 146 888 230T962 480V1366Q985 1370 1013 1372T1065
1374Q1089 1374 1119 1372T1174 1366V479ZM871 1805Q891 1791 910 1764T944 1703T962 1635L527 1457Q503 1472 486 1504T465 1564L871 1805Z" />
<glyph unicode="&#xdb;" horiz-adv-x="1338" d="M1174 479Q1174 314 1112 202T936 32T668 -26Q516 -26 403 31T227 201T164 479V1362L176 1374H258Q323 1374 350 1342T377 1239V480Q377 315 451 231T669 146Q814 146 888 230T962 480V1366Q985 1370 1013 1372T1065
1374Q1089 1374 1119 1372T1174 1366V479ZM756 1776L980 1564Q969 1531 941 1507T890 1474L665 1624L441 1474Q417 1482 389 1506T350 1564L574 1776Q592 1779 616 1781T665 1783Q690 1783 713 1781T756 1776Z" />
<glyph unicode="&#xdc;" horiz-adv-x="1338" d="M1174 479Q1174 314 1112 202T936 32T668 -26Q516 -26 403 31T227 201T164 479V1362L176 1374H258Q323 1374 350 1342T377 1239V480Q377 315 451 231T669 146Q814 146 888 230T962 480V1366Q985 1370 1013 1372T1065
1374Q1089 1374 1119 1372T1174 1366V479ZM876 1487Q850 1487 823 1492T776 1510Q768 1531 765 1553T761 1592Q761 1610 764 1632T776 1674Q796 1686 823 1692T876 1698Q902 1698 929 1692T976 1674Q985 1654 988 1632T991 1592Q991 1575 988 1553T976 1510Q957
1498 930 1493T876 1487ZM458 1487Q432 1487 405 1492T357 1510Q349 1531 346 1553T343 1592Q343 1610 346 1632T357 1674Q377 1686 404 1692T458 1698Q484 1698 511 1692T558 1674Q567 1654 570 1632T573 1592Q573 1575 570 1553T558 1510Q539 1498 512 1493T458
1487Z" />
<glyph unicode="&#xdd;" horiz-adv-x="1006" d="M398 567H611V0Q586 -4 558 -6T504 -8Q481 -8 451 -6T398 0V567ZM789 1366Q811 1372 834 1373T879 1375Q906 1375 933 1372T982 1361L991 1346L593 396H418L18 1342Q53 1361 86 1371T151 1381Q196 1381 221 1359T265
1289L424 903Q445 851 467 783T507 654H518Q530 694 546 742T579 835T606 908L789 1366ZM714 1805Q734 1791 753 1764T787 1703T805 1635L370 1457Q346 1472 329 1504T308 1564L714 1805Z" />
<glyph unicode="&#xde;" horiz-adv-x="1142" d="M287 1158Q365 1161 443 1163T601 1165Q735 1165 838 1118T1002 975T1062 729Q1062 582 1003 485T840 339T601 290H287V455Q311 457 354 457T444 459T532 460T594 460Q695 460 748 502T821 606T841 729Q841 790
821 851T748 954T594 996Q563 996 508 996T393 998T287 1000V1158ZM181 1366Q204 1370 234 1372T286 1374Q312 1374 341 1372T394 1366V0Q370 -4 341 -6T286 -8Q264 -8 234 -6T181 0V1366Z" />
<glyph unicode="&#xdf;" horiz-adv-x="1254" d="M308 943L309 784L38 780Q34 798 32 821T30 865Q30 884 32 905T38 947L308 943ZM210 1013Q210 1138 265 1223T419 1353T645 1397Q780 1397 878 1348T1031 1211T1085 1005Q1085 965 1078 925T1055 844L835 828Q858
867 867 908T877 994Q877 1060 852 1115T775 1205T642 1239Q527 1239 473 1171T419 991V0Q396 -4 368 -6T314 -8Q290 -8 262 -6T210 0V1013ZM568 45Q570 79 588 123T635 192Q677 164 726 149T816 134Q886 134 927 167T968 253Q968 294 945 329T887 393L807 461Q777
486 747 519T696 593T675 685Q675 766 734 833T887 934L1055 843Q967 821 930 778T892 695Q892 657 918 628T965 582L1040 519Q1109 462 1148 395T1187 256Q1187 173 1144 110T1022 10T838 -26Q771 -26 698 -9T568 45Z" />
<glyph unicode="&#xe0;" horiz-adv-x="1014" d="M87 268Q87 383 137 456T274 565T470 600Q526 600 596 595T728 576V437Q675 450 608 453T483 457Q392 457 342 411T292 283Q292 222 326 180T427 137Q500 137 581 187T718 337L750 180Q714 138 661 90T539 8T381
-26Q282 -26 217 18T119 129T87 268ZM921 92Q914 64 892 33T844 -15Q781 -2 742 32T685 113T662 214V665Q662 759 619 800T498 842Q423 842 343 819T183 766Q159 790 143 833T124 917Q180 941 251 962T396 995T539 1008Q638 1008 711 972T824 862T865 673V263Q865
207 876 165T921 92ZM369 1478Q324 1463 282 1424T224 1342L566 1076Q594 1084 619 1107T656 1159L369 1478Z" />
<glyph unicode="&#xe1;" horiz-adv-x="1014" d="M87 268Q87 383 137 456T274 565T470 600Q526 600 596 595T728 576V437Q675 450 608 453T483 457Q392 457 342 411T292 283Q292 222 326 180T427 137Q500 137 581 187T718 337L750 180Q714 138 661 90T539 8T381
-26Q282 -26 217 18T119 129T87 268ZM921 92Q914 64 892 33T844 -15Q781 -2 742 32T685 113T662 214V665Q662 759 619 800T498 842Q423 842 343 819T183 766Q159 790 143 833T124 917Q180 941 251 962T396 995T539 1008Q638 1008 711 972T824 862T865 673V263Q865
207 876 165T921 92ZM627 1478Q672 1463 713 1424T772 1342L430 1076Q402 1084 377 1107T340 1159L627 1478Z" />
<glyph unicode="&#xe2;" horiz-adv-x="1014" d="M87 268Q87 383 137 456T274 565T470 600Q526 600 596 595T728 576V437Q675 450 608 453T483 457Q392 457 342 411T292 283Q292 222 326 180T427 137Q500 137 581 187T718 337L750 180Q714 138 661 90T539 8T381
-26Q282 -26 217 18T119 129T87 268ZM921 92Q914 64 892 33T844 -15Q781 -2 742 32T685 113T662 214V665Q662 759 619 800T498 842Q423 842 343 819T183 766Q159 790 143 833T124 917Q180 941 251 962T396 995T539 1008Q638 1008 711 972T824 862T865 673V263Q865
207 876 165T921 92ZM581 1435L776 1183Q762 1150 732 1125T677 1093L491 1275L304 1093Q279 1100 250 1125T205 1183L400 1435Q418 1440 442 1443T491 1446Q515 1446 539 1443T581 1435Z" />
<glyph unicode="&#xe3;" horiz-adv-x="1014" d="M87 268Q87 383 137 456T274 565T470 600Q526 600 596 595T728 576V437Q675 450 608 453T483 457Q392 457 342 411T292 283Q292 222 326 180T427 137Q500 137 581 187T718 337L750 180Q714 138 661 90T539 8T381
-26Q282 -26 217 18T119 129T87 268ZM921 92Q914 64 892 33T844 -15Q781 -2 742 32T685 113T662 214V665Q662 759 619 800T498 842Q423 842 343 819T183 766Q159 790 143 833T124 917Q180 941 251 962T396 995T539 1008Q638 1008 711 972T824 862T865 673V263Q865
207 876 165T921 92ZM616 1115Q583 1115 554 1124T504 1145L417 1192Q407 1198 390 1205T352 1212Q321 1212 302 1195T272 1163L249 1134Q219 1135 190 1153T149 1198L167 1237Q196 1303 248 1343T365 1383Q400 1383 429 1373T477 1353L564 1306Q575 1301 592 1293T631
1285Q659 1285 677 1301T708 1335L731 1364Q761 1363 790 1345T831 1299L814 1260Q783 1191 731 1153T616 1115Z" />
<glyph unicode="&#xe4;" horiz-adv-x="1014" d="M87 268Q87 383 137 456T274 565T470 600Q526 600 596 595T728 576V437Q675 450 608 453T483 457Q392 457 342 411T292 283Q292 222 326 180T427 137Q500 137 581 187T718 337L750 180Q714 138 661 90T539 8T381
-26Q282 -26 217 18T119 129T87 268ZM921 92Q914 64 892 33T844 -15Q781 -2 742 32T685 113T662 214V665Q662 759 619 800T498 842Q423 842 343 819T183 766Q159 790 143 833T124 917Q180 941 251 962T396 995T539 1008Q638 1008 711 972T824 862T865 673V263Q865
207 876 165T921 92ZM191 1229Q191 1248 194 1270T206 1309Q223 1320 251 1326T303 1332Q327 1332 355 1326T400 1309Q408 1292 411 1270T415 1229Q415 1211 412 1189T400 1149Q383 1139 355 1133T303 1126Q279 1126 251 1132T206 1149Q198 1166 195 1188T191 1229ZM563
1229Q563 1248 566 1270T578 1309Q595 1320 623 1326T675 1332Q699 1332 726 1326T771 1309Q780 1292 783 1270T787 1229Q787 1211 784 1189T771 1149Q754 1139 727 1133T675 1126Q651 1126 623 1132T578 1149Q570 1166 567 1188T563 1229Z" />
<glyph unicode="&#xe5;" horiz-adv-x="1014" d="M87 268Q87 383 137 456T274 565T470 600Q526 600 596 595T728 576V437Q675 450 608 453T483 457Q392 457 342 411T292 283Q292 222 326 180T427 137Q500 137 581 187T718 337L750 180Q714 138 661 90T539 8T381
-26Q282 -26 217 18T119 129T87 268ZM921 92Q914 64 892 33T844 -15Q781 -2 742 32T685 113T662 214V665Q662 759 619 800T498 842Q423 842 343 819T183 766Q159 790 143 833T124 917Q180 941 251 962T396 995T539 1008Q638 1008 711 972T824 862T865 673V263Q865
207 876 165T921 92ZM247 1304Q247 1211 314 1144T489 1077Q596 1077 663 1144T731 1304Q731 1398 664 1464T489 1531Q382 1531 315 1465T247 1304ZM388 1304Q388 1351 416 1382T489 1414Q533 1414 561 1383T590 1304Q590 1257 562 1226T489 1195Q445 1195 417
1226T388 1304Z" />
<glyph unicode="&#xe6;" horiz-adv-x="1563" d="M87 270Q87 384 137 457T274 565T470 600Q532 600 599 595T728 576V434Q673 445 607 451T483 457Q392 457 342 412T292 284Q292 223 326 180T427 137Q478 137 534 160T643 230T732 353L777 185Q740 135 682 87T548
7T381 -26Q282 -26 217 17T119 129T87 270ZM662 494V665Q662 759 619 800T499 842Q424 842 344 820T183 766Q159 790 143 833T124 917Q208 953 319 980T529 1008Q630 1008 701 970T810 856T848 669V494H662ZM786 428V578H1268V601Q1268 672 1249 730T1187 825T1072
861Q969 861 919 774T869 532V475Q869 381 888 306T957 186T1099 142Q1174 142 1243 164T1377 219Q1402 195 1419 157T1441 87Q1369 35 1271 5T1068 -26Q872 -26 767 103T661 494Q660 582 684 673T758 842T886 966T1073 1013Q1202 1013 1290 956T1423 803T1468
587Q1468 539 1465 505T1453 428H786Z" />
<glyph unicode="&#xe7;" horiz-adv-x="943" d="M678 606Q681 671 667 728T614 820T502 855Q407 855 354 764T301 488Q301 308 360 226T527 143Q596 143 657 174T771 244Q798 227 824 191T858 121Q790 55 697 15T496 -26Q389 -26 312 15T185 127T112 292T88 488Q88
626 123 726T218 889T352 983T507 1013Q598 1013 666 986T779 915T846 817T869 712Q869 660 844 629T764 598Q718 598 678 606ZM372 -149Q384 -115 405 -67T443 12H570Q560 -2 547 -29T527 -73Q601 -80 653 -127T706 -249Q706 -336 638 -391T466 -447Q420 -447
377 -435T309 -407Q311 -377 322 -350T350 -302Q369 -313 396 -321T450 -329Q497 -329 518 -306T539 -252Q539 -220 518 -198T454 -175Q442 -175 430 -177T408 -184Q396 -178 386 -169T372 -149Z" />
<glyph unicode="&#xe8;" horiz-adv-x="1001" d="M217 428V578H704V604Q704 674 684 732T621 826T505 861Q403 861 352 775T301 538V475Q301 381 320 306T390 186T531 142Q607 142 677 164T810 219Q836 194 853 157T875 87Q804 35 705 5T500 -26Q381 -26 302 16T176
132T109 298T88 492Q88 641 134 759T274 945T505 1013Q635 1013 723 956T857 803T902 587Q902 539 899 505T887 428H217ZM390 1478Q345 1463 303 1424T245 1342L587 1076Q615 1084 640 1107T677 1159L390 1478Z" />
<glyph unicode="&#xe9;" horiz-adv-x="1001" d="M217 428V578H704V604Q704 674 684 732T621 826T505 861Q403 861 352 775T301 538V475Q301 381 320 306T390 186T531 142Q607 142 677 164T810 219Q836 194 853 157T875 87Q804 35 705 5T500 -26Q381 -26 302 16T176
132T109 298T88 492Q88 641 134 759T274 945T505 1013Q635 1013 723 956T857 803T902 587Q902 539 899 505T887 428H217ZM648 1478Q693 1463 734 1424T793 1342L451 1076Q423 1084 398 1107T361 1159L648 1478Z" />
<glyph unicode="&#xea;" horiz-adv-x="1001" d="M217 428V578H704V604Q704 674 684 732T621 826T505 861Q403 861 352 775T301 538V475Q301 381 320 306T390 186T531 142Q607 142 677 164T810 219Q836 194 853 157T875 87Q804 35 705 5T500 -26Q381 -26 302 16T176
132T109 298T88 492Q88 641 134 759T274 945T505 1013Q635 1013 723 956T857 803T902 587Q902 539 899 505T887 428H217ZM602 1435L797 1183Q783 1150 753 1125T698 1093L512 1275L325 1093Q300 1100 271 1125T226 1183L421 1435Q439 1440 463 1443T512 1446Q536
1446 560 1443T602 1435Z" />
<glyph unicode="&#xeb;" horiz-adv-x="1001" d="M217 428V578H704V604Q704 674 684 732T621 826T505 861Q403 861 352 775T301 538V475Q301 381 320 306T390 186T531 142Q607 142 677 164T810 219Q836 194 853 157T875 87Q804 35 705 5T500 -26Q381 -26 302 16T176
132T109 298T88 492Q88 641 134 759T274 945T505 1013Q635 1013 723 956T857 803T902 587Q902 539 899 505T887 428H217ZM212 1229Q212 1248 215 1270T227 1309Q244 1320 272 1326T324 1332Q348 1332 376 1326T421 1309Q429 1292 432 1270T436 1229Q436 1211 433
1189T421 1149Q404 1139 376 1133T324 1126Q300 1126 272 1132T227 1149Q219 1166 216 1188T212 1229ZM584 1229Q584 1248 587 1270T599 1309Q616 1320 644 1326T696 1332Q720 1332 747 1326T792 1309Q801 1292 804 1270T808 1229Q808 1211 805 1189T792 1149Q775
1139 748 1133T696 1126Q672 1126 644 1132T599 1149Q591 1166 588 1188T584 1229Z" />
<glyph unicode="&#xec;" horiz-adv-x="542" d="M389 0Q368 -4 342 -6T287 -8Q259 -8 232 -6T183 0V733Q183 786 165 811T97 837H74Q65 874 65 910Q65 928 67 946T74 985Q112 990 145 992T201 994H227Q303 994 346 947T389 817V0ZM130 1478Q85 1463 43 1424T-15
1342L327 1076Q355 1084 380 1107T417 1159L130 1478Z" />
<glyph unicode="&#xed;" horiz-adv-x="542" d="M389 0Q368 -4 342 -6T287 -8Q259 -8 232 -6T183 0V733Q183 786 165 811T97 837H74Q65 874 65 910Q65 928 67 946T74 985Q112 990 145 992T201 994H227Q303 994 346 947T389 817V0ZM388 1478Q433 1463 474 1424T533
1342L191 1076Q163 1084 138 1107T101 1159L388 1478Z" />
<glyph unicode="&#xee;" horiz-adv-x="542" d="M389 0Q368 -4 342 -6T287 -8Q259 -8 232 -6T183 0V733Q183 786 165 811T97 837H74Q65 874 65 910Q65 928 67 946T74 985Q112 990 145 992T201 994H227Q303 994 346 947T389 817V0ZM342 1435L537 1183Q523 1150 493
1125T438 1093L252 1275L65 1093Q40 1100 11 1125T-34 1183L161 1435Q179 1440 203 1443T252 1446Q276 1446 300 1443T342 1435Z" />
<glyph unicode="&#xef;" horiz-adv-x="542" d="M389 0Q368 -4 342 -6T287 -8Q259 -8 232 -6T183 0V733Q183 786 165 811T97 837H74Q65 874 65 910Q65 928 67 946T74 985Q112 990 145 992T201 994H227Q303 994 346 947T389 817V0ZM-48 1229Q-48 1248 -45 1270T-33
1309Q-16 1320 12 1326T64 1332Q88 1332 116 1326T161 1309Q169 1292 172 1270T176 1229Q176 1211 173 1189T161 1149Q144 1139 116 1133T64 1126Q40 1126 12 1132T-33 1149Q-41 1166 -44 1188T-48 1229ZM324 1229Q324 1248 327 1270T339 1309Q356 1320 384 1326T436
1332Q460 1332 487 1326T532 1309Q541 1292 544 1270T548 1229Q548 1211 545 1189T532 1149Q515 1139 488 1133T436 1126Q412 1126 384 1132T339 1149Q331 1166 328 1188T324 1229Z" />
<glyph unicode="&#xf0;" horiz-adv-x="1037" d="M950 490Q950 339 901 223T756 40T517 -26Q377 -26 281 40T136 221T87 482Q87 625 137 736T281 910T508 974Q593 974 669 935T793 846V682Q748 740 677 780T520 820Q436 820 388 774T320 651T299 480Q299 392 318
312T385 180T519 129Q605 129 652 181T719 315T738 490Q738 619 721 703T675 857Q662 956 597 1053T437 1231T236 1364Q243 1403 266 1441T319 1495Q521 1409 662 1263T876 920T950 490ZM719 1484Q742 1468 766 1437T794 1376L300 1035Q276 1051 253 1083T225 1143L719
1484Z" />
<glyph unicode="&#xf1;" horiz-adv-x="1091" d="M246 996Q311 996 336 957T362 849V0Q341 -4 315 -6T260 -8Q232 -8 205 -6T157 0V983L169 996H246ZM943 211Q943 159 950 113T977 31Q954 12 920 0T847 -13Q787 -13 763 20T738 118V627Q738 728 713 773T613 819Q563
819 505 795T394 727T310 623V821Q377 898 474 951T679 1005Q772 1005 830 962T915 844T943 677V211ZM683 1115Q650 1115 621 1124T571 1145L484 1192Q474 1198 457 1205T419 1212Q388 1212 369 1195T339 1163L316 1134Q286 1135 257 1153T216 1198L234 1237Q263
1303 315 1343T432 1383Q467 1383 496 1373T544 1353L631 1306Q642 1301 659 1293T698 1285Q726 1285 744 1301T775 1335L798 1364Q828 1363 857 1345T898 1299L881 1260Q850 1191 798 1153T683 1115Z" />
<glyph unicode="&#xf2;" horiz-adv-x="1040" d="M952 494Q952 341 903 224T757 40T519 -26Q377 -26 281 41T137 225T88 494Q88 646 137 763T282 946T519 1013Q662 1013 758 947T903 763T952 494ZM301 494Q301 401 320 318T387 184T521 132Q607 132 654 183T720
318T739 494Q739 587 720 670T654 805T521 857Q435 857 387 805T320 670T301 494ZM399 1478Q354 1463 312 1424T254 1342L596 1076Q624 1084 649 1107T686 1159L399 1478Z" />
<glyph unicode="&#xf3;" horiz-adv-x="1040" d="M952 494Q952 341 903 224T757 40T519 -26Q377 -26 281 41T137 225T88 494Q88 646 137 763T282 946T519 1013Q662 1013 758 947T903 763T952 494ZM301 494Q301 401 320 318T387 184T521 132Q607 132 654 183T720
318T739 494Q739 587 720 670T654 805T521 857Q435 857 387 805T320 670T301 494ZM657 1478Q702 1463 743 1424T802 1342L460 1076Q432 1084 407 1107T370 1159L657 1478Z" />
<glyph unicode="&#xf4;" horiz-adv-x="1040" d="M952 494Q952 341 903 224T757 40T519 -26Q377 -26 281 41T137 225T88 494Q88 646 137 763T282 946T519 1013Q662 1013 758 947T903 763T952 494ZM301 494Q301 401 320 318T387 184T521 132Q607 132 654 183T720
318T739 494Q739 587 720 670T654 805T521 857Q435 857 387 805T320 670T301 494ZM611 1435L806 1183Q792 1150 762 1125T707 1093L521 1275L334 1093Q309 1100 280 1125T235 1183L430 1435Q448 1440 472 1443T521 1446Q545 1446 569 1443T611 1435Z" />
<glyph unicode="&#xf5;" horiz-adv-x="1040" d="M952 494Q952 341 903 224T757 40T519 -26Q377 -26 281 41T137 225T88 494Q88 646 137 763T282 946T519 1013Q662 1013 758 947T903 763T952 494ZM301 494Q301 401 320 318T387 184T521 132Q607 132 654 183T720
318T739 494Q739 587 720 670T654 805T521 857Q435 857 387 805T320 670T301 494ZM646 1115Q613 1115 584 1124T534 1145L447 1192Q437 1198 420 1205T382 1212Q351 1212 332 1195T302 1163L279 1134Q249 1135 220 1153T179 1198L197 1237Q226 1303 278 1343T395
1383Q430 1383 459 1373T507 1353L594 1306Q605 1301 622 1293T661 1285Q689 1285 707 1301T738 1335L761 1364Q791 1363 820 1345T861 1299L844 1260Q813 1191 761 1153T646 1115Z" />
<glyph unicode="&#xf6;" horiz-adv-x="1040" d="M952 494Q952 341 903 224T757 40T519 -26Q377 -26 281 41T137 225T88 494Q88 646 137 763T282 946T519 1013Q662 1013 758 947T903 763T952 494ZM301 494Q301 401 320 318T387 184T521 132Q607 132 654 183T720
318T739 494Q739 587 720 670T654 805T521 857Q435 857 387 805T320 670T301 494ZM221 1229Q221 1248 224 1270T236 1309Q253 1320 281 1326T333 1332Q357 1332 385 1326T430 1309Q438 1292 441 1270T445 1229Q445 1211 442 1189T430 1149Q413 1139 385 1133T333
1126Q309 1126 281 1132T236 1149Q228 1166 225 1188T221 1229ZM593 1229Q593 1248 596 1270T608 1309Q625 1320 653 1326T705 1332Q729 1332 756 1326T801 1309Q810 1292 813 1270T817 1229Q817 1211 814 1189T801 1149Q784 1139 757 1133T705 1126Q681 1126 653
1132T608 1149Q600 1166 597 1188T593 1229Z" />
<glyph unicode="&#xf7;" horiz-adv-x="1080" d="M419 982Q419 1031 435 1067Q453 1078 482 1084T540 1091Q566 1091 597 1085T644 1067Q652 1051 656 1028T661 982Q661 962 657 938T644 897Q629 887 598 881T540 874Q512 874 482 880T435 897Q419 933 419 982ZM419
269Q419 318 435 354Q453 365 482 371T540 377Q566 377 597 371T644 354Q652 338 656 314T661 269Q661 248 657 224T644 184Q629 174 598 168T540 161Q512 161 482 167T435 184Q419 220 419 269ZM123 540Q118 560 116 584T114 627Q114 648 116 672T123 717H957Q962
696 964 672T966 627Q966 608 964 584T957 540H123Z" />
<glyph unicode="&#xf8;" horiz-adv-x="1043" d="M953 495Q953 377 922 270T812 84Q756 29 683 2T520 -26Q433 -26 360 1T231 84Q152 162 121 269T90 495Q90 613 121 719T231 903Q287 959 360 986T520 1013Q610 1013 683 986T812 903Q891 825 922 719T953 495ZM286
495Q286 403 307 319T379 180T521 126Q614 126 664 180T736 318T757 495Q757 586 736 670T665 809T521 863Q430 863 379 809T307 671T286 495ZM660 904L773 1101Q804 1096 838 1078T891 1035L758 800L385 88L269 -112Q238 -107 204 -89T150 -45L285 190L660 904Z"
/>
<glyph unicode="&#xf9;" horiz-adv-x="1094" d="M936 280Q936 221 947 171T992 91Q984 62 962 32T914 -15Q816 5 773 79T729 250V987Q750 991 777 993T832 995Q860 995 887 993T936 987V280ZM147 776Q147 828 140 874T115 956Q138 975 172 987T244 1000Q304 1000
329 967T354 870V360Q354 260 379 214T478 168Q529 168 587 192T697 260T782 364V167Q716 89 619 36T412 -18Q320 -18 261 25T175 143T147 310V776ZM416 1478Q371 1463 329 1424T271 1342L613 1076Q641 1084 666 1107T703 1159L416 1478Z" />
<glyph unicode="&#xfa;" horiz-adv-x="1094" d="M936 280Q936 221 947 171T992 91Q984 62 962 32T914 -15Q816 5 773 79T729 250V987Q750 991 777 993T832 995Q860 995 887 993T936 987V280ZM147 776Q147 828 140 874T115 956Q138 975 172 987T244 1000Q304 1000
329 967T354 870V360Q354 260 379 214T478 168Q529 168 587 192T697 260T782 364V167Q716 89 619 36T412 -18Q320 -18 261 25T175 143T147 310V776ZM674 1478Q719 1463 760 1424T819 1342L477 1076Q449 1084 424 1107T387 1159L674 1478Z" />
<glyph unicode="&#xfb;" horiz-adv-x="1094" d="M936 280Q936 221 947 171T992 91Q984 62 962 32T914 -15Q816 5 773 79T729 250V987Q750 991 777 993T832 995Q860 995 887 993T936 987V280ZM147 776Q147 828 140 874T115 956Q138 975 172 987T244 1000Q304 1000
329 967T354 870V360Q354 260 379 214T478 168Q529 168 587 192T697 260T782 364V167Q716 89 619 36T412 -18Q320 -18 261 25T175 143T147 310V776ZM628 1435L823 1183Q809 1150 779 1125T724 1093L538 1275L351 1093Q326 1100 297 1125T252 1183L447 1435Q465
1440 489 1443T538 1446Q562 1446 586 1443T628 1435Z" />
<glyph unicode="&#xfc;" horiz-adv-x="1094" d="M936 280Q936 221 947 171T992 91Q984 62 962 32T914 -15Q816 5 773 79T729 250V987Q750 991 777 993T832 995Q860 995 887 993T936 987V280ZM147 776Q147 828 140 874T115 956Q138 975 172 987T244 1000Q304 1000
329 967T354 870V360Q354 260 379 214T478 168Q529 168 587 192T697 260T782 364V167Q716 89 619 36T412 -18Q320 -18 261 25T175 143T147 310V776ZM238 1229Q238 1248 241 1270T253 1309Q270 1320 298 1326T350 1332Q374 1332 402 1326T447 1309Q455 1292 458
1270T462 1229Q462 1211 459 1189T447 1149Q430 1139 402 1133T350 1126Q326 1126 298 1132T253 1149Q245 1166 242 1188T238 1229ZM610 1229Q610 1248 613 1270T625 1309Q642 1320 670 1326T722 1332Q746 1332 773 1326T818 1309Q827 1292 830 1270T834 1229Q834
1211 831 1189T818 1149Q801 1139 774 1133T722 1126Q698 1126 670 1132T625 1149Q617 1166 614 1188T610 1229Z" />
<glyph unicode="&#xfd;" horiz-adv-x="935" d="M202 -437Q155 -437 99 -427T11 -405Q8 -369 21 -325T55 -257Q79 -265 121 -273T203 -281Q271 -281 315 -251T390 -165T443 -34L450 -10Q388 -8 351 14T296 97L33 971Q68 988 100 995T158 1002Q195 1002 221 983T262
910L397 450Q411 404 425 350T451 245T472 156Q476 142 491 142L710 988Q729 992 753 994T799 996Q826 996 853 993T905 982L912 970L647 32Q604 -121 552 -225T417 -383T202 -437ZM604 1478Q649 1463 690 1424T749 1342L407 1076Q379 1084 354 1107T317 1159L604
1478Z" />
<glyph unicode="&#xfe;" horiz-adv-x="1056" d="M356 -299Q356 -367 333 -399T245 -431H169L157 -418V1458L169 1471H245Q309 1471 332 1440T356 1339V-299ZM968 512Q968 326 911 209T767 38T588 -17Q495 -17 412 21T258 113L282 275Q340 230 412 189T555 147Q612
147 657 185T730 303T758 504Q758 622 733 694T667 799T576 833Q526 833 471 806T369 722T296 575L254 727Q274 795 325 858T453 963T624 1004Q734 1004 810 941T927 767T968 512Z" />
<glyph unicode="&#xff;" horiz-adv-x="935" d="M202 -437Q155 -437 99 -427T11 -405Q8 -369 21 -325T55 -257Q79 -265 121 -273T203 -281Q271 -281 315 -251T390 -165T443 -34L450 -10Q388 -8 351 14T296 97L33 971Q68 988 100 995T158 1002Q195 1002 221 983T262
910L397 450Q411 404 425 350T451 245T472 156Q476 142 491 142L710 988Q729 992 753 994T799 996Q826 996 853 993T905 982L912 970L647 32Q604 -121 552 -225T417 -383T202 -437ZM168 1229Q168 1248 171 1270T183 1309Q200 1320 228 1326T280 1332Q304 1332 332
1326T377 1309Q385 1292 388 1270T392 1229Q392 1211 389 1189T377 1149Q360 1139 332 1133T280 1126Q256 1126 228 1132T183 1149Q175 1166 172 1188T168 1229ZM540 1229Q540 1248 543 1270T555 1309Q572 1320 600 1326T652 1332Q676 1332 703 1326T748 1309Q757
1292 760 1270T764 1229Q764 1211 761 1189T748 1149Q731 1139 704 1133T652 1126Q628 1126 600 1132T555 1149Q547 1166 544 1188T540 1229Z" />
<glyph unicode="&#x2013;" horiz-adv-x="1061" d="M131 445Q125 466 123 487T121 528Q121 549 123 570T131 613H931Q936 592 938 571T940 528Q940 508 938 487T931 445H131Z" />
<glyph unicode="&#x2014;" horiz-adv-x="1578" d="M149 445Q144 466 142 487T140 528Q140 549 142 570T149 613H1429Q1434 592 1436 571T1438 528Q1438 508 1436 487T1429 445H149Z" />
<glyph unicode="&#x2018;" horiz-adv-x="455" d="M104 1036Q93 1063 88 1098T82 1169Q82 1288 148 1384T347 1528Q375 1515 389 1486T401 1427Q368 1412 337 1387T284 1329T261 1257Q281 1255 306 1250T345 1233Q353 1220 358 1192T364 1137Q364 1113 359 1082T345
1036Q327 1026 291 1018T224 1010Q194 1010 158 1017T104 1036Z" />
<glyph unicode="&#x2019;" horiz-adv-x="455" d="M353 1499Q364 1473 369 1438T375 1367Q375 1247 309 1151T110 1007Q82 1021 68 1050T56 1109Q89 1124 120 1149T173 1207T196 1279Q177 1282 151 1287T112 1302Q104 1316 98 1344T92 1398Q92 1423 97 1454T112
1499Q130 1509 166 1517T233 1526Q263 1526 299 1519T353 1499Z" />
<glyph unicode="&#x201a;" horiz-adv-x="455" d="M357 202Q367 176 372 141T378 70Q378 -49 312 -145T113 -289Q85 -276 71 -247T59 -188Q93 -172 124 -147T176 -90T199 -18Q180 -15 154 -10T115 6Q107 20 101 48T95 101Q95 126 101 157T115 202Q133 213 169 221T237
229Q267 229 303 222T357 202Z" />
<glyph unicode="&#x201c;" horiz-adv-x="844" d="M104 1036Q93 1063 88 1098T82 1169Q82 1288 148 1384T347 1528Q375 1515 389 1486T401 1427Q368 1412 337 1387T284 1329T261 1257Q281 1255 306 1250T345 1233Q353 1220 358 1192T364 1137Q364 1113 359 1082T345
1036Q327 1026 291 1018T224 1010Q194 1010 158 1017T104 1036ZM492 1036Q481 1063 476 1098T470 1169Q470 1288 536 1384T735 1528Q763 1515 777 1486T789 1427Q756 1412 725 1387T672 1329T649 1257Q669 1255 694 1250T733 1233Q741 1220 746 1192T752 1137Q752
1113 747 1082T733 1036Q715 1026 679 1018T612 1010Q582 1010 546 1017T492 1036Z" />
<glyph unicode="&#x201d;" horiz-adv-x="844" d="M356 1499Q368 1473 373 1438T379 1367Q379 1247 313 1151T113 1007Q85 1021 72 1048T59 1109Q92 1124 123 1149T176 1207T199 1279Q180 1282 154 1287T115 1302Q107 1316 102 1344T96 1398Q96 1423 101 1454T115
1499Q133 1509 169 1517T236 1526Q266 1526 302 1519T356 1499ZM745 1499Q756 1473 761 1438T767 1367Q767 1247 701 1151T502 1007Q474 1021 460 1050T448 1109Q481 1124 512 1149T565 1207T588 1279Q569 1282 543 1287T504 1302Q496 1316 491 1344T485 1398Q485
1423 490 1454T504 1499Q522 1509 558 1517T625 1526Q655 1526 691 1519T745 1499Z" />
<glyph unicode="&#x201e;" horiz-adv-x="844" d="M357 202Q367 176 372 141T378 70Q378 -49 312 -145T113 -289Q85 -276 71 -247T59 -188Q93 -172 124 -147T176 -90T199 -18Q180 -15 154 -10T115 6Q107 20 101 48T95 101Q95 126 101 157T115 202Q133 213 169 221T237
229Q267 229 303 222T357 202ZM746 202Q756 176 761 141T767 70Q767 -49 701 -145T502 -289Q474 -276 460 -247T448 -188Q482 -172 513 -147T565 -90T588 -18Q569 -15 543 -10T504 6Q496 20 490 48T484 101Q484 126 490 157T504 202Q522 213 558 221T626 229Q656
229 692 222T746 202Z" />
<glyph unicode="&#x2022;" horiz-adv-x="894" d="M219 541Q219 572 226 627T250 712Q281 732 338 744T446 757Q494 757 554 745T644 712Q660 682 667 627T675 541Q675 510 668 455T644 371Q625 358 591 348T517 332T446 326Q395 326 338 338T250 371Q234 400 227
455T219 541Z" />
<glyph unicode="&#x2039;" horiz-adv-x="663" d="M473 74L77 445Q67 471 67 510T77 575L465 945Q500 934 533 902T579 835L302 513L590 182Q582 160 563 138T520 98T473 74Z" />
<glyph unicode="&#x203a;" horiz-adv-x="663" d="M198 74Q163 85 130 117T84 183L361 505L73 836Q81 859 99 881T142 920T190 945L585 573Q596 548 596 509T585 443L198 74Z" />
</font>
</defs>
</svg>
